#TITLE:RINGO TO HACHIMITSU;
#SUBTITLE:(OISHISA BAIZOU MIX);
#ARTIST:APPLE MAN;
#TITLETRANSLIT:;
#SUBTITLETRANSLIT:;
#ARTISTTRANSLIT:;
#GENRE:;
#CREDIT:;
#BANNER:RINGO TO HACHIMITSU (OISHISA BAIZOU MIX).png;
#BACKGROUND:RINGO TO HACHIMITSU (OISHISA BAIZOU MIX)-bg.png;
#LYRICSPATH:;
#CDTITLE:;
#MUSIC:RINGO TO HACHIMITSU (OISHISA BAIZOU MIX).mp3;
#OFFSET:-2.790000;
#SAMPLESTART:61.580002;
#SAMPLELENGTH:14.760000;
#SELECTABLE:YES;
#BPMS:0.000000=130.000000
;
#STOPS:
;
#BGCHANGES:;
#KEYSOUNDS:;
#ATTACKS:;

//---------------dance-single - Oni-91----------------
#NOTES:
     dance-single:
     :
     Hard:
     9:
     0.547135,0.570912,0.295299,0.340042,0.599547,428.000000,395.000000,33.000000,38.000000,0.000000,0.000000,0.547135,0.570912,0.295299,0.340042,0.599547,428.000000,395.000000,33.000000,38.000000,0.000000,0.000000:
// measure 0
1000
0000
0000
0000
0000
0001
0010
0000
0000
0000
0000
0010
0001
0000
0000
0100
0000
0000
0010
0000
0000
0100
0000
0000
,  // measure 1
0001
0000
0000
0000
0000
0002
0000
0000
0000
0000
0000
0000
0100
0000
0000
0000
0000
0000
1003
0000
0000
0000
0000
0000
,  // measure 2
1000
0000
0000
0000
0000
0100
0010
0000
0000
0000
0000
0010
0100
0000
0000
0010
0000
0000
0001
0000
0000
1000
0000
0000
,  // measure 3
0001
0000
0000
0000
0000
0002
0000
0000
0000
0000
0000
0000
0010
0000
0000
0000
0000
0000
1003
0000
0000
0000
0000
0000
,  // measure 4
0001
0000
0100
0000
0000
0010
1000
0000
0000
0000
0000
0001
0010
0000
0000
0001
0000
0000
1000
0000
0000
0100
0000
0000
,  // measure 5
0010
0000
0000
0000
0000
0020
0000
0000
0000
0000
0000
0000
0001
0000
0000
0000
0000
0000
0130
0000
0000
0000
0000
0000
,  // measure 6
0010
0000
0000
0001
0000
0000
0100
0000
0010
0000
0000
0100
0000
0000
0010
0000
0000
1000
0000
0000
0001
0100
0000
0001
,  // measure 7
1000
0000
0000
0001
0000
1000
0000
0000
0001
0000
0000
0010
0000
0000
0001
1000
0000
0001
0000
0000
1001
0000
0000
0000
,  // measure 8
0120
0100
0100
0100
,  // measure 9
1000
1000
1000
1030
,  // measure 10
1000
0100
0010
0001
1000
0010
0100
0001
,  // measure 11
1000
0000
0000
0001
0000
1000
0000
0000
0001
1000
0000
0000
0001
0000
1000
0000
0000
0000
1000
0000
0001
0000
0000
0000
,  // measure 12
0210
0010
0010
0010
,  // measure 13
0001
0001
0001
0001
,  // measure 14
0002
0000
0303
0000
0001
0010
0100
1000
,  // measure 15
0001
0000
0000
1000
0000
0001
0000
0000
1000
0001
0000
1000
0001
0000
0000
0000
0000
0110
0000
0000
0000
0000
0000
0000
,  // measure 16
0001
0000
0010
0000
0000
0010
0001
0000
0000
0000
0000
1000
0001
0000
0000
1000
0000
0000
0010
0000
0100
0010
0000
0100
,  // measure 17
0010
0000
0000
0000
0000
2001
0000
0000
0000
0000
0000
0000
0010
0000
0000
0000
0000
0000
3001
0000
0000
0000
0000
0000
,  // measure 18
1000
0000
0010
0000
0000
0010
1000
0000
0000
0000
0000
0001
1000
0000
0000
0001
0000
0000
0010
0000
0100
0010
0000
0100
,  // measure 19
0010
0000
0000
0000
0000
1002
0000
0000
0000
0000
0000
0000
0100
0000
0000
0000
0000
0000
1003
0000
0000
0000
0000
0000
,  // measure 20
1000
0000
0100
0000
0000
0010
0001
0000
0000
0000
0000
1000
0001
0000
0000
1000
0000
0000
0010
0000
0100
0001
0000
0100
,  // measure 21
0001
0000
0000
0000
0000
0202
0000
0000
0000
0303
0000
0000
0001
0000
0000
0010
0000
0000
0100
0000
0000
1000
0000
0000
,  // measure 22
0100
0000
1000
0000
0000
0001
0010
0000
0000
0000
0000
0001
0100
0000
0000
0010
0000
0000
1000
0000
0010
1000
0000
0010
,  // measure 23
0100
0000
0001
0000
0100
0000
0000
0000
0000
0010
0000
1000
0000
0010
0000
0000
0000
0000
1001
0000
0000
0000
0000
0000
,  // measure 24
1000
0000
0001
0000
0100
0000
0000
0010
0000
0100
0000
0010
0100
0000
0000
0000
,  // measure 25
0010
0000
1000
0000
0100
0000
0000
0010
0000
0001
0000
0010
0001
0000
1000
0000
,  // measure 26
0001
0000
0100
0000
0010
0000
0000
1000
0000
0010
0000
0100
0001
0000
0000
0000
,  // measure 27
0100
0000
0001
0000
0010
0000
0100
1000
0000
0100
0000
0010
0001
0000
1000
0000
,  // measure 28
0010
0000
0100
0000
0001
0000
2000
0100
0000
0100
0000
0100
3100
0000
1000
0000
,  // measure 29
0001
0000
0100
0000
0010
0000
0200
0001
0000
0001
0000
0001
0301
0000
0100
0000
,  // measure 30
0010
0000
1000
0000
0100
0000
0010
0100
0000
0010
0000
0100
0010
0000
0001
0000
,  // measure 31
1000
0100
1000
0001
0100
0002
2000
0000
0000
3003
0000
0000
,  // measure 32
0220
0000
0330
0000
0001
0100
0010
1000
,  // measure 33
0100
0000
0000
0010
0000
0000
0100
0000
1000
0000
0000
1000
0100
0000
0000
0001
0000
0000
0100
0000
0000
1000
0000
0000
,  // measure 34
0002
0000
0103
0010
2000
0000
3001
0010
,  // measure 35
0200
0000
0000
0000
0000
0000
0310
0000
0001
0000
0000
2002
0000
0000
0000
0000
0000
0000
3003
0000
1000
0010
0000
0000
,  // measure 36
0220
0000
0000
0000
0000
0000
0330
0000
0001
0100
0000
0001
0100
0000
0000
1000
0000
0000
0001
0000
0000
0010
0000
0000
,  // measure 37
1000
0000
0000
0001
0000
0000
1000
0000
0100
0000
0000
1000
0100
0000
0000
0010
0000
0000
0100
0000
0000
1000
0000
0000
,  // measure 38
0002
0000
0013
0001
0100
1000
0100
0001
,  // measure 39
1000
0000
0100
0000
1000
0000
0000
0000
0000
0001
0000
0100
0000
0001
0000
0000
0000
0000
1001
0000
0000
0000
0000
0000
,  // measure 40
1000
0000
0000
0100
0000
0000
0001
0000
0000
1000
0000
0000
0010
0000
0000
0001
0000
0000
0100
0000
0000
0000
0000
0010
,  // measure 41
1000
0000
0010
1000
0000
0000
0100
0000
0000
0001
0000
0000
0100
0000
0000
1000
0000
0000
0001
0000
0000
0000
0000
0000
,  // measure 42
0001
0000
0100
0001
0000
0100
0000
0000
0010
0000
0000
1000
0100
0000
0000
0001
0000
0000
0100
0000
0000
1000
0000
0001
,  // measure 43
0000
0000
0100
0000
0000
0001
0100
0000
0000
1000
0000
0000
0100
0000
0000
0010
0000
0000
1000
0000
0000
0100
0000
0000
,  // measure 44
2002
0000
0000
0000
0000
0000
3003
0000
0000
0001
0000
0000
0010
0000
0000
0001
0000
0000
0010
0000
0001
1000
0000
0000
,  // measure 45
0010
0000
0000
0210
0000
0000
0000
0000
0000
0301
0000
0000
1000
0000
0001
1000
0000
0001
0000
0000
0000
0000
0000
0000
,  // measure 46
1000
0000
0000
0100
0000
0000
0010
0000
0100
0000
0000
0010
0000
0000
0100
0000
0000
1000
0000
0000
0001
1000
0000
0001
,  // measure 47
0100
0000
0000
0010
0000
0100
0000
0000
0010
0000
0000
1000
0000
0000
0001
0010
0000
0001
0000
0000
1001
0000
0000
0000
,  // measure 48
0220
0000
0000
0330
,  // measure 49
2002
0000
0000
3003
,  // measure 50
1000
0000
0000
1001
0000
0000
0000
0000
0000
0000
0000
0000
0101
0000
0000
0000
0110
0000
0000
0000
0101
0000
0000
0000
,  // measure 51
2001
0000
0000
0000
0000
0000
0010
0000
0010
0000
0010
0000
,  // measure 52
0020
0000
0000
0000
0000
0000
0000
0000
0000
0000
0000
0000
3030
0000
0000
0000
0000
0000
1000
0000
0000
0001
0000
0000
1000
0000
0000
0000
0000
0000
0000
0000
0001
0000
0000
0000
0000
0000
0000
0000
0010
0000
0000
0000
0000
0000
0000
0000
,  // measure 53
0220
0000
0000
0000
0030
0000
0000
0000
0010
0000
0000
0010
0000
0000
0310
0000
,  // measure 54
0012
0100
1000
0103
,  // measure 55
1001
0000
0000
0000
1000
0000
0000
1100
0000
0000
0110
0000
0000
0011
0000
0000
,  // measure 56
0101
0000
0000
0000
0000
0000
0000
0000
0000
0110
0000
0000
0000
0000
0000
0000
0000
0000
1010
0000
0000
0000
0000
0000
0000
0000
0000
1001
0000
0000
0000
0000
0000
0000
0001
0000
1000
0000
0000
0001
0000
0000
0000
0000
0000
2002
0000
0000
,  // measure 57
0000
0000
0000
0000
,  // measure 58
3003
0000
0000
0000
;

//---------------dance-single - Oni-91----------------
#NOTES:
     dance-single:
     :
     Easy:
     4:
     0.210928,0.259506,0.134227,0.313196,0.004474,165.000000,150.000000,15.000000,35.000000,0.000000,0.000000,0.210928,0.259506,0.134227,0.313196,0.004474,165.000000,150.000000,15.000000,35.000000,0.000000,0.000000:
// measure 0
0001
0100
0010
1000
,  // measure 1
0002
0000
0000
0003
,  // measure 2
1000
0100
0010
0001
,  // measure 3
0200
0000
0000
0300
,  // measure 4
0010
1000
0100
1000
,  // measure 5
0020
0000
0000
0030
,  // measure 6
0100
0010
1000
0001
,  // measure 7
0010
0100
0010
0001
,  // measure 8
2001
0001
0001
0001
,  // measure 9
0010
0010
0010
3010
,  // measure 10
1000
0100
0010
0001
,  // measure 11
0100
0010
2002
3003
,  // measure 12
0210
0010
0010
0010
,  // measure 13
0001
0001
0001
0301
,  // measure 14
0100
0001
1000
0100
,  // measure 15
0010
0100
2002
3003
,  // measure 16
0001
0100
0010
1000
,  // measure 17
0002
0000
0000
0000
,  // measure 18
1003
0100
0010
0001
,  // measure 19
2000
0000
0000
0000
,  // measure 20
3010
0100
0001
0010
,  // measure 21
0200
0000
0000
0000
,  // measure 22
0310
0100
0010
0001
,  // measure 23
2002
0000
0000
3003
,  // measure 24
1001
0000
0001
0100
,  // measure 25
0001
0000
1000
0000
,  // measure 26
0001
0000
1000
0100
,  // measure 27
1000
0000
0001
0000
,  // measure 28
0100
0000
0010
0100
,  // measure 29
0010
0000
0100
0000
,  // measure 30
0001
0000
1000
0001
,  // measure 31
2002
0000
3003
0000
,  // measure 32
1000
0100
0010
0001
,  // measure 33
0100
0010
1000
0000
,  // measure 34
0001
0000
0100
0001
,  // measure 35
0100
0010
0100
0000
,  // measure 36
0001
1000
0100
0010
,  // measure 37
0100
1000
0001
0000
,  // measure 38
1000
0000
0010
0100
,  // measure 39
2002
0000
0000
3003
,  // measure 40
0001
0100
1000
0100
,  // measure 41
0001
0100
0010
0100
,  // measure 42
0001
1000
0100
0010
,  // measure 43
0100
1000
0001
1000
,  // measure 44
2002
3003
0002
0003
,  // measure 45
0200
0300
0020
0030
,  // measure 46
1000
0010
0100
0001
,  // measure 47
1000
0100
0010
0001
,  // measure 48
2002
0000
0000
3003
,  // measure 49
0220
0000
0000
0000
,  // measure 50
0330
0000
0000
0000
,  // measure 51
2002
0000
0000
0000
,  // measure 52
3003
0000
0000
0000
,  // measure 53
0220
0000
0000
0000
,  // measure 54
0330
0000
0000
0000
,  // measure 55
2002
0000
0000
0000
,  // measure 56
3003
0000
0000
0000
0000
0000
0000
0000
0000
0000
0000
0000
0000
0000
0000
2002
,  // measure 57
0000
0000
0000
0000
,  // measure 58
3003
0000
0000
0000
;

//---------------dance-single - Oni-91----------------
#NOTES:
     dance-single:
     :
     Medium:
     5:
     0.314475,0.363308,0.214763,0.259506,0.008948,246.000000,222.000000,24.000000,29.000000,0.000000,0.000000,0.314475,0.363308,0.214763,0.259506,0.008948,246.000000,222.000000,24.000000,29.000000,0.000000,0.000000:
// measure 0
1000
0000
0001
0000
0100
0010
0100
0010
,  // measure 1
0200
0000
0000
0300
,  // measure 2
0010
0000
0100
0000
0001
1000
0001
1000
,  // measure 3
0002
0000
0000
0003
,  // measure 4
1000
0000
0001
0000
0100
0010
0100
0010
,  // measure 5
0200
0000
0001
0301
,  // measure 6
0100
0001
1000
0100
,  // measure 7
0010
0001
0100
0010
,  // measure 8
2001
0001
0001
0001
,  // measure 9
0010
0010
0010
3010
,  // measure 10
0001
0100
0001
0000
1000
0010
1000
0000
,  // measure 11
0001
0010
1100
1001
,  // measure 12
0120
0100
0100
0100
,  // measure 13
1000
1000
1000
1030
,  // measure 14
2002
0000
3003
0000
0001
0010
0001
0000
,  // measure 15
1000
0000
0000
0000
0001
0000
0000
0000
0110
0000
0000
0110
0000
0000
0000
0000
,  // measure 16
1001
0000
0001
0000
0100
0001
0100
0001
,  // measure 17
1000
0100
0010
0100
,  // measure 18
1000
0000
0001
0000
1000
0001
1000
0001
,  // measure 19
2000
0000
0000
3000
,  // measure 20
0001
0000
0100
0000
0010
0100
0010
0100
,  // measure 21
0001
1000
0100
0010
,  // measure 22
0001
0000
1000
0000
0001
1000
0001
1000
,  // measure 23
0001
0000
0000
0100
0000
0000
1001
0000
,  // measure 24
0001
0100
1000
0000
0100
0000
0001
0000
,  // measure 25
1000
0100
0001
0000
0100
0000
1000
0000
,  // measure 26
0001
0010
0001
0000
1000
0000
0100
0000
,  // measure 27
1000
0010
1000
0000
0001
0000
0100
0000
,  // measure 28
0010
0100
0001
0000
0010
0000
0100
0000
,  // measure 29
0010
0100
1000
0000
0010
0000
0100
0000
,  // measure 30
0001
1000
0001
0000
1000
0000
0010
0000
,  // measure 31
0110
1001
0220
0330
,  // measure 32
2002
0000
3003
0000
0001
1000
0010
0000
,  // measure 33
0100
0001
0100
0001
0100
0000
0010
0000
,  // measure 34
2000
0000
3001
0010
,  // measure 35
0100
0000
0010
0001
0100
0000
0010
0000
,  // measure 36
2002
0000
3003
0000
0001
0100
0001
0000
,  // measure 37
1000
0010
1000
0010
0100
0000
0010
0000
,  // measure 38
1000
0000
0001
0010
0100
0000
0010
0000
,  // measure 39
0011
0000
0000
1100
0000
0000
1001
0000
,  // measure 40
0001
0100
0010
0000
1000
0000
0001
0000
,  // measure 41
0010
0001
0100
0000
0010
0000
0100
0000
,  // measure 42
0001
0010
1000
0000
1000
0010
0001
0000
,  // measure 43
1000
0010
0100
0001
,  // measure 44
2002
0000
3003
0000
0001
0010
0100
0000
,  // measure 45
0010
0000
0001
0100
0001
1000
0010
0000
,  // measure 46
0100
0000
0001
0000
1000
0000
0100
0010
,  // measure 47
0100
0010
0001
0000
1000
0010
0100
0000
,  // measure 48
2002
0000
0000
3003
,  // measure 49
0220
0000
0000
0000
,  // measure 50
0330
0000
0000
0000
,  // measure 51
2002
0000
0000
0000
,  // measure 52
3003
0000
0000
0000
,  // measure 53
0220
0000
0000
0000
,  // measure 54
0330
0000
0000
0000
,  // measure 55
2002
0000
0000
0000
,  // measure 56
3003
0000
0000
0000
0000
0000
0000
0000
0000
0000
0000
0000
0000
0000
0000
2002
,  // measure 57
0000
0000
0000
0000
,  // measure 58
3003
0000
0000
0000
;

//---------------dance-single - Oni-91----------------
#NOTES:
     dance-single:
     :
     Beginner:
     1:
     0.124000,0.153019,0.098433,0.000000,0.000000,97.000000,86.000000,11.000000,0.000000,0.000000,0.000000,0.124000,0.153019,0.098433,0.000000,0.000000,97.000000,86.000000,11.000000,0.000000,0.000000,0.000000:
// measure 0
1000
0000
0001
0000
,  // measure 1
0100
0000
0000
0000
,  // measure 2
0001
0000
1000
0000
,  // measure 3
0100
0000
0000
0000
,  // measure 4
0010
0000
0001
0000
,  // measure 5
0100
0000
0000
0000
,  // measure 6
0010
0000
1000
0000
,  // measure 7
0001
0000
1000
0000
,  // measure 8
1001
0000
0000
0000
,  // measure 9
0001
0000
0001
0000
,  // measure 10
0001
0000
0000
0000
,  // measure 11
1000
0000
1000
0000
,  // measure 12
1000
0000
0000
0000
,  // measure 13
0010
0000
0010
0000
,  // measure 14
0010
0000
0000
0000
,  // measure 15
0100
0000
0100
0000
,  // measure 16
0110
0000
0010
0000
,  // measure 17
1000
0000
0000
0000
,  // measure 18
0001
0000
0010
0000
,  // measure 19
0001
0000
0000
0000
,  // measure 20
1000
0000
0001
0000
,  // measure 21
0100
0000
0010
0000
,  // measure 22
0100
0000
0001
0000
,  // measure 23
1001
0000
0000
0000
,  // measure 24
1000
0000
0001
0000
,  // measure 25
0100
0000
0000
0000
,  // measure 26
0001
0000
1000
0000
,  // measure 27
0100
0000
0000
0000
,  // measure 28
1000
0000
0100
0000
,  // measure 29
0001
0000
0000
0000
,  // measure 30
0001
0000
0100
0000
,  // measure 31
1000
0000
0000
0000
,  // measure 32
1001
0000
0001
0000
,  // measure 33
0100
0000
0010
0000
,  // measure 34
0100
0000
0001
0000
,  // measure 35
1000
0000
0100
0000
,  // measure 36
0010
0000
0100
0000
,  // measure 37
0010
0000
0001
0000
,  // measure 38
1000
0000
0001
0000
,  // measure 39
1001
0000
0000
0000
,  // measure 40
0001
0000
0100
0000
,  // measure 41
0010
0000
0100
0000
,  // measure 42
0001
0000
1000
0000
,  // measure 43
0001
0000
0000
0000
,  // measure 44
1000
0000
0100
0000
,  // measure 45
0010
0000
0001
0000
,  // measure 46
1000
0000
0001
0000
,  // measure 47
1000
0000
0010
0000
,  // measure 48
0110
0000
0000
0000
,  // measure 49
1001
0000
0000
0000
,  // measure 50
0000
0000
0000
0000
,  // measure 51
0110
0000
0000
0000
,  // measure 52
0000
0000
0000
0000
,  // measure 53
1001
0000
0000
0000
,  // measure 54
0000
0000
0000
0000
,  // measure 55
0110
0000
0000
0000
,  // measure 56
0000
0000
0000
0000
,  // measure 57
1001
0000
0000
0000
;
