#TITLE:New Lights;
#SUBTITLE:;
#ARTIST:kors k;
#TITLETRANSLIT:;
#SUBTITLETRANSLIT:;
#ARTISTTRANSLIT:;
#GENRE:;
#CREDIT:;
#BANNER:New Lights.png;
#BACKGROUND:New Lights-bg.png;
#LYRICSPATH:;
#CDTITLE:;
#MUSIC:New Lights.mp3;
#OFFSET:-5.520000;
#SAMPLESTART:54.880001;
#SAMPLELENGTH:10.970000;
#SELECTABLE:YES;
#DISPLAYBPM:175.000000;
#BPMS:0.000000=175.000000
,128.000000=350.000000
,129.000000=175.000000
,192.000000=350.000000
,194.000000=175.000000
,269.000000=58.333000
,270.000000=350.000000
,272.000000=175.000000
,304.000000=350.000000
,305.000000=175.000000
;
#STOPS:128.000000=0.171000,
304.000000=0.171000
;
#BGCHANGES:;
#KEYSOUNDS:;
#ATTACKS:;

//---------------dance-single - Oni-91----------------
#NOTES:
     dance-single:
     :
     Hard:
     9:
     0.678447,0.706363,0.576623,0.384415,0.212229,593.000000,521.000000,72.000000,48.000000,0.000000,0.000000,0.678447,0.706363,0.576623,0.384415,0.212229,593.000000,521.000000,72.000000,48.000000,0.000000,0.000000:
2002
0000
3003
0000
0010
0100
0000
2002
,
0000
0000
0003
0100
3100
0010
0001
0201
,
0000
0000
0301
0100
0010
1000
0100
0010
,
0000
0101
0000
1010
0000
1001
1001
0000
,
1010
0000
0001
0000
0100
0000
0001
0021
,
0000
0000
0031
0000
0010
0100
1000
0001
,
0000
0000
1001
0000
1000
0010
0100
0202
,
0000
0303
0000
0011
0000
1000
0100
1000
,
1001
0000
0101
0000
0100
0010
1000
0001
,
0010
0000
0100
0010
0001
0010
0001
1000
,
0001
0000
1000
0010
1000
0001
0010
0001
,
0000
1100
0000
0011
0000
1001
1001
0000
,
1002
1000
0100
0010
,
0100
1000
0010
0100
,
0203
0010
1000
0010
,
0320
0001
0100
1000
,
2030
0100
3002
0010
,
0203
1000
0320
1000
,
1030
0010
0001
0010
1000
0010
0001
0010
,
0100
0010
0100
0010
0100
0010
0100
0010
0100
0000
0000
0000
1001
0000
0000
0000
,
1100
0000
0000
0000
0010
0000
0000
0001
0000
0000
0010
0000
0000
0100
0000
0000
,
1000
0000
0000
0100
0000
0000
1000
0000
0000
0001
0000
0000
0100
0000
0001
0000
,
0100
0000
0000
0000
1001
0000
0000
1000
0000
0000
0001
0000
0000
1000
0000
0000
,
0100
0000
0000
0001
0000
0000
0100
0000
0000
0010
0000
0000
0001
0000
1000
0000
,
0001
0000
0000
0000
1010
0000
0000
0100
0000
0000
0010
0000
0000
0100
0000
0000
,
0001
0000
0000
1000
0000
0000
0100
0000
0000
0010
0000
0010
0001
0000
0000
0000
,
1000
0000
0000
0000
0101
0000
0000
0001
1000
0000
0100
0000
0010
0000
0100
0000
,
1000
0000
0000
0000
0001
0000
0010
0001
0010
0000
0001
0000
1001
0000
0000
0000
,
0010
0000
0000
0000
1001
0000
0000
1000
0000
0000
0001
0000
0000
0010
0000
0000
,
0100
0000
0000
0010
0001
0000
1000
0000
0010
0000
0100
0000
0001
0000
1000
0000
,
0100
0000
0000
0000
0011
0000
0000
0001
0000
0000
0100
0000
0000
0010
0000
0000
,
1000
0000
0000
0001
0100
0000
1000
0000
0100
0000
0001
0000
1000
0001
1000
0000
,
0220
0330
0000
0000
0000
0000
0000
0000
1001
0000
0000
0000
0000
0000
0001
0000
0100
0000
0000
0000
1000
0000
0000
0000
0000
0000
0100
0000
0000
0000
0000
0000
,
0010
0000
0000
1000
0000
0000
0100
0000
0010
0000
0001
0000
1000
0010
1000
0000
,
0001
0010
1000
0000
0001
0100
1000
0000
,
0001
0010
1000
0000
2020
3030
0022
0033
,
1001
0000
0000
0001
0100
0000
0010
0000
0100
0000
0000
0000
1001
0000
1001
0000
,
0000
0001
0100
0000
0020
2030
3200
0320
,
0031
0001
1001
0000
0010
1000
0100
0002
,
0000
0000
0103
0000
1000
0000
0001
0010
0001
0000
1000
0100
1000
0000
0000
0000
,
0101
0000
0000
0000
1001
0000
0000
1000
0010
0000
1000
0000
0100
0000
0010
0000
,
0100
0010
0100
0010
0200
0000
0000
0000
1300
0000
0010
0000
1000
0001
1000
0001
,
1000
0000
0010
0100
0001
0010
0001
1001
,
0000
1010
0000
0011
0000
1001
0000
0110
,
0110
0000
0000
0000
0001
1000
0000
0000
0001
0000
0100
0000
1000
0000
0100
0000
,
0002
1000
1003
0100
0020
0230
2300
3002
,
1003
0001
0100
1000
0100
0010
1000
1002
,
0000
0000
0000
0000
0013
0000
0001
0000
0100
0000
0000
0001
0100
0000
0020
0000
,
0030
0000
1001
1000
,
0001
0101
0000
0100
0010
0100
0001
1000
,
0100
0010
0100
0100
1000
1000
0001
0001
,
0100
0000
0120
0000
0000
0000
1030
0000
0010
0000
1000
0000
0001
1000
0001
1000
,
0001
2002
0000
0003
,
0010
0020
0000
0000
0000
0000
3030
0000
,
0000
0000
2002
3000
,
0100
0200
0000
0003
0000
0010
0000
0001
,
0301
0000
1001
0000
0101
0000
0010
1000
,
0000
2002
0000
3003
0011
0000
1000
0100
,
0010
0200
0000
0300
1001
0000
0001
0101
,
0000
1010
0000
0101
0000
0011
0000
1001
,
0010
0000
0100
0000
1001
0000
0000
1000
0100
0000
1000
0000
0100
0000
0010
0000
,
0001
0000
0010
0000
0001
0000
0000
1000
0010
0000
0100
0000
0001
0000
0100
0000
,
0010
0000
1000
0000
0001
0000
0000
1000
0001
0000
1000
0000
0100
0000
0010
0000
,
0001
0000
0100
0000
0010
0000
0000
0100
0010
0000
0100
0001
0100
0000
0001
0000
,
1000
0001
1000
0100
0010
0001
1000
0100
,
0010
0001
1000
0010
0100
0001
1000
0010
,
0100
0001
1000
0100
0001
0100
1000
0010
,
0100
0010
2002
0000
3003
0000
0000
0000
,
1000
0000
0010
0000
0100
0000
0001
0000
1000
0000
0000
0001
0010
0000
0100
0000
,
0010
0001
1000
0100
0010
0100
1000
0000
,
0001
0100
1000
0100
0010
0010
0010
0100
,
0001
1000
0100
1000
0001
1000
0001
0010
,
0100
0000
0000
0010
0100
0000
0000
0000
0010
0000
0001
0000
1000
0000
0100
0000
,
0010
0010
0010
0001
0100
0010
1000
0010
,
1000
0100
0001
1000
0010
0001
1000
1001
,
0000
0000
0110
0000
0110
0000
0000
0000
1001
0000
0000
1000
0001
0000
0100
0000
,
0220
0330
0000
0000
1001
0000
0001
0000
0010
0000
0000
0001
0010
0000
0001
0000
,
1000
1000
1000
0000
0001
0100
1000
0100
,
0010
1000
0100
0010
0100
0100
0100
0010
,
0001
0100
1000
0001
0010
0100
0001
0010
,
0100
0000
0000
0010
0001
0000
0000
0000
1000
0000
0001
0000
0100
0000
0000
0010
,
0001
1000
0100
0010
1000
0100
0010
0100
,
0010
0001
1000
0100
0010
0100
1000
1001
,
0000
0101
0000
0110
0000
1010
0010
0100
,
1001
0000
0000
0000
;

//---------------dance-single - Oni-91----------------
#NOTES:
     dance-single:
     :
     Beginner:
     3:
     0.211657,0.302727,0.200216,0.000000,0.000000,185.000000,160.000000,25.000000,0.000000,0.000000,0.000000,0.211657,0.302727,0.200216,0.000000,0.000000,185.000000,160.000000,25.000000,0.000000,0.000000,0.000000:
1001
0000
0000
0000
0000
0000
0000
1001
,
0000
0000
0000
0000
,
0000
0000
0110
0000
0000
0000
0000
0110
,
0000
0000
0000
0000
,
1001
0000
0000
0000
0000
0000
0000
1001
,
0000
0000
0000
0000
,
1000
0000
0001
0000
0000
0000
0000
1001
,
0000
0000
1000
0010
,
0110
0000
0000
0000
0000
0000
0000
0110
,
0000
0010
1000
0001
,
0000
0000
1001
0000
0000
0000
0000
1001
,
0000
0000
0000
0000
,
0001
0000
1000
0000
,
0001
0000
1000
0000
,
0010
0000
0100
0000
,
0010
0000
0100
0000
,
0001
0001
1000
1000
,
0001
0001
1000
1000
,
0010
0100
0010
0100
,
0010
0010
0010
0000
,
1001
0000
0001
0000
,
1000
0000
0000
0000
,
0100
0000
0010
0000
,
0100
0000
1000
0000
,
0001
0000
0100
0000
,
0010
0000
0000
0000
,
0110
0000
0000
0000
,
0000
0000
0000
0000
,
1001
0000
0001
0000
,
1000
0000
0000
0000
,
0100
0000
0010
0000
,
0100
0000
1000
0000
,
0001
0000
0000
0000
,
1000
0000
0001
0000
,
0110
0000
0000
0000
,
0000
0000
0000
0000
,
1001
0000
0001
0001
,
0001
0000
1000
0000
,
0100
0000
0010
0000
,
0100
0000
1000
1000
,
1000
0000
0010
0000
,
0100
0000
0001
0000
,
1000
0000
0000
0000
0001
0000
0000
1001
,
0000
0000
0000
0000
,
1000
0000
0010
0000
,
0100
0000
0000
0000
,
0010
0000
0100
0000
,
0001
0000
1000
0000
,
1001
0000
0000
0000
,
0000
0001
0000
1000
,
0000
0100
0000
0010
,
0000
0110
0000
0000
0000
0000
0000
0000
,
0000
1001
0000
0000
,
0000
0000
0000
0000
,
0000
1000
0000
0010
,
0000
0100
0000
0001
,
0000
1000
0000
0000
,
0000
1001
0000
0000
0000
0000
0000
0000
,
0000
0000
1001
0000
,
0000
0110
0000
0000
0000
0000
0000
0000
,
0000
0010
0000
0010
,
0000
0100
0000
0100
,
0000
1000
0000
1000
,
0000
0001
0000
0001
,
0000
1000
0000
0001
,
0000
0100
0000
0010
,
0000
0100
0010
0100
,
0010
0100
0000
0000
,
0010
0000
1000
0000
,
0001
0000
1000
1000
,
1000
0000
0001
0000
,
0010
0000
0100
0100
,
0100
0000
0010
0000
,
0001
0000
1000
1000
,
1000
0000
0001
0000
,
0100
0000
0010
0000
,
0110
0000
0100
0010
,
0100
0000
0010
0000
,
1000
0000
0001
1000
,
0001
0000
1000
0000
,
0100
0000
0010
0100
,
0010
0000
0001
0000
,
1000
0000
0010
0000
,
0100
0100
0010
0010
,
1001
0000
0000
0000
;

//---------------dance-single - Oni-91----------------
#NOTES:
     dance-single:
     :
     Easy:
     6:
     0.394712,0.470909,0.344372,0.248268,0.000000,345.000000,302.000000,43.000000,31.000000,0.000000,0.000000,0.394712,0.470909,0.344372,0.248268,0.000000,345.000000,302.000000,43.000000,31.000000,0.000000,0.000000:
2002
0000
3003
0000
0001
1000
0000
2002
,
0000
0000
3003
0000
0001
0000
0100
0010
,
0000
0000
0110
0000
0000
0000
0010
1000
,
0000
1001
0000
1001
0000
0001
1000
0000
,
0110
0000
0000
0000
0010
0000
2000
0002
,
0000
3003
1000
0200
,
0300
0000
0220
0000
0330
0000
0002
2000
,
0000
3003
0000
1001
0000
0001
0100
0000
,
0110
0000
0010
0000
1000
0000
0000
1001
,
0000
1000
0100
0010
,
0001
0000
0010
0000
0100
0000
0010
0010
,
0000
0110
0000
1001
0000
0010
0100
0000
,
0010
0001
1000
0100
,
1000
0001
0100
0010
,
1000
0010
0100
0001
,
0010
0001
1000
0010
,
1010
0100
0001
0010
,
1000
0010
0001
0100
,
0001
0010
0100
1000
,
0100
0010
2002
3003
,
0010
1001
0100
0010
,
1000
0001
0010
0010
,
0100
1001
0010
0001
,
1000
0010
1000
1000
,
0110
1001
0001
0010
,
0100
0010
0001
0001
,
0220
0000
0000
0000
,
0000
0000
0000
0000
,
0330
1001
0001
0010
,
0100
0010
0001
1000
,
0001
0001
1000
0010
,
0100
0010
1000
0100
,
0220
0330
0010
0001
,
1000
0100
1000
0001
,
2002
0000
0000
0000
,
0000
0000
0000
3003
,
0001
0100
1000
0100
,
0010
0100
0001
0001
,
0001
1000
0100
0010
,
0100
1000
0001
1000
,
0110
0010
1000
0001
,
0010
0100
0010
0010
,
0010
0000
0001
0000
1000
0000
0010
0010
,
0000
0110
0000
0110
0000
1001
0000
0000
,
1001
0110
0010
1000
,
0100
1000
0001
0001
,
0001
0010
0100
0010
,
0001
0100
0010
1000
,
2002
0000
3003
0001
,
1000
0100
0010
0100
,
0010
0001
0001
1000
,
0000
1001
0000
0000
0001
0000
0100
0000
,
0110
2002
0000
0003
,
0000
0020
0000
0000
0000
0000
3030
0000
,
0000
0000
2002
0003
,
0000
0200
0000
0000
0000
0000
0000
0000
,
3300
1000
0001
0100
,
0000
0110
0000
0000
0010
0000
1000
0000
,
0001
0000
1000
0000
1001
0000
0001
1000
,
0000
1001
0000
0110
0000
1001
0000
1000
,
0001
1000
0100
0001
,
0100
0010
0001
0100
,
0100
0100
0010
1000
,
0010
0001
0010
0100
,
0100
0100
0010
1000
,
0100
0010
0001
1000
,
1000
0000
1000
0001
1000
0000
0001
1000
,
0001
2002
3003
0000
,
1000
0100
0010
0100
,
0010
0001
1000
1000
,
1000
0001
0100
0010
,
1000
0010
0100
0100
,
0100
0001
0010
0001
,
1000
0100
0001
0100
,
1000
0001
0010
0100
,
0010
0001
1000
2002
,
3003
0000
1001
0000
0001
0000
0100
0001
,
0000
0100
0001
1000
,
0100
0000
0010
0000
0100
0000
1000
0100
,
0000
0000
1000
0000
0001
1000
0001
0000
,
1000
0000
0010
0000
0100
0000
0010
0100
,
0000
0000
0010
0000
0100
0000
0001
1000
,
0001
0000
0100
0000
0010
0000
1000
0010
,
0000
0110
0000
0110
0000
0001
1000
0001
,
1000
0000
0000
0000
;

//---------------dance-single - Oni-91----------------
#NOTES:
     dance-single:
     :
     Medium:
     8:
     0.560605,0.571818,0.432467,0.256277,0.024026,490.000000,436.000000,54.000000,32.000000,0.000000,0.000000,0.560605,0.571818,0.432467,0.256277,0.024026,490.000000,436.000000,54.000000,32.000000,0.000000,0.000000:
0220
0000
0330
0000
0010
1000
0000
2002
,
0000
0000
3003
0000
0001
1000
0001
2000
,
0000
0000
3100
0000
0010
0000
0100
1000
,
0000
1100
0000
1001
0000
1000
0001
0000
,
1001
0000
1000
0000
0010
0000
0100
0020
,
0000
0000
1030
0000
0001
1000
0100
1000
,
0000
0000
0001
0000
0010
0001
1000
0200
,
0000
0300
0000
0110
0000
0001
0010
0100
,
1000
0000
0001
0000
1000
0000
0010
0100
,
0010
0000
0100
0000
0001
1000
0001
0000
,
1000
0000
0100
0000
0010
0001
0010
0001
,
0000
1100
0000
0011
0000
0001
1000
0000
,
0001
0100
1000
0100
,
0001
0010
1000
0010
,
0001
0010
0100
1000
,
0100
0010
0001
1000
,
0001
0100
0001
0000
1000
0010
1000
0000
,
0001
0010
0001
0000
1000
0100
1000
0000
,
0001
0100
0010
1000
0100
0010
0100
2000
,
0001
0001
0001
0001
3001
0000
1001
0000
,
1000
0101
0001
1100
,
0001
0000
0100
0000
0010
1000
0001
0010
,
0100
0011
0100
1010
,
0001
0000
1000
0000
0001
0100
0001
1000
,
0100
0011
1000
0110
,
0001
0000
0000
0000
1010
0000
0000
0000
0010
0000
0000
1000
0001
0000
0000
0000
,
1000
0000
0101
0000
1000
0010
0000
0100
,
0001
0000
1000
0001
0010
0000
1001
0000
,
0100
0011
1000
0101
,
0010
1000
0001
0000
0010
0001
0100
0010
,
1000
0011
0100
1010
,
0010
1000
0001
0000
1000
0100
0010
0000
,
0220
0330
0000
0000
0110
0000
0000
0000
0010
0000
0001
0000
1000
0000
0000
0000
,
0001
0000
1010
0000
0100
0001
1000
0100
,
0020
0031
0002
0103
,
0200
0310
0110
1001
,
1100
0000
0001
0010
0100
0000
0010
0001
,
0000
1000
0010
0000
1000
0100
1000
0001
,
0100
0100
0100
0000
0001
0000
1000
0100
,
0000
0100
1000
0000
0010
0100
0010
0000
,
1001
0000
0011
0000
1000
0100
0010
0001
,
1000
0001
1000
0000
0010
0100
0001
0010
,
0100
0010
0001
0000
1000
0000
0001
0100
,
0000
1010
0000
0101
0000
0011
0000
1000
,
0100
0000
0000
0000
1000
0001
0000
0000
0100
0000
0000
0000
1001
0000
0000
0000
,
0001
0100
0010
0000
1000
0100
1000
0100
,
0010
0000
0100
0000
1000
0000
0001
0200
,
0000
0000
0310
0000
0100
0001
2000
0002
,
3003
0000
1001
0001
,
1000
0010
0000
0100
0001
0000
1000
0100
,
1000
0000
0001
0100
0010
1000
0100
0010
,
0001
0100
0000
0001
0100
0001
1000
0000
,
1001
0202
0000
0300
,
1000
2000
0000
0000
0000
0000
3003
0000
,
0000
0000
2020
0030
,
0100
0200
0000
3000
0000
0010
0000
0010
,
0310
0000
2002
0000
3003
0000
0001
0100
,
0000
2020
0000
0000
3030
0000
1000
0100
,
0010
0002
0000
0003
1001
0000
1000
1010
,
0000
0010
0000
0110
0000
1010
0000
1000
,
0001
0000
1000
0100
1000
0000
0001
0100
,
0001
0000
1000
0010
1000
0000
0001
0010
,
0001
0000
1000
0100
0001
0000
0001
0100
,
1000
0000
1000
0010
0001
0000
0001
0010
,
1000
0000
0001
0010
0001
0010
0100
1000
,
0100
0000
1000
0010
1000
0010
0100
0001
,
0100
0000
0001
0100
0010
1000
0100
0010
,
0001
1000
2002
0000
3003
0000
0000
0000
,
1001
0000
0000
0000
0101
0000
0000
0000
0001
0000
0000
1000
0001
0000
0000
0000
,
1000
0100
0010
0000
0001
0100
0010
0000
,
1000
0000
0010
0000
0100
0001
0010
0100
,
0000
0010
0000
0001
0000
1000
0010
1000
,
0001
0100
0001
0000
1000
0010
1000
0000
,
0001
0010
0100
0000
0010
0001
1000
0000
,
0010
1000
0001
0100
0001
1000
0001
2000
,
0000
0000
0001
0000
3001
0000
0000
0000
0110
0000
0000
1000
0001
0000
0100
0000
,
0220
0330
0000
0000
0110
0000
0000
0000
0010
0000
0000
1000
0010
0000
0000
0000
,
0100
0001
0100
0000
0001
0000
1100
0000
,
0010
0001
1000
0000
0001
0100
0010
1000
,
0000
1000
0010
0000
0100
0001
0010
0100
,
0010
0000
0000
0010
0100
0000
0000
0000
0010
0000
0001
0000
1000
0000
0000
0000
,
0001
0100
0001
0000
1000
0010
0100
0001
,
1000
0001
1000
0001
0010
0100
0010
0001
,
0000
0011
0000
1100
0000
1000
0001
1000
,
1001
0000
0000
0000
;

//---------------dance-single - Oni-91----------------
#NOTES:
     dance-single:
     :
     Challenge:
     11:
     0.885528,0.975454,0.864934,0.296320,0.520562,774.000000,666.000000,108.000000,37.000000,0.000000,0.000000,0.885528,0.975454,0.864934,0.296320,0.520562,774.000000,666.000000,108.000000,37.000000,0.000000,0.000000:
// measure 0
2002
0000
3003
0000
0110
0110
0000
2002
,  // measure 1
0000
0000
0003
0001
3001
0010
0110
2100
,  // measure 2
0000
0000
3001
0100
1000
0001
0010
1010
,  // measure 3
0000
1100
0000
0011
0000
1001
0110
0000
,  // measure 4
1001
0000
0001
0000
0010
0000
1100
1002
,  // measure 5
0000
0000
0103
0000
0010
1000
0100
0010
,  // measure 6
0100
0000
1001
0000
0010
0001
1001
2020
,  // measure 7
0000
3030
0000
0101
0000
0001
1001
0000
,  // measure 8
1010
0000
0101
0000
0010
1000
1001
0001
,  // measure 9
0010
0000
0110
0000
0100
0010
0001
1000
,  // measure 10
0020
0000
1030
0100
0001
1000
0010
0110
,  // measure 11
0000
0011
0000
1100
0000
1001
1001
0000
,  // measure 12
0021
0100
1000
0100
,  // measure 13
0001
0100
0001
0100
,  // measure 14
0230
0001
0010
0001
,  // measure 15
0010
1000
0010
1300
,  // measure 16
1001
0000
0001
0010
0001
0000
0010
0100
0010
0000
0100
1000
0100
0000
1000
0001
,  // measure 17
1000
0000
0001
0100
0001
0000
0100
0010
0100
0000
0010
1000
0010
0000
1000
0001
,  // measure 18
0100
1000
0010
1000
0100
0001
0010
0100
,  // measure 19
0010
0001
0010
0100
1000
0100
1000
0010
0100
0001
0100
0001
1000
0000
0000
0000
,  // measure 20
1001
0000
0000
0000
0101
0000
0000
0010
1000
0000
0001
0000
0010
0001
0000
0000
,  // measure 21
0010
0000
0000
0001
1000
0000
0010
0000
0100
0000
0001
0000
0010
0000
0100
0000
,  // measure 22
0010
0000
0000
0000
1001
0000
0000
1000
0010
0000
0100
0000
0001
0010
0100
0000
,  // measure 23
0010
0000
0000
0001
0100
0000
0010
1000
0010
0000
1000
0000
0001
1000
0001
0000
,  // measure 24
1010
0000
0000
0000
1001
0000
0001
0010
0100
0000
0010
0000
0001
0010
0000
0000
,  // measure 25
0001
0000
0000
1000
0010
0000
0100
0000
0001
0100
0010
0100
0001
0000
0000
0000
,  // measure 26
1000
0000
0100
0000
0010
0000
0100
1000
0100
1000
0100
0000
1000
0001
1000
0000
,  // measure 27
0001
0000
0100
0000
0110
0000
0010
1000
0010
0000
0100
0000
2002
0000
0000
0000
,  // measure 28
3003
0000
0000
0000
1010
0000
0001
0100
0001
0000
1000
0000
0100
0010
0100
0000
,  // measure 29
0010
0000
0001
0100
0010
0000
0100
0000
0001
1000
0100
0000
0010
0001
1000
0000
,  // measure 30
0010
1000
0000
0000
0101
0000
0010
0100
0001
0000
0100
0000
0010
1000
0001
0000
,  // measure 31
1000
0000
0100
1000
0001
0000
1000
0000
0100
0010
0100
0010
0001
1000
0001
2000
,  // measure 32
0002
3003
0000
0000
1001
0000
0001
0100
1000
0000
0100
0000
0010
0100
0010
0000
,  // measure 33
1000
0000
0001
0010
1000
0000
0010
0000
0100
0010
0001
1000
0001
0100
0010
0000
,  // measure 34
1000
0000
0100
0000
0010
0000
1000
0001
1000
0001
0100
0010
0100
0000
0010
1000
,  // measure 35
0001
0000
1000
0000
0100
0000
0010
0001
1001
0000
0000
0000
0110
0000
0000
0000
,  // measure 36
1010
0000
0000
0001
1001
0000
1000
0000
1100
0000
0100
0000
0010
0000
1001
0000
,  // measure 37
0000
1000
0010
0100
0002
0023
0032
0203
,  // measure 38
0310
0000
0110
0000
1001
0000
0000
1000
0100
0000
0010
0000
0100
0000
1001
0000
,  // measure 39
0000
0000
0001
0000
0100
0000
1000
0100
0001
0000
0000
0001
0100
0000
0010
0000
,  // measure 40
1010
0000
0000
0000
1001
0000
1000
0100
0010
0000
0100
0000
1000
0000
0001
0100
,  // measure 41
0010
1000
0100
0010
0001
0000
1000
0000
0100
0000
0010
0000
0001
1000
0001
1000
,  // measure 42
0020
0000
1030
0100
0001
1000
0010
0110
,  // measure 43
0000
0011
0000
1001
0000
1010
0000
0101
,  // measure 44
1001
0000
0000
0000
0110
0010
0000
0000
0100
0000
0001
0000
1000
0000
1100
0000
,  // measure 45
0100
0010
0100
0010
0001
0010
0001
1000
0001
0100
0010
1000
0010
0100
0001
1000
,  // measure 46
0001
0000
1000
0000
0001
0010
0100
1000
0100
0000
0010
0000
0001
0000
0120
0000
,  // measure 47
0000
0000
1030
0000
0010
0000
1000
0000
0001
0010
0100
0010
0001
0000
0100
0000
,  // measure 48
0220
0000
0000
0000
0000
0000
0330
0000
1001
0000
1000
0010
0001
0000
0001
0010
,  // measure 49
1000
0000
0010
0000
0100
0000
0001
0000
1000
0000
0001
0010
0100
1000
0100
0010
,  // measure 50
0001
0000
1000
0010
1000
0100
1000
0100
0010
0001
0010
0001
1000
0010
0100
0010
,  // measure 51
0100
0001
2000
0000
0000
0000
0001
0000
0001
0000
0001
0000
3001
1000
0010
0100
,  // measure 52
0001
1000
0010
0100
0202
0000
0000
0000
0000
0000
0000
0000
0300
0000
0000
0000
,  // measure 53
1000
2000
0000
0000
0000
0000
0000
0000
,  // measure 54
3003
0000
0000
0000
2002
0000
0003
0010
,  // measure 55
0001
3020
0000
0000
0000
0100
0000
1000
,  // measure 56
1030
0000
1001
0000
0110
0000
0001
1000
,  // measure 57
0000
0000
0110
0000
0000
0000
0000
0000
1010
0000
1000
0100
0010
0000
0100
0000
,  // measure 58
1000
0001
0010
0000
1001
0000
1000
0010
,  // measure 59
0100
1100
0000
0101
0000
0011
0000
1100
,  // measure 60
1001
0000
0001
0000
0101
0000
0000
1000
0001
0000
1000
0000
0100
0000
0001
0000
,  // measure 61
0100
0000
0010
0000
0001
0000
1000
0010
1000
0000
0001
0100
0001
0000
1000
0000
,  // measure 62
0100
0000
1000
0000
0010
0000
0000
0100
1000
0000
0100
0000
0001
0000
1000
0000
,  // measure 63
0100
0000
0010
0100
1000
0000
0100
0010
0100
0000
0010
0001
1000
0000
0001
0000
,  // measure 64
0100
0001
1000
1000
0010
0010
0001
0001
,  // measure 65
0010
0000
0010
1000
0100
0000
0100
0000
1000
0000
1000
0000
0001
0000
0001
0000
,  // measure 66
0100
0010
0100
0010
1000
0010
0100
0001
0010
0100
0010
0100
1000
0001
1000
0001
,  // measure 67
0100
0010
0100
0001
2002
0000
0000
0000
3003
0000
0000
0000
0000
0000
0000
0000
,  // measure 68
1001
0000
0001
0000
0100
0000
0010
0000
0001
0000
0010
0100
0010
0000
1001
0000
,  // measure 69
1100
0100
0010
0001
1000
0100
0001
0100
,  // measure 70
1000
0010
0001
0010
1010
0101
1001
1000
,  // measure 71
0100
0001
0100
1000
1100
1000
1001
0001
,  // measure 72
0101
0000
0000
0100
0110
0000
0010
0000
1000
0000
0100
0000
0010
0000
0100
0000
,  // measure 73
1100
1001
0011
0010
0100
0001
0100
1000
,  // measure 74
1001
0001
0100
1000
0100
0010
1000
1100
,  // measure 75
0000
0000
1001
0000
0101
0000
0000
0000
1001
0000
0000
1000
0100
0010
0001
1000
,  // measure 76
0001
0000
0000
0000
0110
0000
0000
0000
0010
0000
0100
0010
1000
0000
0001
0000
,  // measure 77
0011
1100
1001
0001
2000
3020
0032
0023
,  // measure 78
1030
0100
0010
1000
1010
0011
1001
1020
,  // measure 79
0000
0130
0001
0010
0100
0001
0100
1000
,  // measure 80
1001
0000
0001
0100
0010
0000
0100
0000
1000
0000
0100
0000
0001
0000
1000
0100
,  // measure 81
0010
0100
1001
0100
0010
1000
0100
1000
,  // measure 82
0001
0100
0010
0100
0010
1000
0100
1000
0001
0010
0100
1000
0100
0010
0001
0000
,  // measure 83
0000
0000
0011
0000
0000
0000
1100
0000
0000
0000
1000
0010
0100
0000
0101
0000
,  // measure 84
1001
0000
0000
0000
;
