#TITLE:Me, Myself and I;
#SUBTITLE:;
#ARTIST:De La Soul;
#TITLETRANSLIT:;
#SUBTITLETRANSLIT:;
#ARTISTTRANSLIT:;
#GENRE:;
#CREDIT:;
#BANNER:Me, Myself and I.png;
#BACKGROUND:Me, Myself and I-bg.png;
#LYRICSPATH:;
#CDTITLE:;
#MUSIC:Me, Myself and I.mp3;
#OFFSET:-2.110000;
#SAMPLESTART:77.520004;
#SAMPLELENGTH:16.750000;
#SELECTABLE:YES;
#DISPLAYBPM:115.000000;
#BPMS:0.000000=114.580002
;
#STOPS:
;
#BGCHANGES:;
#KEYSOUNDS:;
#ATTACKS:;

//---------------dance-single - Oni-91----------------
#NOTES:
     dance-single:
     :
     Hard:
     7:
     0.383032,0.377852,0.209918,0.114501,0.066792,281.000000,259.000000,22.000000,12.000000,0.000000,0.000000,0.383032,0.377852,0.209918,0.114501,0.066792,281.000000,259.000000,22.000000,12.000000,0.000000,0.000000:
// measure 0
1000
0000
0001
0000
1000
0100
1000
0010
,  // measure 1
0100
0000
0000
0200
0000
0000
0000
0000
0000
0000
0000
0000
0301
0000
0000
0000
,  // measure 2
1001
0000
0100
0000
0010
0001
0100
0001
,  // measure 3
1002
0000
1000
0000
1000
0000
1000
0003
,  // measure 4
1001
0000
0110
0000
0010
1000
0100
0000
,  // measure 5
0010
0001
0100
0010
1000
1000
1000
0000
,  // measure 6
0001
0010
0100
0010
0001
0000
1000
0010
,  // measure 7
0100
0001
1000
0100
0010
0010
0010
0000
,  // measure 8
0001
0100
1000
0100
0010
1000
0100
0000
,  // measure 9
0001
0010
0100
0001
0100
1000
0010
0000
,  // measure 10
0100
0010
1000
0001
0010
0100
0010
0100
,  // measure 11
1200
1000
1000
1300
,  // measure 12
1010
0000
1100
0000
1000
0010
0100
0001
,  // measure 13
0010
0000
0000
0001
0000
0000
0020
0000
0000
0000
0000
0100
0000
0000
0130
0000
,  // measure 14
0010
0001
0100
0000
0010
1000
0100
0010
,  // measure 15
0100
0000
0000
1000
0000
0000
0200
0000
0000
0000
0000
0010
0000
0000
0310
0000
,  // measure 16
0001
0100
1000
0100
0001
0000
1001
0000
,  // measure 17
1000
0000
0000
0100
0000
0000
1000
0000
0001
0000
0000
0000
0010
0000
0001
0000
,  // measure 18
0100
1000
0100
0001
1000
0000
0001
0000
,  // measure 19
0210
0010
0010
0310
,  // measure 20
1001
0000
1000
0001
0100
0000
0110
0000
,  // measure 21
1001
0000
1000
0100
0010
0000
0100
1000
,  // measure 22
0100
0010
0001
0100
0010
0000
0100
0001
,  // measure 23
0010
1000
0010
0001
1000
0000
0010
1000
,  // measure 24
2002
0000
0000
0000
,  // measure 25
0000
0000
0000
3003
,  // measure 26
1000
0000
0001
0000
0100
0010
0100
0000
,  // measure 27
0010
1000
0001
0001
0002
0000
0003
0000
,  // measure 28
1000
0100
0010
0100
1000
0000
0101
0000
,  // measure 29
0001
0100
0010
0100
0001
0000
1100
0000
,  // measure 30
1000
0100
0010
0001
0100
1000
0100
0010
,  // measure 31
1000
0000
0001
1000
0100
0000
0110
0000
,  // measure 32
1001
0000
0001
0100
0010
1000
0100
0001
,  // measure 33
0100
0000
0010
0001
0100
0000
0110
0000
,  // measure 34
0001
1000
0100
0010
0100
1000
0001
0100
,  // measure 35
0020
0000
1000
1000
2000
0000
3030
0000
,  // measure 36
1001
0000
1100
0000
0010
0001
0100
1000
,  // measure 37
0100
0000
0100
0010
0000
0000
0100
0000
0001
0000
0001
1000
0000
0000
0001
0000
,  // measure 38
0010
0001
0100
0010
1000
0000
0100
0010
,  // measure 39
0100
0000
0010
0100
0000
0000
0010
0000
0001
0000
1000
0001
0000
0000
1000
0000
,  // measure 40
0010
0000
0001
0000
0010
0000
1000
0100
0000
0000
0010
0000
0001
0000
0100
0000
,  // measure 41
0010
0000
0100
0010
0000
0000
0100
0000
0001
0000
0100
0001
0000
0000
0100
0000
,  // measure 42
0001
0000
0010
0000
0100
0000
1000
0100
0000
0000
0010
0000
0001
0000
0100
0000
,  // measure 43
0210
0010
0010
0310
,  // measure 44
1001
0000
0000
0000
;

//---------------dance-single - Oni-91----------------
#NOTES:
     dance-single:
     :
     Beginner:
     1:
     0.113137,0.146942,0.047709,0.038167,0.000000,83.000000,78.000000,5.000000,4.000000,0.000000,0.000000,0.113137,0.146942,0.047709,0.038167,0.000000,83.000000,78.000000,5.000000,4.000000,0.000000,0.000000:
// measure 0
1000
0000
0010
0000
,  // measure 1
1000
0000
0000
0000
,  // measure 2
0001
0000
0100
0000
,  // measure 3
1001
0000
0000
0000
,  // measure 4
1000
0000
0100
0000
,  // measure 5
1000
0000
0000
0000
,  // measure 6
0001
0000
0100
0000
,  // measure 7
0001
0000
1000
0000
,  // measure 8
0100
0000
0010
0000
,  // measure 9
0100
0000
0000
0000
,  // measure 10
0010
0000
0001
0000
,  // measure 11
1000
1000
2000
3000
,  // measure 12
1001
0000
0001
0000
,  // measure 13
0100
0000
0000
0000
,  // measure 14
0010
0000
0100
0000
,  // measure 15
0001
0000
1000
0000
,  // measure 16
0100
0000
0010
0000
,  // measure 17
0100
0000
0000
0000
,  // measure 18
0010
0000
0001
0000
,  // measure 19
0100
0100
0200
0300
,  // measure 20
0110
0000
0010
0000
,  // measure 21
1000
0000
0001
0000
,  // measure 22
0100
0000
0010
0000
,  // measure 23
0100
0000
0001
0000
,  // measure 24
2002
0000
0000
0000
,  // measure 25
0000
0000
0000
3003
,  // measure 26
1000
0000
0100
0000
,  // measure 27
1000
0000
0000
0000
,  // measure 28
1001
0000
0000
0000
,  // measure 29
0001
0000
0100
0000
,  // measure 30
0001
0000
0000
0000
,  // measure 31
1000
0000
0100
0000
,  // measure 32
0010
0000
0010
0000
,  // measure 33
0100
0000
0100
0000
,  // measure 34
1000
0000
0001
0001
,  // measure 35
0000
0000
0000
0000
,  // measure 36
1000
0000
0100
0000
,  // measure 37
1000
0000
0000
0000
,  // measure 38
0001
0000
0100
0000
,  // measure 39
0001
0000
1000
0000
,  // measure 40
0001
0000
0010
0000
,  // measure 41
0100
0000
0000
0000
,  // measure 42
0010
0000
0001
0000
,  // measure 43
1000
1000
1000
1000
,  // measure 44
1000
0000
0000
0000
;

//---------------dance-single - Oni-91----------------
#NOTES:
     dance-single:
     :
     Easy:
     3:
     0.185382,0.209918,0.076334,0.133584,0.000000,136.000000,128.000000,8.000000,14.000000,0.000000,0.000000,0.185382,0.209918,0.076334,0.133584,0.000000,136.000000,128.000000,8.000000,14.000000,0.000000,0.000000:
// measure 0
1000
0001
0100
0000
,  // measure 1
0001
1000
0100
0000
,  // measure 2
0010
0001
0100
0000
,  // measure 3
2002
0000
0000
3003
,  // measure 4
1001
0000
1000
0000
,  // measure 5
0001
0100
0010
1000
,  // measure 6
0001
0000
1000
0000
,  // measure 7
0001
0010
0100
1000
,  // measure 8
0100
0000
0010
0000
,  // measure 9
0100
0010
0100
0010
,  // measure 10
0001
1000
0001
1000
,  // measure 11
2002
0000
0000
3003
,  // measure 12
0001
0100
1000
0100
,  // measure 13
0001
0000
1000
0000
,  // measure 14
0001
0010
1000
0010
,  // measure 15
0001
0000
1000
0000
,  // measure 16
0001
0100
0010
1000
,  // measure 17
0100
0000
0010
0000
,  // measure 18
0100
0010
0001
0100
,  // measure 19
0220
0000
0000
0330
,  // measure 20
0010
1000
0010
0000
,  // measure 21
0100
0001
0100
0000
,  // measure 22
0001
0010
0100
1000
,  // measure 23
0100
0001
0200
0300
,  // measure 24
2002
0000
0000
0000
,  // measure 25
0000
0000
0000
3003
,  // measure 26
1000
0001
1000
0001
,  // measure 27
0100
0010
0200
0300
,  // measure 28
0010
0010
0010
0000
,  // measure 29
0100
0100
0100
0000
,  // measure 30
0001
1000
0100
0010
,  // measure 31
0001
1000
0001
0000
,  // measure 32
1000
1000
1000
0000
,  // measure 33
0001
0001
0001
0000
,  // measure 34
1000
0010
0100
0001
,  // measure 35
2002
0000
0000
3003
,  // measure 36
0001
0100
1000
0100
,  // measure 37
0001
1000
0001
0000
,  // measure 38
1000
0100
0001
0100
,  // measure 39
1000
0001
1000
0000
,  // measure 40
1000
0010
0100
0001
,  // measure 41
0010
0100
0010
0000
,  // measure 42
0001
0010
0100
1000
,  // measure 43
2002
0000
0000
3003
,  // measure 44
0110
0000
0000
0000
;

//---------------dance-single - Oni-91----------------
#NOTES:
     dance-single:
     :
     Medium:
     5:
     0.279436,0.272893,0.104959,0.181293,0.000000,205.000000,194.000000,11.000000,19.000000,0.000000,0.000000,0.279436,0.272893,0.104959,0.181293,0.000000,205.000000,194.000000,11.000000,19.000000,0.000000,0.000000:
// measure 0
0001
0000
0100
0000
0010
0100
0010
0000
,  // measure 1
2002
3000
0000
0103
,  // measure 2
0101
0000
0001
0000
1000
0100
1000
0000
,  // measure 3
0102
0100
0100
0103
,  // measure 4
0001
0000
1000
0000
0001
0010
0001
0000
,  // measure 5
1000
0000
0001
0000
1000
0010
1000
0000
,  // measure 6
0001
0010
0100
0000
1000
0010
0100
0000
,  // measure 7
0001
0000
1000
0000
0001
1000
0001
0000
,  // measure 8
1000
0010
0001
0000
0010
0000
0110
0000
,  // measure 9
0001
0010
1000
0000
0010
0000
0110
0000
,  // measure 10
0010
0001
0010
0000
0001
0000
1000
0000
,  // measure 11
2001
0001
0001
3001
,  // measure 12
1000
0000
0100
0000
1000
0001
1000
0000
,  // measure 13
0002
0010
1000
0103
,  // measure 14
0001
0000
1000
0000
0100
1000
0001
0000
,  // measure 15
2000
0010
0001
3100
,  // measure 16
1000
0000
0100
0000
0001
0100
1000
0000
,  // measure 17
0002
0010
0100
0013
,  // measure 18
1000
0000
0010
0000
0001
0010
1000
0000
,  // measure 19
2002
0000
0000
3003
,  // measure 20
1000
0000
0100
1000
0001
0000
0100
0001
,  // measure 21
0100
0000
0010
0000
1000
0000
0100
0010
,  // measure 22
0001
0000
0100
0000
0010
0000
0100
0010
,  // measure 23
1000
0001
1000
0100
,  // measure 24
2002
0000
0000
0000
,  // measure 25
0000
0000
0000
3003
,  // measure 26
0001
1000
0010
0100
,  // measure 27
0001
0000
1000
0002
2000
0000
3003
0000
,  // measure 28
1001
0000
0001
1000
0001
0000
0010
0000
,  // measure 29
0100
0000
0010
0000
0001
0000
1000
0010
,  // measure 30
0100
0001
0010
0100
,  // measure 31
0010
0000
0001
0000
0100
0000
0010
1000
,  // measure 32
0100
0000
0010
0001
0100
0000
0001
0000
,  // measure 33
1000
0000
0001
1000
0100
0000
0010
0000
,  // measure 34
0100
0010
0001
0000
0010
0001
0100
0000
,  // measure 35
1002
1000
2000
3003
,  // measure 36
0100
0000
0010
0000
0100
0001
1000
0000
,  // measure 37
0002
0010
0000
1003
,  // measure 38
0001
0000
1000
0000
0100
0010
0100
0000
,  // measure 39
0020
0001
0000
0130
,  // measure 40
0001
0010
0001
0000
1000
0010
1000
0010
,  // measure 41
0200
0010
0000
0301
,  // measure 42
0001
1000
0100
0000
0010
0001
0010
0001
,  // measure 43
0200
0010
0010
0310
,  // measure 44
1001
0000
0000
0000
;
