#TITLE:MAX 300;
#SUBTITLE:takamatt MIN REMIX;
#ARTIST:takamatt;
#TITLETRANSLIT:;
#SUBTITLETRANSLIT:;
#ARTISTTRANSLIT:;
#GENRE:;
#CREDIT:Oni-91;
#BANNER:MAX 300 -takamatt MIN REMIX-.png;
#BACKGROUND:MAX 300 -takamatt MIN REMIX--bg.png;
#LYRICSPATH:;
#CDTITLE:;
#MUSIC:MAX 300 -takamatt MIN REMIX-.mp3;
#OFFSET:-7.140000;
#SAMPLESTART:14.190000;
#SAMPLELENGTH:14.110000;
#SELECTABLE:YES;
#BPMS:0.000000=136.000000
;
#STOPS:191.500000=0.441000,
200.500000=0.441000
;
#BGCHANGES:;
#KEYSOUNDS:;
#ATTACKS:;

//---------------dance-single - ----------------
#NOTES:
     dance-single:
     :
     Hard:
     8:
     0.535020,0.555168,0.481114,0.226407,0.320743,397.000000,346.000000,51.000000,24.000000,0.000000,0.000000,0.535020,0.555168,0.481114,0.226407,0.320743,397.000000,346.000000,51.000000,24.000000,0.000000,0.000000:
1000
0000
0000
0000
0100
0000
0000
1000
0100
0000
1000
0000
0001
0000
0000
0000
,
0100
0001
1000
0000
0000
1001
1001
0000
,
0001
0000
0000
0000
0010
0000
0000
0001
0010
0000
0100
0000
1000
0000
0000
0000
,
0001
0000
0100
0000
0010
0000
0000
1000
0000
0000
1001
0000
1001
0000
0000
0000
,
0001
0100
0010
2000
0000
3100
0001
0200
,
0000
0310
0001
0010
0100
1000
0010
0100
,
0001
0000
0001
2000
0000
3100
0010
0200
,
0000
0000
1300
0000
0010
0000
0100
0000
1000
0000
0100
0000
0001
0000
1000
0001
,
1000
0001
0000
0001
0100
0000
0010
0000
1000
0000
0000
1000
0100
0000
0010
0000
,
0000
0100
0000
0010
0100
0000
0010
0000
0001
0000
0000
0001
1000
0000
0001
0000
,
1000
0010
0000
0100
0001
0000
1000
0000
0100
0000
0000
0010
0100
0000
0010
0000
,
0001
0000
0000
1000
0000
0000
0000
0000
0000
1000
0000
0000
0001
0000
0000
0000
0000
0000
0100
0000
0000
0000
0000
0000
0110
0000
0000
0000
0000
0000
0000
0000
0000
0000
0000
0000
0010
0000
0000
0000
0100
0000
0000
0000
0020
0000
0000
0000
,
0100
0100
0100
0130
0010
2000
0000
0002
,
0000
3000
0100
2003
,
0001
0001
0001
3001
1000
0200
0000
0020
,
0000
0300
1000
0031
,
0010
0000
0001
0010
0000
0000
0001
0000
0100
0000
1000
0000
0100
0000
0010
0000
,
1000
0000
0010
1000
0000
0000
0001
0000
1000
0000
0100
0000
0010
0000
0001
0000
,
1000
0000
0001
1000
0000
0001
1000
0000
0001
0000
0100
0000
0010
0000
0100
0000
,
0001
0000
1000
0100
0000
1000
0100
0000
0010
0001
0000
0010
0001
0000
1000
0002
,
1000
0000
1000
0000
1000
0000
1000
0000
1003
0000
0000
0001
0000
0000
0110
0000
,
0000
0010
0000
0000
1000
0000
0100
0000
0010
0000
0000
0100
0010
0000
0001
0000
,
1002
0000
1000
0000
1000
0000
1000
0000
1003
0000
0000
0001
0000
0000
0101
0000
,
0000
0000
0000
0100
0000
0000
0001
0000
0000
0000
0000
0000
1000
0000
0000
0000
0000
0000
0100
0000
0000
0000
0000
0000
0010
0000
0000
0000
0000
0000
0100
0000
0000
0000
0000
0000
0010
0000
0000
0000
0100
0000
0000
0000
0010
0000
0000
0000
,
0100
0000
0000
0000
1001
0000
0001
0000
0100
0000
0001
0100
0000
0000
0101
0000
,
0000
0010
1000
0000
0100
0000
0010
0000
0100
0000
0010
0100
0010
0000
0001
0000
,
2002
0000
0000
0000
3003
0000
0000
0000
1000
0000
0000
0010
0000
0000
0110
0000
,
0000
0000
0000
0010
0000
0000
1000
0000
0000
0000
0000
0000
0010
0000
0000
0000
0000
0000
1000
0000
0000
0000
0000
0000
0001
0000
0000
0000
0000
0000
1000
0000
0000
0000
0000
0000
0001
0000
0000
0000
1000
0000
0000
0000
0002
0000
0000
0000
,
1000
1000
1000
1000
,
0100
0100
0100
0100
,
0010
0010
0010
0010
,
0100
0100
0100
0103
,
0001
0000
0100
0000
0001
1000
0001
0000
1000
0000
0100
0000
0010
0000
0001
0000
,
1000
0000
0010
0000
0100
0010
0100
0000
0001
0000
1000
0000
0010
0000
0100
0000
,
0001
0000
0010
0000
0100
1000
0100
0000
0010
0001
0010
0000
0001
1000
0001
0000
,
2002
0000
0000
3003
,
1001
0000
0000
1001
0000
0000
1001
0000
0000
0000
0000
1010
0000
0000
1010
0000
,
0000
0000
0000
0101
0000
0000
0101
0000
0001
0000
0010
0000
0100
0000
1000
0000
,
1100
0000
0000
1100
0000
0000
1100
0000
0000
0000
0000
0011
0000
0000
0011
0000
,
0000
0000
0000
0101
0000
0000
0101
0000
0001
0000
0100
0000
0001
0000
1000
0000
,
0000
0110
0000
0000
0110
0000
0000
1001
0000
0000
1001
0000
0000
0101
0000
0000
,
1010
0000
0000
1100
0000
0000
0011
0000
0001
0000
0010
0000
0100
0000
2000
0000
,
0000
0001
0000
0000
0001
0000
0000
0001
0000
0000
0001
0000
0000
0001
0000
0000
,
0001
0000
0000
0001
0000
0000
3001
0000
1000
0000
0001
0000
1000
0000
0010
0000
,
0110
0000
0000
0000
0100
0000
0001
0000
1000
0000
0000
1100
0000
0000
0110
0000
,
0010
0000
0001
0000
0100
0000
0010
0000
1000
0000
0000
1010
0000
0000
0101
0000
,
0001
0000
0010
0000
0100
0000
0010
0000
0001
0000
0000
0011
0000
0000
0110
0000
,
0100
0000
1000
0000
0010
0000
0100
0000
0001
0000
0000
0110
0000
0000
2002
3003
,
1010
0000
0010
0000
0100
0000
0000
0101
0000
0000
0011
0000
0010
0000
0100
0000
,
0001
0000
0100
0000
2000
0000
0000
0001
0000
0000
3001
0000
1000
0000
0100
0000
,
0010
0000
0002
1003
0000
0000
0101
0000
1000
0001
1000
0001
1000
0000
0001
0000
,
0010
0110
0110
0000
2002
0000
0000
0000
,
0000
0000
0000
0000
,
0000
0000
3003
0000
;

//---------------dance-single - Oni-91----------------
#NOTES:
     dance-single:
     :
     Medium:
     6:
     0.378692,0.378523,0.216973,0.301875,0.099053,281.000000,258.000000,23.000000,32.000000,0.000000,0.000000,0.378692,0.378523,0.216973,0.301875,0.099053,281.000000,258.000000,23.000000,32.000000,0.000000,0.000000:
// measure 0
1000
0000
0010
0000
0100
0010
0100
0000
,  // measure 1
0001
1000
0200
0000
0000
0010
0310
0000
,  // measure 2
0100
0000
1000
0000
0001
0100
1000
0000
,  // measure 3
0100
0000
0001
0000
2000
0000
0000
0001
0000
0000
0001
0000
3001
0000
0000
0000
,  // measure 4
1000
0000
0101
0000
0010
1000
0100
0010
,  // measure 5
0000
0100
1000
0000
0001
0100
0001
0000
,  // measure 6
1000
0000
0001
0100
0000
0010
1000
0100
,  // measure 7
0000
0010
0100
0000
1000
0001
0100
0000
,  // measure 8
0001
0000
1100
0000
0001
0010
0100
0001
,  // measure 9
0000
0100
1000
0000
0001
1000
0001
1000
,  // measure 10
0010
0000
0100
0000
0010
0100
0001
0010
,  // measure 11
0000
0100
0010
0000
0002
0000
2003
0000
,  // measure 12
0001
0001
0001
0001
3002
0000
0000
2000
,  // measure 13
0000
3000
0010
0203
,  // measure 14
0010
0010
0010
0010
0320
0000
0000
2000
,  // measure 15
0000
3000
0001
1030
,  // measure 16
0001
0000
0000
0002
0000
0000
0000
0000
1000
0000
1000
0000
1003
0000
0000
0000
,  // measure 17
0010
0000
0000
0020
0000
0000
0000
0000
0100
0000
0100
0000
0130
0000
0000
0000
,  // measure 18
1000
0000
0000
2000
0000
0000
0000
0000
0001
0000
0001
0000
3001
0000
0000
0000
,  // measure 19
0100
0000
0000
0200
0000
0000
0000
0000
0020
0000
0000
0000
0300
0000
0000
0000
,  // measure 20
1000
0000
1000
0000
1000
0000
1000
0000
1030
0000
0000
0001
0000
0000
2001
0000
,  // measure 21
0000
0000
3010
0000
0001
1000
0002
0000
,  // measure 22
0010
0010
0010
0010
0013
0000
0000
0110
,  // measure 23
0000
0100
1000
0000
0001
1000
0001
0000
,  // measure 24
1000
0000
0101
0000
1000
0000
0000
2001
,  // measure 25
0000
3100
0010
0000
0100
1000
0001
0000
,  // measure 26
0010
0000
0000
0000
1002
0000
0000
0000
0100
0000
0000
0100
0000
0000
0103
0000
,  // measure 27
0000
0010
1000
0001
1000
0000
0110
0000
,  // measure 28
1002
1000
1000
1000
,  // measure 29
1000
1000
1000
1000
,  // measure 30
0010
0010
0010
0010
,  // measure 31
0010
0010
0010
0013
,  // measure 32
0001
0100
0001
0000
1000
0010
1000
0000
,  // measure 33
0001
1000
0100
0000
1000
0001
0100
0000
,  // measure 34
0001
0010
1000
0000
1000
0010
0001
0000
,  // measure 35
2002
0000
0000
3003
,  // measure 36
1001
0000
0000
1001
0000
0000
1002
0000
0000
0000
0000
0100
0000
0000
0203
0000
,  // measure 37
0000
0000
0000
0010
0000
0000
0310
0000
1000
0000
0001
0000
1000
0000
0000
0000
,  // measure 38
1001
0000
0000
1001
0000
0000
2001
0000
0000
0000
0000
0100
0000
0000
3200
0000
,  // measure 39
0000
0000
0000
0010
0000
0000
0310
0000
0001
0000
1000
0000
0001
0000
0200
0000
,  // measure 40
0000
0010
0000
0000
0010
0000
0000
0010
0000
0000
0010
0000
0000
0010
0000
0000
,  // measure 41
0010
0000
0000
0010
0000
0000
0310
0000
0100
0000
0001
0000
1000
0000
0002
0000
,  // measure 42
0000
1000
0000
0000
1000
0000
0000
1000
0000
0000
1000
0000
0000
1000
0000
0000
,  // measure 43
1000
0000
0000
1000
0000
0000
1003
0000
0001
0000
1000
0000
0001
0000
0000
0000
,  // measure 44
1000
0000
0011
0000
0100
0000
1000
0001
,  // measure 45
0100
0000
1010
0000
0100
0000
0001
1000
,  // measure 46
0100
0000
0011
0000
0100
0000
0010
0001
,  // measure 47
1000
0000
0001
0000
0100
0010
2000
3001
,  // measure 48
1001
0000
1000
0100
0010
0000
0100
0000
,  // measure 49
1001
0000
1000
0001
0100
0000
0010
0000
,  // measure 50
2002
3003
0000
0000
0001
0010
0001
0000
,  // measure 51
1000
0010
0100
0000
2002
0000
0000
0000
,  // measure 52
0000
0000
0000
0000
,  // measure 53
0000
0000
3003
0000
;

//---------------dance-single - Oni-91----------------
#NOTES:
     dance-single:
     :
     Easy:
     4:
     0.198106,0.252349,0.160371,0.311309,0.000000,147.000000,130.000000,17.000000,33.000000,0.000000,0.000000,0.198106,0.252349,0.160371,0.311309,0.000000,147.000000,130.000000,17.000000,33.000000,0.000000,0.000000:
1000
0001
0100
0000
,
0010
0100
0010
0000
,
0020
0000
0230
0000
,
0302
0000
0023
0030
,
1001
0000
0001
0000
,
0100
0000
0010
0100
,
0001
0000
1000
0000
,
0001
1000
0100
0010
,
0100
0000
0010
0000
,
0100
0000
0001
0100
,
1000
0000
0001
0000
,
1000
0010
0100
0010
,
2001
0001
0002
0000
,
0003
0000
0000
3000
,
0210
0010
0010
0000
,
2000
0000
0000
3300
,
0001
0000
1000
0010
,
0100
0000
0010
0100
,
0001
0000
0010
0001
,
0010
0100
0020
0030
,
2001
0000
0001
0000
0002
0000
0000
3003
,
0000
1000
0001
0100
,
0120
0000
0100
0000
0200
0000
0000
0330
,
0000
0010
1000
0100
,
0010
0000
0001
0000
2002
0000
0000
3003
,
0000
0001
0100
1000
,
0100
0001
1000
0001
,
1000
0100
2002
3003
,
2002
0000
0000
0000
,
0000
0000
0000
0000
,
0000
0000
0000
0000
,
0000
0000
0000
3003
,
1001
0001
0100
1000
,
0100
0010
1000
0100
,
0001
0100
0010
0001
,
2002
0000
0000
3003
,
0220
0000
0000
0330
,
1001
0000
0001
1000
,
2002
0000
0000
3003
,
0110
0000
0010
0100
,
2002
0000
0000
0000
,
0000
0000
3003
0000
,
0220
0000
0000
0000
,
0000
0000
0000
0330
,
0010
1000
0100
1000
,
0001
0010
0100
0001
,
1000
0010
0001
1000
,
0001
0100
0010
0200
,
0310
0100
0001
1000
,
0100
0001
0100
0010
,
0002
0000
1003
0010
,
0100
0001
2002
0000
,
0000
0000
0000
0000
,
0000
0000
3003
0000
;

//---------------dance-single - Oni-91----------------
#NOTES:
     dance-single:
     :
     Beginner:
     1:
     0.115899,0.170041,0.066035,0.000000,0.000000,86.000000,79.000000,7.000000,0.000000,0.000000,0.000000,0.115899,0.170041,0.066035,0.000000,0.000000,86.000000,79.000000,7.000000,0.000000,0.000000,0.000000:
0001
0000
0000
0000
,
1000
0000
0001
0000
,
1000
0000
0000
0000
,
0100
0000
0010
0000
,
0110
0000
0000
0000
,
0001
0000
1000
0000
,
0100
0000
0010
0000
,
0100
0000
1000
0000
,
0001
0000
0000
0000
,
1000
0000
0001
0000
,
0100
0000
0010
0000
,
0100
0000
0000
0000
,
0001
0001
0001
0000
,
0000
0000
0000
0000
,
1000
1000
1000
0000
,
0000
0000
0000
0000
,
0001
0000
1000
0000
,
0001
0000
1000
0000
,
0010
0000
0100
0000
,
0010
0000
0100
0000
,
0001
0001
0001
0000
,
0010
0000
0100
0000
,
1000
1000
1000
0000
,
0010
0000
0100
0000
,
0010
0010
0010
0000
,
0100
0000
0001
0000
,
0100
0100
0100
0000
,
0010
0000
1000
0000
,
1001
0000
0000
0000
,
0000
0000
0000
0000
,
0000
0000
0000
0000
,
0000
0000
0000
0000
,
0001
0000
0100
0000
,
0001
0000
1000
0000
,
0100
0000
1000
0000
,
1001
0000
0000
0000
,
1001
0000
0000
0000
,
0000
0000
0000
0000
,
0000
0000
0000
0000
,
0000
0000
0000
0000
,
0110
0000
0000
0000
,
0000
0000
0000
0000
,
1001
0000
0000
0000
,
0000
0000
0000
0000
,
0001
0000
0100
0000
,
0001
0000
1000
0000
,
0001
0000
1000
0000
,
0100
0000
0010
0000
,
0000
0010
0000
0001
,
0000
1000
0000
0001
,
0000
0000
0100
0000
,
0010
0000
1001
0000
;
