#TITLE:KANSAI EVOLVED;
#SUBTITLE:-OSAKA STYLE-;
#ARTIST:NAOKI underground;
#TITLETRANSLIT:;
#SUBTITLETRANSLIT:;
#ARTISTTRANSLIT:;
#GENRE:;
#CREDIT:;
#BANNER:KANSAI EVOLVED -OSAKA STYLE-.png;
#BACKGROUND:KANSAI EVOLVED -OSAKA STYLE--bg.png;
#LYRICSPATH:;
#CDTITLE:;
#MUSIC:KANSAI EVOLVED -OSAKA STYLE-.mp3;
#OFFSET:-6.510000;
#SAMPLESTART:22.709999;
#SAMPLELENGTH:12.970000;
#SELECTABLE:YES;
#BPMS:0.000000=296.000000
,176.000000=148.000000
,224.000000=74.000000
,236.000000=148.000000
,268.000000=296.000000
;
#STOPS:
;
#BGCHANGES:;
#KEYSOUNDS:;
#ATTACKS:;

//---------------dance-single - Oni-91----------------
#NOTES:
     dance-single:
     :
     Hard:
     11:
     0.912606,1.611070,0.568377,0.232154,0.216144,798.000000,727.000000,71.000000,29.000000,0.000000,0.000000,0.912606,1.611070,0.568377,0.232154,0.216144,798.000000,727.000000,71.000000,29.000000,0.000000,0.000000:
// measure 0
1000
0000
0100
0000
1000
0000
0001
0100
,  // measure 1
0000
0100
0001
0000
1001
0000
0000
0000
,  // measure 2
0001
0000
0010
0000
0100
0000
0010
0001
,  // measure 3
0000
1000
0100
0000
1001
0000
0000
0000
,  // measure 4
0100
0010
0100
0000
0010
0000
1000
0001
,  // measure 5
0000
0100
0001
0000
1000
0000
0100
0000
,  // measure 6
0010
0001
0010
0000
0001
0000
1000
0100
,  // measure 7
0000
1000
0010
0000
0100
0001
0100
0001
,  // measure 8
1000
0000
1000
0010
1000
0000
1000
0001
,  // measure 9
1000
0000
1000
0100
1000
0000
0001
0000
,  // measure 10
0100
0000
0001
0010
0001
0000
0001
0100
,  // measure 11
0001
0000
0001
1000
0001
0000
1000
0000
,  // measure 12
0100
0010
0001
0000
0100
0000
0010
0000
,  // measure 13
1000
0010
0100
0000
0001
0000
0100
0000
,  // measure 14
0001
0100
0010
0000
1000
0100
0010
0000
,  // measure 15
0100
0010
0001
0000
1000
0001
0100
0000
,  // measure 16
1000
0100
1000
0000
0001
0100
0000
0100
,  // measure 17
0001
0010
0001
0000
1000
0010
0000
0010
,  // measure 18
0100
0001
1000
0000
0001
0010
0100
0000
,  // measure 19
0001
0010
0001
1000
0001
0100
0010
0000
,  // measure 20
1000
0100
0010
0100
1000
0100
0010
0001
,  // measure 21
0010
0100
0010
0001
1000
0000
0100
0000
,  // measure 22
0010
0001
0010
0100
0010
0001
0010
0100
,  // measure 23
1000
0100
0010
0100
1000
0000
0001
0000
,  // measure 24
1000
0010
0100
0000
0001
0010
0100
0000
,  // measure 25
0001
0010
0001
0000
1000
0010
1000
0000
,  // measure 26
0001
0100
1000
0000
0001
0010
1000
0000
,  // measure 27
0001
1000
0001
1000
0100
0010
0100
0000
,  // measure 28
0010
0001
0100
0001
1000
0001
0100
0001
,  // measure 29
0010
0001
0100
0001
1000
0000
0001
0000
,  // measure 30
0100
0010
0001
0010
0100
0010
1000
0010
,  // measure 31
0100
0010
0001
0010
0100
0000
0001
0000
,  // measure 32
0010
0000
0001
0100
0001
0000
1000
0010
,  // measure 33
1000
0000
0001
0100
1000
0000
0100
0010
,  // measure 34
1000
0000
0001
0010
0001
0000
1000
0100
,  // measure 35
0010
0100
1000
0100
0001
0000
0100
1000
,  // measure 36
0002
0000
0000
0100
0203
0000
0000
0010
,  // measure 37
0320
0000
0000
1000
1030
0000
1010
0000
,  // measure 38
0101
0101
0011
1100
,  // measure 39
2002
0000
3003
0000
,  // measure 40
1000
0100
0010
0000
0100
0000
1000
0000
,  // measure 41
0001
0100
0010
0010
,  // measure 42
0100
0001
0010
0000
0100
0000
0010
0000
,  // measure 43
0001
1000
0100
0010
,  // measure 44
0100
0010
0001
0100
1000
0100
1001
0100
,  // measure 45
0001
1000
0100
0010
0011
0001
0100
0010
,  // measure 46
1010
0010
0110
0100
0101
0001
1001
1000
,  // measure 47
0100
0001
0100
1000
0010
0100
1010
0100
,  // measure 48
0001
1000
0100
0010
0011
0001
1000
0001
,  // measure 49
0100
0010
1010
1000
0101
0001
1001
1000
,  // measure 50
0100
0001
0100
1000
0010
0001
0110
1000
,  // measure 51
0010
0100
0001
1000
0110
0001
0010
0001
,  // measure 52
1000
0001
1010
0100
1001
0010
0101
0010
,  // measure 53
1000
0010
1000
0010
0100
0001
0010
1000
,  // measure 54
0010
0001
1000
0001
0110
1000
0010
1000
,  // measure 55
0001
0010
1001
0100
1001
0010
0101
0010
,  // measure 56
1001
0000
0001
0100
1000
0100
0010
0000
0110
0000
1010
0000
1001
0000
0001
0010
,  // measure 57
0100
0000
1000
0000
0100
0000
1000
0000
0001
0010
0001
0000
1000
0000
0100
0000
1100
0000
0000
0000
1000
0000
0010
0000
0100
0000
0001
0000
0100
0000
0001
0000
,  // measure 58
0011
0000
1100
0000
1001
0001
0100
1000
0100
0010
0100
0001
1000
0100
0010
0100
,  // measure 59
0010
0000
0000
1000
0100
0000
0010
0001
0000
0001
1000
0000
0001
0100
0001
0000
,  // measure 60
1000
0000
0001
0100
0010
0000
1000
0100
0000
0010
0001
0000
1000
0010
0100
0010
,  // measure 61
1000
0000
0001
0010
0001
0000
1000
0100
0000
0010
0100
0000
0010
0001
1000
0000
,  // measure 62
0001
0000
0100
0010
0100
0000
0010
1000
0000
0001
0100
0000
0001
1000
0100
0010
,  // measure 63
0001
0000
1000
0100
1000
0001
0100
0000
0001
0000
1000
0010
1000
0001
0010
0000
,  // measure 64
0100
0000
0010
0100
0010
0001
0010
0000
0001
0000
0100
0010
0100
1000
0100
0001
,  // measure 65
1000
0000
0001
0010
0100
0010
0001
1000
0001
0000
1000
0010
0100
0001
0100
0001
,  // measure 66
1000
0000
0010
0100
0001
1000
0100
0010
0001
0000
1000
0002
2000
0000
3003
0000
,  // measure 67
0011
0000
1000
0100
1000
0001
1000
0001
,  // measure 68
1000
0000
0001
0100
0001
1000
0010
0100
,  // measure 69
0010
1000
0100
0010
0001
0100
0010
1000
,  // measure 70
0100
0010
0001
0010
0100
1000
0001
0000
,  // measure 71
0100
0001
0100
0010
1000
0100
0010
0000
,  // measure 72
0100
0010
0100
1000
0001
0100
0010
0000
,  // measure 73
1000
0010
0100
0001
0100
0010
1000
0100
,  // measure 74
0010
0001
0010
0100
1000
0001
0100
0000
,  // measure 75
0001
0010
0001
0010
0100
1000
0100
1000
,  // measure 76
0001
0100
0010
1000
0100
0000
1000
0000
,  // measure 77
0100
1000
0100
0010
0001
1000
0010
0100
,  // measure 78
0001
0100
0001
1000
0001
0000
1000
0100
,  // measure 79
0010
0100
1000
0001
0010
0001
0100
0001
,  // measure 80
0100
0000
0010
0000
1000
0000
0010
0100
,  // measure 81
0010
1000
0100
0010
0100
0010
0001
0000
,  // measure 82
1000
0000
0001
0000
0100
0010
0100
0000
,  // measure 83
1001
0101
1010
1100
,  // measure 84
2002
0000
3003
0000
0001
0010
0001
0000
,  // measure 85
1100
0011
0101
1010
,  // measure 86
2002
0000
3003
0000
1000
0010
1000
0000
,  // measure 87
0101
0101
1010
1010
,  // measure 88
1100
0000
0100
0000
0010
0001
0100
0000
,  // measure 89
0110
0110
1010
1010
,  // measure 90
0100
0000
0001
0000
1000
0100
0010
0000
,  // measure 91
1000
0001
1000
0000
0010
1000
0100
0010
,  // measure 92
0001
0000
0100
0000
0010
0100
0010
0000
,  // measure 93
1000
0001
0010
0100
1000
0100
0010
0000
,  // measure 94
0001
1000
0001
0000
1000
0000
0010
0000
,  // measure 95
0100
0010
0100
0010
1000
0001
1000
0001
,  // measure 96
1000
0100
1000
0100
0010
0001
0010
0001
,  // measure 97
1000
0100
0010
0001
1000
0010
0100
0001
,  // measure 98
1000
0010
0100
1000
0100
0001
0010
0100
,  // measure 99
0010
0001
1000
0010
,  // measure 100
2002
3003
0001
0100
,  // measure 101
0010
1000
2002
3003
,  // measure 102
1000
0100
0010
0001
,  // measure 103
2002
3003
0001
0100
,  // measure 104
0010
1001
0220
0330
,  // measure 105
0010
1000
0100
1000
0001
0010
0100
0010
,  // measure 106
0022
0033
0001
0100
,  // measure 107
0010
1100
0022
0033
,  // measure 108
0001
1000
0100
0010
0001
0100
0010
1000
,  // measure 109
2200
3300
0011
1100
,  // measure 110
1010
0101
2002
3003
,  // measure 111
0220
0000
0000
0000
,  // measure 112
0000
0000
0000
0000
,  // measure 113
0000
0000
0000
0000
,  // measure 114
0000
0000
0000
0000
,  // measure 115
0330
0000
0000
0000
;

//---------------dance-single - Oni-91----------------
#NOTES:
     dance-single:
     :
     Medium:
     9:
     0.691888,1.196795,0.176117,0.280186,0.092061,605.000000,583.000000,22.000000,35.000000,0.000000,0.000000,0.691888,1.196795,0.176117,0.280186,0.092061,605.000000,583.000000,22.000000,35.000000,0.000000,0.000000:
// measure 0
1000
0000
0001
0000
1000
0000
0000
0100
,  // measure 1
0000
0010
0001
0000
,  // measure 2
1000
0000
0001
0000
1000
0000
1000
0020
,  // measure 3
0000
0130
0001
0010
,  // measure 4
0100
0000
0010
0000
0001
0000
0000
1000
,  // measure 5
0000
0001
0100
0000
,  // measure 6
0010
0000
1000
0000
0100
0000
0100
0020
,  // measure 7
0000
0031
0010
0001
,  // measure 8
1000
0010
0100
0000
0001
0000
0100
0000
,  // measure 9
0010
1000
0100
0010
,  // measure 10
0001
0010
0100
0000
0010
0000
0001
0000
,  // measure 11
1000
0001
0100
0010
,  // measure 12
1000
0000
0001
0000
0100
0000
0010
0100
,  // measure 13
0000
0001
1000
0000
0001
0000
0000
0000
,  // measure 14
1000
0000
0100
0000
0010
0000
0001
1000
,  // measure 15
0000
0010
0100
0000
0001
0000
0100
0000
,  // measure 16
0001
0000
1000
0000
0100
1000
0000
0000
,  // measure 17
0001
0000
0100
0000
0001
0100
0000
0000
,  // measure 18
0001
0000
0010
0000
0100
0010
0000
0000
,  // measure 19
1000
0010
0000
0000
0100
0001
0000
0000
,  // measure 20
1000
0100
1000
0100
,  // measure 21
0010
0001
0010
0001
,  // measure 22
1000
0001
0100
0010
,  // measure 23
1000
0100
0010
0001
,  // measure 24
1000
0100
1000
0000
0001
0010
0001
0000
,  // measure 25
1000
0001
1000
0000
0010
0100
0010
0000
,  // measure 26
1000
0001
1000
0000
0001
0100
0001
0000
,  // measure 27
1000
0100
0010
0001
,  // measure 28
1000
0100
0010
0100
,  // measure 29
1000
0010
0100
0001
,  // measure 30
0010
0100
0010
0001
,  // measure 31
1000
0001
0100
0010
,  // measure 32
1000
0010
0100
0000
0010
0100
0001
0000
,  // measure 33
1000
0001
0100
0000
0001
1000
0100
0000
,  // measure 34
0010
0001
0100
0000
0001
1000
0001
0000
,  // measure 35
1000
0010
0100
0000
0010
1000
0001
0000
,  // measure 36
1000
0000
0000
0001
0100
0000
0000
0001
,  // measure 37
0100
0000
0000
0001
1000
0000
0100
0000
,  // measure 38
0010
0010
0100
1000
,  // measure 39
2002
0000
3003
0000
,  // measure 40
0001
0100
1000
0100
,  // measure 41
0001
1000
0001
1000
,  // measure 42
0001
0010
1000
0010
,  // measure 43
0001
1000
0001
1000
,  // measure 44
1001
0000
0010
1000
0001
0010
0200
0000
,  // measure 45
1300
0100
0001
0100
1000
0100
0010
0001
,  // measure 46
0100
1000
0100
0010
1000
0001
0010
0001
,  // measure 47
1000
0100
0010
0001
0100
1000
0200
0000
,  // measure 48
0310
1000
0001
0100
0010
1000
0100
0001
,  // measure 49
0100
0010
0001
1000
0010
0100
0001
0010
,  // measure 50
0100
0010
0001
1000
0010
0100
0002
0000
,  // measure 51
0013
0100
0010
0001
0010
0001
1000
0100
,  // measure 52
0001
0100
1000
0001
0100
0010
0100
0010
,  // measure 53
1000
0001
0100
1000
0100
0010
2000
0000
,  // measure 54
3001
0010
0100
0010
0001
1000
0001
0100
,  // measure 55
0010
1000
0100
1000
0010
0100
0001
0010
,  // measure 56
1001
0000
0000
0000
0001
0100
0001
0000
1100
0000
0110
0000
0011
0000
1000
0001
,  // measure 57
0100
0000
0010
0000
0100
0000
0001
0000
1000
0000
0001
0010
0100
0000
0010
0000
,  // measure 58
0101
0000
0110
0000
1010
0000
0001
1000
0001
1000
0100
0010
0100
0010
0001
0010
,  // measure 59
0200
0000
0000
0000
1300
0000
0001
0000
0100
0000
0010
0000
1000
0000
0001
0010
,  // measure 60
0001
0000
1000
0000
0001
0000
1000
0010
1000
0000
0001
0000
0100
0000
0010
0000
,  // measure 61
2000
0000
0000
0000
3001
0000
0010
0001
0100
0000
0010
0000
0100
0000
0010
1000
,  // measure 62
0100
0000
1000
0000
0001
0000
1000
0100
0010
0000
0001
0000
0100
0000
0010
0000
,  // measure 63
1002
0000
0000
0000
0103
0000
0010
0100
0001
0000
1000
0000
0100
0000
0010
0001
,  // measure 64
0100
0000
0010
0000
1000
0000
0001
1000
0100
0000
1000
0000
0001
0000
0010
0000
,  // measure 65
0100
0000
0010
0001
0010
0000
0001
1000
0001
0000
1000
0010
1000
0000
0001
0100
,  // measure 66
0010
0000
0100
0010
1000
0000
0010
1000
0001
0000
1000
0100
0010
0000
0000
0000
,  // measure 67
1000
0001
1000
0001
0100
0000
0001
0000
,  // measure 68
1000
0001
1000
0001
0010
0000
0001
0000
,  // measure 69
1000
0100
0010
0001
,  // measure 70
0100
0010
1000
0001
,  // measure 71
0010
0001
0010
0001
0100
0000
0001
0000
,  // measure 72
1000
0010
1000
0010
0100
0000
0001
0000
,  // measure 73
1000
0100
0010
0001
,  // measure 74
0100
0010
1000
0001
,  // measure 75
1000
0000
0100
0010
0001
0010
0001
0000
,  // measure 76
1000
0001
0100
0010
,  // measure 77
1000
0000
0010
1000
0001
1000
0001
0000
,  // measure 78
0100
0000
0001
0010
0100
0000
0010
0001
,  // measure 79
1000
0000
0001
0000
0100
0010
1000
0000
,  // measure 80
0001
0000
1000
0000
0001
0010
0100
0010
,  // measure 81
0001
0000
1000
0000
0001
1000
0001
0000
,  // measure 82
1000
0000
0100
0000
0010
0100
0010
0001
,  // measure 83
1000
0100
0010
0001
,  // measure 84
0220
0000
0330
0000
,  // measure 85
0010
1000
0001
1000
,  // measure 86
2002
0000
3003
0000
,  // measure 87
1000
0100
0110
0010
,  // measure 88
2002
0000
3003
0000
,  // measure 89
0001
0100
0010
1000
,  // measure 90
2002
0000
3003
0000
,  // measure 91
0001
1000
0100
0000
1000
0000
0001
0010
,  // measure 92
0001
0000
1000
0000
0001
0100
0010
0000
,  // measure 93
0100
0000
0010
1000
0001
0000
1000
0000
,  // measure 94
0001
1000
0001
0000
1000
0000
0100
0000
,  // measure 95
0010
0001
0010
0000
0001
1000
0001
0000
,  // measure 96
1000
0001
1000
0000
0010
1000
0010
0000
,  // measure 97
0100
0010
1000
0000
0010
0100
0001
0000
,  // measure 98
1000
0100
0010
0001
0100
0010
1000
0001
,  // measure 99
1000
1000
0100
0010
,  // measure 100
2002
3003
0001
0001
,  // measure 101
0100
0010
2002
3003
,  // measure 102
1000
0010
0100
0001
,  // measure 103
2002
3003
0001
0010
,  // measure 104
0100
1000
2002
3003
,  // measure 105
1000
0001
1000
0001
0100
0010
0100
0010
,  // measure 106
2000
3000
0001
0010
,  // measure 107
0100
0010
2002
3003
,  // measure 108
1000
0100
1000
0100
0010
0001
0010
0001
,  // measure 109
0200
0300
0010
1000
,  // measure 110
0001
0100
0220
0330
,  // measure 111
2002
0000
0000
0000
,  // measure 112
0000
0000
0000
0000
,  // measure 113
0000
0000
0000
0000
,  // measure 114
0000
0000
0000
0000
,  // measure 115
3003
0000
0000
0000
;

//---------------dance-single - Oni-91----------------
#NOTES:
     dance-single:
     :
     Easy:
     8:
     0.495186,0.782520,0.152101,0.296197,0.004003,433.000000,414.000000,19.000000,37.000000,0.000000,0.000000,0.495186,0.782520,0.152101,0.296197,0.004003,433.000000,414.000000,19.000000,37.000000,0.000000,0.000000:
// measure 0
1000
0000
0001
0000
,  // measure 1
1000
0001
1000
0000
,  // measure 2
0001
0000
0100
0000
,  // measure 3
0020
0000
0030
0000
,  // measure 4
1000
0000
0001
0000
,  // measure 5
0010
0100
0010
0000
,  // measure 6
0001
0000
1000
0000
,  // measure 7
0020
0000
0030
0000
,  // measure 8
0100
0001
0100
0010
,  // measure 9
0100
0100
0010
0000
,  // measure 10
1000
0001
1000
0100
,  // measure 11
1000
1000
0001
0000
,  // measure 12
0010
0001
0100
0000
,  // measure 13
0010
1000
0100
0000
,  // measure 14
1000
0001
1000
0001
,  // measure 15
0100
0010
0100
0000
,  // measure 16
0001
0100
0001
0000
,  // measure 17
1000
0100
1000
0000
,  // measure 18
0001
0010
0100
1000
,  // measure 19
0010
0100
0001
0000
,  // measure 20
1000
1000
0100
0100
,  // measure 21
0010
0010
0001
0000
,  // measure 22
0001
0001
0100
0100
,  // measure 23
0010
0010
1000
0000
,  // measure 24
0001
1000
0010
1000
,  // measure 25
0100
1000
0010
1000
,  // measure 26
0001
0100
0010
0100
,  // measure 27
0001
0100
0001
0010
,  // measure 28
0100
0100
0010
0010
,  // measure 29
0001
0001
1000
0000
,  // measure 30
0001
0001
1000
1000
,  // measure 31
0010
0010
0100
0000
,  // measure 32
0010
1000
0100
0010
,  // measure 33
0100
1000
0010
0100
,  // measure 34
0001
0010
0100
0010
,  // measure 35
0001
1000
0001
1000
,  // measure 36
0100
0000
0000
1000
0001
0000
0000
1000
,  // measure 37
0001
0000
0000
1000
0001
0000
1000
0000
,  // measure 38
0010
0100
0010
0100
,  // measure 39
0020
0000
0030
0000
,  // measure 40
1000
0100
0010
0001
,  // measure 41
0100
0010
0100
0000
,  // measure 42
0001
0100
0010
1000
,  // measure 43
0100
0010
0100
0000
,  // measure 44
1001
0000
1000
0000
0010
0100
0010
0000
,  // measure 45
1000
0000
0001
0010
0100
0010
0001
0000
,  // measure 46
1000
0101
0110
1010
,  // measure 47
1000
0000
0001
0000
0100
0010
1000
0000
,  // measure 48
0001
0010
0100
1000
0001
0000
0100
0010
,  // measure 49
1000
0101
0110
0101
,  // measure 50
0001
1000
0100
0000
1000
0000
0100
0000
,  // measure 51
0010
0100
0010
0001
1000
0000
0010
0000
,  // measure 52
0100
1010
0101
0110
,  // measure 53
1001
0000
1000
0100
0001
0100
1000
0000
,  // measure 54
0001
0010
0100
0010
0001
0000
1000
0000
,  // measure 55
0010
0100
0010
0000
1000
0000
0001
0000
,  // measure 56
0202
0003
0301
0100
0010
1000
2200
0300
,  // measure 57
3001
0000
0100
0000
0010
0000
1000
0000
0100
0000
0000
0000
0010
0100
0010
0000
,  // measure 58
0001
1000
0001
0000
0100
0001
1000
0010
,  // measure 59
0120
0000
1000
0000
0100
0000
1030
0010
,  // measure 60
0200
0000
0301
0010
0200
0000
0310
0000
,  // measure 61
1002
0000
0100
0000
0010
0000
0103
0001
,  // measure 62
2000
0000
3010
0100
0002
0000
1000
0000
,  // measure 63
0203
0000
1000
0000
0010
0000
0301
0100
,  // measure 64
0020
0000
1030
0100
0020
0000
0130
0000
,  // measure 65
1002
0000
0000
0010
0010
0000
0000
1000
,  // measure 66
1000
0000
0000
0100
0200
0000
0303
0000
,  // measure 67
0001
1000
0001
0010
,  // measure 68
0100
0010
0001
1000
,  // measure 69
0100
0100
0010
0010
,  // measure 70
0100
1000
0001
0000
,  // measure 71
1000
0010
0100
0001
,  // measure 72
0010
0100
0010
0001
,  // measure 73
1000
1000
0001
0001
,  // measure 74
0100
0010
1000
0000
,  // measure 75
0001
0100
0010
0100
,  // measure 76
0001
1000
0100
0010
,  // measure 77
0100
1000
0100
0010
,  // measure 78
0100
0010
0001
1000
,  // measure 79
0001
0100
0001
0100
,  // measure 80
0010
1000
0010
1000
,  // measure 81
0001
0010
0100
1000
,  // measure 82
0010
0100
0001
1000
,  // measure 83
0001
0001
1000
0001
,  // measure 84
2002
0000
3003
0000
,  // measure 85
1000
0100
0010
0001
,  // measure 86
0200
0000
0300
0000
,  // measure 87
0010
1000
0001
1000
,  // measure 88
2002
0000
3003
0000
,  // measure 89
0001
0010
0100
1000
,  // measure 90
0020
0000
0030
0000
,  // measure 91
1000
0001
2000
0000
0000
0000
0000
0000
,  // measure 92
0000
0000
3000
0000
0001
0100
0002
0000
,  // measure 93
0000
0000
0000
0003
,  // measure 94
1000
0001
2000
0000
0000
0000
0000
0000
,  // measure 95
3001
0100
0010
1000
,  // measure 96
0100
0010
0001
0100
,  // measure 97
0001
1000
0010
1000
,  // measure 98
0100
0010
0001
0100
,  // measure 99
0001
1000
0001
1000
,  // measure 100
0200
0300
1000
0001
,  // measure 101
1000
0001
0200
0300
,  // measure 102
0010
0100
0001
1000
,  // measure 103
0200
0300
1000
0001
,  // measure 104
0010
0100
0020
0030
,  // measure 105
0001
1000
0001
0000
1000
0000
0001
0000
,  // measure 106
0200
0300
0001
1000
,  // measure 107
0010
0100
0002
0003
,  // measure 108
1000
0100
1000
0000
0001
0000
0010
0000
,  // measure 109
0200
0300
0010
0001
,  // measure 110
1000
0010
0200
0300
,  // measure 111
2002
0000
0000
0000
,  // measure 112
0000
0000
0000
0000
,  // measure 113
0000
0000
0000
0000
,  // measure 114
0000
0000
0000
0000
,  // measure 115
3003
0000
0000
0000
;

//---------------dance-single - Oni-91----------------
#NOTES:
     dance-single:
     :
     Beginner:
     5:
     0.344229,0.552367,0.128085,0.096064,0.000000,301.000000,285.000000,16.000000,12.000000,0.000000,0.000000,0.344229,0.552367,0.128085,0.096064,0.000000,301.000000,285.000000,16.000000,12.000000,0.000000,0.000000:
// measure 0
1000
0000
0100
0000
,  // measure 1
1000
0000
0001
0000
,  // measure 2
0100
0000
0010
0000
,  // measure 3
1000
0000
0000
0000
,  // measure 4
0001
0000
0010
0000
,  // measure 5
0100
0000
0010
0000
,  // measure 6
0001
0000
1000
0000
,  // measure 7
0001
0000
0000
0000
,  // measure 8
1000
0000
0100
0000
,  // measure 9
1000
1000
1000
0000
,  // measure 10
0001
0000
0100
0000
,  // measure 11
0001
0001
0001
0000
,  // measure 12
1000
0000
0001
0000
,  // measure 13
0100
0000
0010
0000
,  // measure 14
1000
0000
0001
0000
,  // measure 15
1000
0000
0000
0000
,  // measure 16
0001
0000
0010
0000
,  // measure 17
0100
0000
0010
0000
,  // measure 18
0001
0000
1000
0000
,  // measure 19
0001
0000
0000
0000
,  // measure 20
2001
0000
0001
0000
,  // measure 21
0001
0000
0001
0000
,  // measure 22
0010
0000
0010
0000
,  // measure 23
0010
0000
0010
0000
,  // measure 24
3001
0000
1000
0000
,  // measure 25
0100
0000
0010
0000
,  // measure 26
0100
0000
1000
0000
,  // measure 27
0001
0000
0000
0000
,  // measure 28
1002
0000
1000
0000
,  // measure 29
1000
0000
1000
0000
,  // measure 30
0100
0000
0100
0000
,  // measure 31
0100
0000
0103
0000
,  // measure 32
0001
0000
0100
0000
,  // measure 33
0010
0000
1000
0000
,  // measure 34
0001
0000
1000
0000
,  // measure 35
0100
0000
0010
0000
,  // measure 36
0110
0000
0110
0000
,  // measure 37
1001
0000
1001
0000
,  // measure 38
0001
1000
0001
1000
,  // measure 39
0001
0000
0000
0000
,  // measure 40
1000
0000
0010
0000
,  // measure 41
0100
0010
0100
0000
,  // measure 42
0001
0000
1000
0000
,  // measure 43
0100
0010
0100
0000
,  // measure 44
1001
0001
1000
0100
,  // measure 45
0000
1000
0001
0100
,  // measure 46
0010
1000
0001
1001
,  // measure 47
0110
0010
1000
0001
,  // measure 48
0000
1000
0100
0010
,  // measure 49
0100
0010
0001
1000
,  // measure 50
0001
0100
0010
1000
,  // measure 51
0000
0001
0010
0001
,  // measure 52
0100
0010
1000
0100
,  // measure 53
0010
0001
1000
0001
,  // measure 54
0000
1000
0001
0100
,  // measure 55
0010
1000
0100
0010
,  // measure 56
2002
0000
3003
0010
0100
0010
0200
0000
,  // measure 57
0300
0010
1000
0001
2000
0000
3000
0001
,  // measure 58
0010
0100
0020
0000
0030
0001
1000
0001
,  // measure 59
1000
0100
0010
0001
,  // measure 60
0001
1000
1000
0010
,  // measure 61
0100
0010
1000
0001
,  // measure 62
0001
0010
0010
0000
,  // measure 63
1000
0001
0100
0010
,  // measure 64
0010
1000
1000
0001
,  // measure 65
0100
0010
0010
0100
,  // measure 66
0100
0001
1000
0000
,  // measure 67
1000
0000
0100
0000
,  // measure 68
1000
0000
0001
1000
,  // measure 69
0001
0000
0100
0000
,  // measure 70
0001
0000
0100
0000
,  // measure 71
0010
0000
1000
0000
,  // measure 72
0100
0000
0010
0100
,  // measure 73
0010
0000
0100
0000
,  // measure 74
0010
0000
0001
0000
,  // measure 75
1001
0000
0001
0000
,  // measure 76
1000
0001
1000
0000
,  // measure 77
0110
0000
0100
0000
,  // measure 78
0010
0100
0010
0000
,  // measure 79
1001
0000
0001
0000
,  // measure 80
0110
0000
0100
0000
,  // measure 81
1001
0000
1000
0000
,  // measure 82
0100
0000
0010
0000
,  // measure 83
0001
1000
0001
1000
,  // measure 84
0001
0000
0000
0000
,  // measure 85
0100
0010
0100
0010
,  // measure 86
0100
0000
0000
0000
,  // measure 87
1000
0001
1000
0001
,  // measure 88
1000
0000
0000
0000
,  // measure 89
0010
0100
0010
0100
,  // measure 90
0010
0000
0000
0000
,  // measure 91
1000
2000
0000
0000
,  // measure 92
3000
0000
0001
0002
,  // measure 93
0000
0000
0003
0000
,  // measure 94
0100
0200
0300
0000
,  // measure 95
0010
0000
1000
0000
,  // measure 96
0001
0000
1000
0000
,  // measure 97
0001
0010
0001
0010
,  // measure 98
0100
1000
0100
1000
,  // measure 99
0001
0000
0100
0100
,  // measure 100
0100
0000
0010
0000
,  // measure 101
1000
1000
1000
0000
,  // measure 102
0001
0000
0010
0010
,  // measure 103
0010
0000
0001
0000
,  // measure 104
0100
0100
0100
0000
,  // measure 105
0001
1000
0001
1000
,  // measure 106
0001
0000
1000
0000
,  // measure 107
0100
0000
0010
0000
,  // measure 108
0001
1000
0001
1000
,  // measure 109
0001
0000
1000
0000
,  // measure 110
0010
0000
0100
0000
,  // measure 111
0220
0000
0000
0000
,  // measure 112
0000
0000
0000
0000
,  // measure 113
0000
0000
0000
0000
,  // measure 114
0000
0000
0000
0000
,  // measure 115
0330
0000
0000
0000
;

//---------------dance-single - Oni-91----------------
#NOTES:
     dance-single:
     :
     Challenge:
     12:
     0.984654,1.795192,0.696462,0.448298,0.232154,861.000000,774.000000,87.000000,56.000000,0.000000,0.000000,0.984654,1.795192,0.696462,0.448298,0.232154,861.000000,774.000000,87.000000,56.000000,0.000000,0.000000:
// measure 0
1000
0000
0001
0000
0100
0000
0001
0010
,  // measure 1
0000
0100
1000
0000
0001
1000
0010
0000
,  // measure 2
0100
0000
0001
0000
1000
0001
0100
0001
,  // measure 3
1000
0000
0100
0000
0010
0100
0010
0000
,  // measure 4
0001
0000
0100
0000
0010
0000
1000
0010
,  // measure 5
0000
0100
0001
0000
1000
0100
0010
0000
,  // measure 6
0001
0100
0010
0000
1000
0010
0100
0001
,  // measure 7
0100
0000
0010
1000
0001
0010
0100
1000
,  // measure 8
0001
0100
0001
0100
0010
1000
0010
1000
,  // measure 9
0001
1000
0001
1000
0100
0010
0100
0010
,  // measure 10
0001
0100
0010
1000
0100
0010
0001
0100
,  // measure 11
0001
1000
0100
0010
0001
0100
0010
1000
,  // measure 12
0001
0100
1000
0000
0001
0010
1000
0000
,  // measure 13
1000
0100
0001
0000
1000
0010
0001
0000
,  // measure 14
0010
0100
0001
0000
0010
0100
1000
0000
,  // measure 15
0001
0100
0010
0000
1000
0100
0010
0000
,  // measure 16
1000
0100
0010
0001
0100
1000
0100
0000
,  // measure 17
0001
0100
0010
1000
0010
0001
0010
0000
,  // measure 18
1000
0100
0010
0100
0001
0100
1000
0010
,  // measure 19
0001
0010
0100
0001
0010
0100
1000
0000
,  // measure 20
0001
0100
0010
0100
0010
1000
0010
0100
,  // measure 21
0001
0010
0100
0010
0001
1000
0001
1000
,  // measure 22
0100
0010
0001
0010
0100
1000
0010
1000
,  // measure 23
0010
0100
0001
1000
0100
0010
0001
0000
,  // measure 24
0200
0000
0001
0010
0000
0000
1000
0010
,  // measure 25
0000
0000
0001
1000
0000
0000
0310
0001
,  // measure 26
0100
1000
0100
0010
1000
0100
0010
0100
,  // measure 27
1000
0010
0100
0001
0010
0100
0010
0001
,  // measure 28
1000
0100
1000
0100
0001
0100
0001
0100
,  // measure 29
1000
0010
1000
0010
0001
0010
0001
0010
,  // measure 30
1000
0100
0001
0100
0010
0001
0100
1000
,  // measure 31
0001
0010
1000
0001
0100
0001
1000
0000
,  // measure 32
0020
0000
1000
0001
0000
0000
0001
1000
,  // measure 33
0000
0000
0100
0001
0000
0000
0100
1000
,  // measure 34
0000
0000
0100
1000
0000
0000
0100
0001
,  // measure 35
0000
0000
0100
0001
0000
0000
1030
0000
,  // measure 36
2002
0000
3003
0110
0220
0000
0330
1100
,  // measure 37
2200
0000
3300
0101
0101
0000
1010
0000
,  // measure 38
0011
1010
1100
0101
,  // measure 39
0220
0000
0000
0330
,  // measure 40
1000
0200
0302
0203
,  // measure 41
2300
3020
0032
0023
,  // measure 42
1030
0002
0203
2300
,  // measure 43
3020
0032
0203
2300
,  // measure 44
3001
0000
1000
0000
0100
0000
0010
0000
0001
1000
0010
0000
0100
0000
1000
0000
,  // measure 45
0001
0010
1000
0001
1000
0100
0010
0001
,  // measure 46
1000
0001
0110
1000
0110
0001
0110
1000
,  // measure 47
0100
0000
1000
0000
0100
0000
0001
0000
0100
0010
0001
0000
1000
0000
0001
0100
,  // measure 48
0010
1000
0100
1000
0001
0100
0010
0100
,  // measure 49
1000
0100
0011
0100
1010
0100
0011
0100
,  // measure 50
1001
0000
0100
0000
0010
0000
1000
0100
0001
0100
1000
0000
0001
0000
0100
0010
,  // measure 51
1000
0001
0100
1000
0100
0010
1000
0100
,  // measure 52
0010
0001
1010
0100
1001
0010
0101
0010
,  // measure 53
0001
0000
0100
0000
1000
0100
0001
1000
0001
0000
1000
0000
0001
0010
0100
0010
,  // measure 54
0001
1000
0001
0100
0010
1000
0100
0001
,  // measure 55
0100
1000
0110
0001
1100
0010
1001
0100
,  // measure 56
0002
0000
0000
0000
0103
0000
0010
0000
1000
0000
0100
0000
0001
0000
0100
0000
1000
0000
0001
0000
0100
0000
0010
0000
0100
0001
1000
0000
0001
0000
1000
0000
,  // measure 57
0100
0000
0010
0000
0001
0000
0100
0000
0010
1000
0100
0010
0001
0000
0100
0000
0010
1000
0100
0010
0001
0000
0100
0000
0001
0000
1000
0000
0100
0000
0010
0000
,  // measure 58
0001
0000
0100
0000
1000
0000
0100
0000
0001
0000
1000
0000
0100
0000
0010
0000
0001
0100
0001
0000
1000
0000
0010
0000
0100
0001
1000
0000
0100
0000
0010
0000
,  // measure 59
0001
0000
0000
0100
1000
0000
0100
0001
0000
0100
0010
0000
1000
0000
0001
0001
,  // measure 60
1000
0000
0000
0001
0010
0000
0100
0100
0010
0000
0001
0000
0110
0000
1000
0000
,  // measure 61
1001
0000
0010
0000
0100
0000
0001
0001
0010
0000
0001
0000
0100
0000
0010
0010
,  // measure 62
1000
0000
0001
0000
0010
0000
0100
0100
0010
0000
0001
0000
1000
0000
0001
0000
,  // measure 63
1010
0000
1000
0100
0010
0000
0001
0001
1000
0000
1000
0010
0100
0000
0001
0001
,  // measure 64
1000
0000
1000
0100
1000
0000
0001
0001
1000
0000
0001
0000
0110
0000
1000
0000
,  // measure 65
1002
0000
0000
0000
0103
0000
0001
0010
2000
0000
0000
0000
3010
0000
0001
0100
,  // measure 66
0020
0000
0000
0000
1030
0000
0001
0010
1000
0000
0010
0000
2002
0000
3003
0000
,  // measure 67
1000
0100
1000
0100
0010
0100
0010
0100
,  // measure 68
0010
0001
0010
0001
1000
0001
1000
0001
,  // measure 69
1000
0010
0100
0001
1000
0100
0010
0001
,  // measure 70
1000
0100
1000
0001
0100
0010
0100
0001
,  // measure 71
0010
0001
0010
0001
0010
0100
0010
0100
,  // measure 72
0010
0100
0010
0100
1000
0100
1000
0100
,  // measure 73
1000
0100
0010
0001
0100
1000
0100
0001
,  // measure 74
1000
0001
0010
0100
0010
0001
1000
0000
,  // measure 75
0001
0100
0010
1000
0100
0010
0100
1000
,  // measure 76
0010
0100
0001
0100
1000
0100
0010
1000
,  // measure 77
0100
0010
0001
0100
0010
1000
0010
0001
,  // measure 78
0010
0100
0001
0010
0100
0010
0001
1000
,  // measure 79
0001
0100
0010
1000
0100
0010
0100
1000
,  // measure 80
0001
0100
0010
0100
0001
1000
0100
0010
,  // measure 81
0001
0100
0010
1000
0001
1000
0010
0100
,  // measure 82
1000
0100
0001
0100
0010
1000
0001
0000
,  // measure 83
0101
0011
1010
1100
,  // measure 84
1002
0000
0103
0010
1000
0100
0010
0001
,  // measure 85
0100
1100
1010
0011
,  // measure 86
2002
0000
3003
0000
1000
0100
0010
0001
,  // measure 87
0011
0101
1100
1010
,  // measure 88
2001
0000
3100
1000
0010
0100
0001
0010
,  // measure 89
0011
1010
1100
0101
,  // measure 90
1002
0000
0013
0001
0100
1000
0100
0001
,  // measure 91
1000
0001
2001
0000
3100
0010
0001
0100
,  // measure 92
0010
0000
1000
0100
0010
0100
0120
0000
,  // measure 93
0031
0100
0010
1000
0001
0010
0100
0010
,  // measure 94
0001
0100
0102
0000
1003
0010
1000
0001
,  // measure 95
0100
0001
0100
0001
0100
1000
0100
1000
,  // measure 96
0100
0001
0100
1000
0100
0001
0010
1000
,  // measure 97
0010
0100
0010
0001
0100
1000
0100
0010
,  // measure 98
0100
0001
1000
0100
0010
0001
0010
0100
,  // measure 99
1100
0011
0110
1001
,  // measure 100
0220
0330
0101
1010
,  // measure 101
1100
0011
2002
3003
,  // measure 102
1100
0011
0110
1001
,  // measure 103
0220
0330
1001
1010
,  // measure 104
0101
0011
2200
3300
,  // measure 105
0001
0100
1000
0100
0010
1000
0001
0010
,  // measure 106
0220
0330
1100
0011
,  // measure 107
0101
1010
2002
3003
,  // measure 108
0001
0100
1000
0001
0010
0100
0001
1000
,  // measure 109
2200
3300
0011
0101
,  // measure 110
1010
0101
2002
3003
,  // measure 111
0220
0000
0000
0000
,  // measure 112
0000
0000
0000
0000
,  // measure 113
0000
0000
0000
0000
,  // measure 114
0000
0000
0000
0000
,  // measure 115
0330
0000
0000
0000
;
