#TITLE:INSOMNIA;
#SUBTITLE:;
#ARTIST:Jakarta Funk Brothers;
#TITLETRANSLIT:;
#SUBTITLETRANSLIT:;
#ARTISTTRANSLIT:;
#GENRE:;
#CREDIT:;
#BANNER:INSOMNIA.png;
#BACKGROUND:INSOMNIA-bg.png;
#LYRICSPATH:;
#CDTITLE:;
#MUSIC:INSOMNIA.mp3;
#OFFSET:-4.960000;
#SAMPLESTART:24.629999;
#SAMPLELENGTH:9.840000;
#SELECTABLE:YES;
#BPMS:0.000000=195.000000
;
#STOPS:
;
#BGCHANGES:-8.000=INSOMNIA.avi=1.000=0=0=1=====,
361.000=INSOMNIA-bg.png=1.000=1=0=1===CrossFade==,
99999=-nosongbg-=1.000=0=0=0 // don't automatically add -songbackground-
;
#KEYSOUNDS:;
#ATTACKS:;

//---------------dance-single - Oni-91----------------
#NOTES:
     dance-single:
     :
     Hard:
     9:
     0.699759,0.723326,0.507597,0.245339,0.029610,579.000000,519.000000,60.000000,29.000000,0.000000,0.000000,0.699759,0.723326,0.507597,0.245339,0.029610,579.000000,519.000000,60.000000,29.000000,0.000000,0.000000:
// measure 0
1000
0000
0100
0000
1100
0000
1000
0001
,  // measure 1
0000
0100
0000
0001
0100
0000
0001
0010
,  // measure 2
0001
0000
1000
0000
1100
0000
0100
0010
,  // measure 3
0000
0100
0000
1000
0001
0000
1001
0000
,  // measure 4
0001
0000
0101
0000
1010
0000
0010
1000
,  // measure 5
0001
0000
1001
0000
0011
0000
0010
0001
,  // measure 6
0100
0010
1000
0001
0010
0100
1000
0001
,  // measure 7
2000
3001
0100
1001
,  // measure 8
0001
0000
0100
0000
0010
1000
0001
0000
,  // measure 9
1000
0100
1000
0100
0010
0001
0010
0001
,  // measure 10
1000
0000
0001
0100
0000
0010
0100
0001
,  // measure 11
0100
0000
0001
1000
0000
0100
1000
0100
,  // measure 12
0010
0000
0001
0000
1000
0001
0100
0000
,  // measure 13
0010
0100
0010
1000
0100
0010
0001
1000
,  // measure 14
0001
0000
1000
0000
0101
0000
0010
0020
,  // measure 15
0000
1000
0000
0100
0200
0000
0330
0000
,  // measure 16
0010
1000
1000
0001
0010
0100
0010
0001
,  // measure 17
1000
0000
0001
0100
0010
0100
0010
1000
,  // measure 18
0001
0000
0010
0001
0100
0000
0001
1000
,  // measure 19
0001
0011
1100
0011
,  // measure 20
1000
0100
0100
1000
0010
0100
0001
1000
,  // measure 21
0001
0000
1000
0100
0010
0001
0010
0001
,  // measure 22
1000
0000
0001
1000
0100
0010
0001
0000
,  // measure 23
1000
0100
1000
0010
0000
0100
0001
0000
,  // measure 24
1000
0100
0100
0001
0100
0010
0001
0100
,  // measure 25
0010
0001
0010
1000
0001
1000
0100
0010
,  // measure 26
0100
0000
0001
1000
0001
0000
0100
0010
,  // measure 27
0100
1010
0101
1010
,  // measure 28
0001
1000
0001
1000
0001
0000
0000
0000
1000
0000
0100
0000
0001
0000
0100
0000
,  // measure 29
1000
0010
0100
0001
0010
0100
0010
0001
,  // measure 30
1000
0000
0001
0100
0001
0000
1000
0001
,  // measure 31
0000
0100
0010
1000
0100
0000
0010
0100
,  // measure 32
1100
0000
1000
0001
0101
0000
0001
1000
,  // measure 33
1010
0000
0010
0100
0101
0000
0001
0000
,  // measure 34
0011
0101
1100
0110
,  // measure 35
0010
1000
0001
0100
0001
0010
0100
0000
,  // measure 36
0010
0001
0010
0001
1000
0001
1000
0001
,  // measure 37
1000
0010
1000
0010
0100
0010
0100
0010
,  // measure 38
1000
0010
0100
0001
1000
0100
0010
0001
,  // measure 39
1000
0001
1000
0001
0200
0000
0300
0000
,  // measure 40
0010
1000
0100
0010
0001
0100
0010
1000
,  // measure 41
0100
0010
0001
0010
0100
1000
0010
0100
,  // measure 42
0001
1000
0001
1000
0100
0010
0100
0010
,  // measure 43
0002
0003
1001
1001
,  // measure 44
1000
0010
0100
0010
0001
0010
0100
0010
,  // measure 45
1000
0100
0010
0100
0001
0100
0010
0100
,  // measure 46
1000
0010
1000
0001
1000
0100
1000
0001
,  // measure 47
0010
0001
0100
0010
0200
0000
0310
0000
,  // measure 48
1000
0001
0010
0001
1000
0100
0001
0100
,  // measure 49
0010
0001
0100
0001
1000
0010
0100
0010
,  // measure 50
1000
0100
0001
0100
0010
0001
0100
1000
,  // measure 51
0100
0010
1000
0002
0000
1000
1003
0000
,  // measure 52
0220
0000
0330
0000
,  // measure 53
2020
0000
3030
0000
,  // measure 54
0202
0303
2002
0000
,  // measure 55
3003
0000
0220
0330
,  // measure 56
2020
0000
3030
0000
,  // measure 57
0202
0000
0303
0000
,  // measure 58
0022
0033
2200
0000
,  // measure 59
3300
0000
2002
3003
,  // measure 60
0001
0000
0100
0000
0001
0000
0100
0001
,  // measure 61
1000
0000
0001
0000
1000
0001
1000
0001
,  // measure 62
0010
0000
0100
0000
0010
0000
0100
0010
,  // measure 63
0001
0000
1000
0000
0010
0100
0001
0010
,  // measure 64
0011
0000
1001
0000
1100
0000
0010
0100
,  // measure 65
0110
0000
1001
0000
1000
0001
0010
0001
,  // measure 66
0101
0000
1010
0000
1100
0000
1000
0001
,  // measure 67
1000
0100
0010
0001
0100
0010
1000
0001
,  // measure 68
0200
0000
0000
0000
,  // measure 69
0000
0000
0000
0300
,  // measure 70
0011
0000
0101
0000
0010
1000
0100
0000
,  // measure 71
0011
0000
1100
0000
1000
0001
1000
0001
,  // measure 72
0100
0000
0010
1000
0100
0100
0100
1000
,  // measure 73
0001
0001
0001
0010
0100
0010
0001
1000
,  // measure 74
0010
0110
1001
0001
,  // measure 75
0011
0000
1100
0000
1000
0001
0100
0010
,  // measure 76
1000
0000
0001
0100
0010
1000
0001
1000
,  // measure 77
0100
0010
0001
1000
0000
1000
0001
0100
,  // measure 78
0010
0000
0100
0001
1000
0100
1000
0000
,  // measure 79
0001
0010
0100
0010
0001
1000
0001
1000
,  // measure 80
0010
0000
0100
0100
0100
0001
1000
1000
,  // measure 81
1000
0001
0010
0010
0100
0100
0010
0000
,  // measure 82
0001
0100
0001
0100
1000
0100
1000
0100
,  // measure 83
0010
0100
0010
0001
0010
0100
0010
1000
,  // measure 84
0001
0000
0010
0001
0100
0010
1000
0100
,  // measure 85
1000
0100
0000
0000
0010
0001
0000
0000
0001
1000
0000
0000
0110
0000
0000
0000
,  // measure 86
0101
0010
1001
0100
,  // measure 87
0011
0000
0100
0000
1001
0000
0010
1000
,  // measure 88
1010
0101
0011
1100
,  // measure 89
1000
0000
0001
0000
1000
0000
0001
0000
1000
0001
1000
0001
2000
0000
0000
0000
,  // measure 90
3000
0000
0000
0000
;

//---------------dance-single - Oni-91----------------
#NOTES:
     dance-single:
     :
     Medium:
     7:
     0.569234,0.685256,0.634496,0.490677,0.000000,471.000000,396.000000,75.000000,58.000000,0.000000,0.000000,0.569234,0.685256,0.634496,0.490677,0.000000,471.000000,396.000000,75.000000,58.000000,0.000000,0.000000:
// measure 0
1000
0001
1000
0001
,  // measure 1
0010
0100
0220
0330
,  // measure 2
0001
1000
0001
1000
,  // measure 3
0010
0100
0220
0330
,  // measure 4
1000
1010
0101
1001
,  // measure 5
0001
0011
1100
1001
,  // measure 6
1000
0001
1000
0001
0100
0010
0100
0010
,  // measure 7
0200
0300
2002
3003
,  // measure 8
2000
0100
0000
0100
0000
0001
0000
0001
,  // measure 9
0000
0010
0000
0010
0000
0100
0000
3100
,  // measure 10
1000
0000
0001
0010
0000
0001
1000
0000
,  // measure 11
0110
0000
1000
0010
0000
1000
0001
0000
,  // measure 12
2000
0010
0000
0010
0000
0001
0000
0001
,  // measure 13
0000
0100
0000
0100
0000
0001
0000
3001
,  // measure 14
1000
0001
0110
0110
,  // measure 15
1000
0001
2002
3003
,  // measure 16
1000
0000
0100
1000
0100
0000
0010
0000
,  // measure 17
0001
0000
1000
0001
1000
0000
0001
0100
,  // measure 18
0010
0000
0100
0010
1000
0000
0001
0000
,  // measure 19
0200
0001
0001
0301
,  // measure 20
1000
0000
0001
0010
0100
0000
0010
0001
,  // measure 21
1000
0000
0001
1000
0001
1000
0001
0000
,  // measure 22
0100
0000
0010
0000
1000
0000
0100
0010
,  // measure 23
0001
0000
1000
0001
1000
0001
1000
0000
,  // measure 24
1001
0000
0010
0001
0100
0000
0010
1000
,  // measure 25
0001
0000
1000
0000
0001
0010
0001
0100
,  // measure 26
0010
0000
1000
0001
1000
0000
0001
0010
,  // measure 27
0002
1000
1000
1003
,  // measure 28
0220
0000
0330
0000
0010
0000
1000
0001
,  // measure 29
1000
0000
0100
0000
0010
0001
1000
0001
,  // measure 30
0100
0000
0010
0100
0001
0000
0001
1000
,  // measure 31
0000
1000
0100
0010
0001
0000
0110
0000
,  // measure 32
2002
3003
0220
0330
,  // measure 33
2002
3003
0220
0330
,  // measure 34
1010
1010
0101
0101
,  // measure 35
0001
1000
0001
1000
0200
0000
0300
0000
,  // measure 36
0010
1100
0010
0101
,  // measure 37
1000
1100
0001
0101
,  // measure 38
0010
1001
0100
1001
,  // measure 39
0001
1100
2002
3003
,  // measure 40
1000
0000
0101
0000
0010
1000
0100
0000
,  // measure 41
0001
0000
1100
0000
0010
0001
1000
0000
,  // measure 42
0010
0000
1001
0000
0100
0001
0100
0000
,  // measure 43
0010
1000
0001
0000
0110
0000
1001
0000
,  // measure 44
1000
0100
1000
0000
0001
0010
0001
0000
,  // measure 45
1000
0010
1000
0000
0001
0100
0001
0000
,  // measure 46
1000
0010
0100
0000
0001
0010
0100
0000
,  // measure 47
0010
0001
1000
0000
0220
0000
0330
0000
,  // measure 48
0010
1000
0100
0000
1000
0100
0010
0000
,  // measure 49
0100
0010
0001
0000
0010
0001
0100
0000
,  // measure 50
0010
0000
0100
0000
0001
1000
0001
0000
,  // measure 51
0110
0000
1000
0001
0000
1000
0001
0000
,  // measure 52
2002
0000
3003
0000
,  // measure 53
0220
0000
0330
0000
,  // measure 54
0022
0033
2002
0000
,  // measure 55
3003
0000
0220
0330
,  // measure 56
2002
0000
3003
0000
,  // measure 57
0220
0000
0330
0000
,  // measure 58
2020
3030
2002
0000
,  // measure 59
3003
0000
0220
0330
,  // measure 60
0001
0000
1000
0000
0001
0000
1000
0001
,  // measure 61
1000
0000
0100
0000
0010
0001
0010
0001
,  // measure 62
0010
0000
0001
0000
0100
0000
0010
1000
,  // measure 63
0010
0000
1000
0000
0001
1000
0001
1000
,  // measure 64
0001
0000
0100
0000
0001
0000
0100
0010
,  // measure 65
1000
0000
0100
0000
1000
0100
0010
0001
,  // measure 66
0010
0000
0001
0000
0100
0000
0010
0100
,  // measure 67
0010
0100
0010
0100
0001
1000
0001
1000
,  // measure 68
0200
0000
0000
0000
,  // measure 69
0000
0000
0000
0300
,  // measure 70
0010
0000
0001
0000
1000
0010
0100
0000
,  // measure 71
0001
0000
1000
0000
0010
0100
0001
0000
,  // measure 72
1000
0000
0001
1000
0100
0000
0010
0001
,  // measure 73
0100
0000
0001
1000
0001
1000
0001
0000
,  // measure 74
0100
0000
0010
0000
1000
0000
0100
1000
,  // measure 75
0100
0000
0010
0000
0001
0000
1000
0001
,  // measure 76
1000
0000
0001
0000
0100
0010
0100
0010
,  // measure 77
0100
0000
0000
1001
0000
0000
0110
0000
,  // measure 78
0010
0000
1000
0000
0100
0010
0001
0000
,  // measure 79
1000
0000
0001
0000
0100
0010
1000
0000
,  // measure 80
0001
0000
1000
0100
1000
0000
0001
0100
,  // measure 81
0001
0000
1000
0001
1000
0001
0100
0000
,  // measure 82
1010
1010
0101
0101
,  // measure 83
0011
0011
1100
1100
,  // measure 84
1001
1001
0110
0110
,  // measure 85
1010
1100
0011
0101
,  // measure 86
2020
3030
2200
3300
,  // measure 87
0022
0033
0202
0303
,  // measure 88
1001
1001
0110
0110
,  // measure 89
0001
1000
0001
1000
0001
1000
0200
0000
,  // measure 90
0300
0000
0000
0000
;

//---------------dance-single - Oni-91----------------
#NOTES:
     dance-single:
     :
     Easy:
     6:
     0.413329,0.607424,0.439917,0.448377,0.000000,342.000000,290.000000,52.000000,53.000000,0.000000,0.000000,0.413329,0.607424,0.439917,0.448377,0.000000,342.000000,290.000000,52.000000,53.000000,0.000000,0.000000:
// measure 0
1001
0000
0001
0100
,  // measure 1
0001
0100
0010
0000
,  // measure 2
1001
0000
1000
0100
,  // measure 3
0010
0001
1000
0000
,  // measure 4
1001
0001
1000
0001
,  // measure 5
0110
0100
0010
0100
,  // measure 6
1001
0001
1001
0110
,  // measure 7
2002
3003
0220
0330
,  // measure 8
0010
1000
0010
1000
,  // measure 9
0001
0100
0001
0100
,  // measure 10
0001
0010
0100
1000
,  // measure 11
0200
0010
0010
0310
,  // measure 12
0100
1000
0001
0100
,  // measure 13
0010
1000
0001
0010
,  // measure 14
0110
0000
1001
0000
,  // measure 15
1000
0001
2002
3003
,  // measure 16
0001
0100
0001
0010
,  // measure 17
0100
0010
0001
1000
,  // measure 18
0001
0000
1000
0000
,  // measure 19
0002
1000
1000
1000
,  // measure 20
1003
0000
0100
0010
,  // measure 21
0001
0100
0010
1000
,  // measure 22
1001
0000
0110
0000
,  // measure 23
0010
0100
0220
0330
,  // measure 24
1001
1000
0001
0010
,  // measure 25
0100
0010
0001
1000
,  // measure 26
1000
0000
0010
0000
,  // measure 27
0200
0010
0010
0310
,  // measure 28
2002
3003
1000
0001
,  // measure 29
1000
0100
0010
0001
,  // measure 30
0100
0000
0010
0000
,  // measure 31
0100
0010
1000
0001
,  // measure 32
2002
3003
2002
3003
,  // measure 33
0220
0330
0220
0330
,  // measure 34
1001
1001
0110
0110
,  // measure 35
1001
0110
2002
3003
,  // measure 36
1000
0100
0001
0100
,  // measure 37
1000
0100
0001
0100
,  // measure 38
1000
0100
0010
0001
,  // measure 39
0100
0010
0200
0300
,  // measure 40
0001
0100
1000
0100
,  // measure 41
0001
0100
1000
0100
,  // measure 42
0001
0100
0010
1000
,  // measure 43
0001
1000
2002
3003
,  // measure 44
1000
0100
0001
0100
,  // measure 45
1000
0010
0001
0010
,  // measure 46
1000
0100
0010
0001
,  // measure 47
0100
0010
2002
3003
,  // measure 48
0001
0100
1000
0100
,  // measure 49
0001
0010
1000
0010
,  // measure 50
0001
0100
0010
1000
,  // measure 51
0100
0010
0001
1000
,  // measure 52
2002
0000
3003
0000
,  // measure 53
0220
0000
0330
0000
,  // measure 54
1001
0000
2002
0000
,  // measure 55
3003
0000
0110
0000
,  // measure 56
2002
0000
3003
0000
,  // measure 57
0220
0000
0330
0000
,  // measure 58
1001
0000
2002
0000
,  // measure 59
3003
0000
0110
0000
,  // measure 60
1000
0100
1000
0100
,  // measure 61
0010
0001
0010
0001
,  // measure 62
1000
0001
1000
0001
,  // measure 63
0100
0010
0100
0010
,  // measure 64
0100
0001
1000
0001
,  // measure 65
0010
0100
1000
0100
,  // measure 66
0010
0001
0100
0010
,  // measure 67
1000
0001
1000
0001
,  // measure 68
0200
0000
0000
0000
,  // measure 69
0000
0000
0000
0300
,  // measure 70
0010
0010
0100
0100
,  // measure 71
0001
1000
0001
0010
,  // measure 72
0100
0000
0010
0000
,  // measure 73
0001
1000
0001
0100
,  // measure 74
0010
1000
0100
1000
,  // measure 75
0001
0001
0010
0010
,  // measure 76
0100
0000
0010
0001
,  // measure 77
2002
0000
0000
3003
,  // measure 78
0010
1000
0100
1000
,  // measure 79
0010
0100
0001
0010
,  // measure 80
0100
0000
0010
0000
,  // measure 81
0100
0010
0001
1000
,  // measure 82
0001
0001
0001
0001
,  // measure 83
0100
0100
0100
0100
,  // measure 84
0010
0010
0010
0010
,  // measure 85
1000
1000
1000
1000
,  // measure 86
2002
3003
2002
3003
,  // measure 87
0220
0330
0220
0330
,  // measure 88
1001
1001
0110
0110
,  // measure 89
1001
0110
2002
3003
;

//---------------dance-single - Oni-91----------------
#NOTES:
     dance-single:
     :
     Beginner:
     3:
     0.216333,0.454299,0.194579,0.000000,0.000000,179.000000,156.000000,23.000000,0.000000,0.000000,0.000000,0.216333,0.454299,0.194579,0.000000,0.000000,179.000000,156.000000,23.000000,0.000000,0.000000,0.000000:
// measure 0
1000
0000
0100
0000
,  // measure 1
1000
0000
0100
0000
,  // measure 2
0010
0000
0001
0000
,  // measure 3
0010
0000
0001
0000
,  // measure 4
0100
0000
0000
0000
,  // measure 5
0010
0000
0000
0000
,  // measure 6
1000
0000
0000
0000
,  // measure 7
1001
0000
0000
0000
,  // measure 8
0001
0000
0100
0000
,  // measure 9
0001
0000
1000
0000
,  // measure 10
0100
0000
0000
0000
,  // measure 11
0010
0000
0000
0000
,  // measure 12
0100
0000
0010
0000
,  // measure 13
0100
0000
1000
0000
,  // measure 14
0001
0000
0000
0000
,  // measure 15
1001
0000
0000
0000
,  // measure 16
1000
0000
1000
0000
,  // measure 17
0001
0000
0001
0000
,  // measure 18
0100
0000
0010
0000
,  // measure 19
0100
0000
0000
0000
,  // measure 20
0010
0000
0010
0000
,  // measure 21
0100
0000
0100
0000
,  // measure 22
0001
0000
1000
0000
,  // measure 23
0001
0000
0000
0000
,  // measure 24
1000
0000
0100
0000
,  // measure 25
0010
0000
0001
0000
,  // measure 26
0100
0000
0010
0000
,  // measure 27
0100
0000
0000
0000
,  // measure 28
0001
0000
0100
0000
,  // measure 29
0010
0000
1000
0000
,  // measure 30
0001
0000
1000
0000
,  // measure 31
0100
0000
0010
0000
,  // measure 32
0001
0000
0001
0000
,  // measure 33
0001
0000
0001
0000
,  // measure 34
0001
0001
0001
0001
,  // measure 35
0001
0001
0001
0000
,  // measure 36
1000
0000
0100
0000
,  // measure 37
1000
0000
0100
0000
,  // measure 38
0010
0000
0001
0000
,  // measure 39
0010
0000
0000
0000
,  // measure 40
0001
0000
0100
0000
,  // measure 41
0001
0000
0100
0000
,  // measure 42
0010
0000
1000
0000
,  // measure 43
0001
0000
0000
0000
,  // measure 44
1000
0000
0100
0000
,  // measure 45
0010
0000
0001
0000
,  // measure 46
0100
0000
0010
0000
,  // measure 47
1000
0000
0000
0000
,  // measure 48
0001
0000
1000
0000
,  // measure 49
0010
0000
1000
0000
,  // measure 50
0100
0000
0010
0000
,  // measure 51
0001
0000
0000
0000
,  // measure 52
1001
0000
0000
0000
,  // measure 53
1001
0000
0000
0000
,  // measure 54
0110
0000
1001
0000
,  // measure 55
0000
0000
0110
0000
,  // measure 56
1001
0000
0000
0000
,  // measure 57
1001
0000
0000
0000
,  // measure 58
1001
0000
0110
0000
,  // measure 59
0000
0000
0110
0000
,  // measure 60
1001
0000
0000
0000
,  // measure 61
0001
0000
0000
0000
,  // measure 62
1000
0000
0000
0000
,  // measure 63
0100
0000
0000
0000
,  // measure 64
0010
0000
0100
0000
,  // measure 65
0010
0000
0100
0000
,  // measure 66
0010
0000
0001
0000
,  // measure 67
1000
0000
0001
0000
,  // measure 68
1001
0000
0000
0000
,  // measure 69
0000
0000
0000
0000
,  // measure 70
1000
0000
1000
0000
,  // measure 71
0001
0000
0001
0000
,  // measure 72
0100
0000
0010
0000
,  // measure 73
0100
0000
0100
0000
,  // measure 74
0001
0000
0010
0000
,  // measure 75
0001
0000
0010
0000
,  // measure 76
0100
0000
1000
0000
,  // measure 77
0100
0000
1000
0000
,  // measure 78
0010
0000
0010
0000
,  // measure 79
0100
0000
0100
0000
,  // measure 80
0010
0000
1000
0000
,  // measure 81
0001
0000
1000
0000
,  // measure 82
0100
0000
0100
0000
,  // measure 83
0010
0000
0010
0000
,  // measure 84
0001
0000
1000
0000
,  // measure 85
0001
0000
1000
0000
,  // measure 86
1001
0000
1001
0000
,  // measure 87
0110
0000
0110
0000
,  // measure 88
1001
0000
1001
0000
,  // measure 89
1001
1001
1001
0000
;
