#TITLE:Du Temps;
#SUBTITLE:;
#ARTIST:Mylène Farmer;
#TITLETRANSLIT:;
#SUBTITLETRANSLIT:;
#ARTISTTRANSLIT:;
#GENRE:;
#CREDIT:;
#BANNER:Du Temps.png;
#BACKGROUND:Du Temps-bg.png;
#LYRICSPATH:;
#CDTITLE:;
#MUSIC:Du Temps.mp3;
#OFFSET:-7.140000;
#SAMPLESTART:35.564140;
#SAMPLELENGTH:14.222221;
#SELECTABLE:YES;
#BPMS:0.000000=135.000000
;
#STOPS:
;
#BGCHANGES:;
#KEYSOUNDS:;
#ATTACKS:;

//---------------dance-single - Oni-91----------------
#NOTES:
     dance-single:
     :
     Hard:
     7:
     0.430784,0.432624,0.238513,0.238513,0.085183,354.000000,326.000000,28.000000,28.000000,0.000000,0.000000,0.430784,0.432624,0.238513,0.238513,0.085183,354.000000,326.000000,28.000000,28.000000,0.000000,0.000000:
// measure 0
1000
0000
0000
2000
0000
0000
0000
0000
3000
0000
0000
0000
0001
0000
0100
0000
,  // measure 1
0001
0000
0000
0002
0000
0000
0000
0000
0003
0000
0000
0000
1000
0000
0010
0000
,  // measure 2
0100
0000
0000
0200
0000
0000
0000
0000
0300
0000
0000
0000
0001
0000
0100
0000
,  // measure 3
0010
0000
0000
0100
0000
0000
0010
0000
0100
0000
0000
0100
0001
0000
0000
0000
,  // measure 4
1000
0000
0000
1000
0100
0000
0000
0000
1000
0000
0000
0000
1000
0000
0001
0000
,  // measure 5
1000
0000
0000
1000
0001
0000
0000
0000
0100
0000
0000
0000
0001
0000
0100
0000
,  // measure 6
0001
0000
0000
0100
0001
0000
0000
0000
0001
0000
0000
0000
0001
0000
1000
0000
,  // measure 7
0100
0000
0000
0010
0001
0000
0000
0002
2000
0000
0000
0000
3003
0000
0000
0000
,  // measure 8
1000
0100
0010
0001
0100
0000
0010
0000
,  // measure 9
0100
0001
1000
0100
0000
0100
1000
0000
,  // measure 10
0001
0010
0100
0010
0001
0000
1000
0000
,  // measure 11
0001
0100
0010
0100
0000
0100
0010
0000
,  // measure 12
1000
0010
1000
0001
0010
0002
0000
0010
,  // measure 13
0000
1000
0000
0100
0000
1003
0000
0000
,  // measure 14
0001
0100
0010
1000
0010
2000
0000
0010
,  // measure 15
0000
0001
0000
0010
0000
0001
3001
0000
,  // measure 16
1001
0000
0110
0000
0010
1000
0001
0010
,  // measure 17
0001
0000
1000
0100
0000
0100
1000
0001
,  // measure 18
0100
0000
0110
0000
0010
0000
1000
0001
,  // measure 19
0000
0001
1000
0000
0100
0010
0100
1000
,  // measure 20
0001
0000
1001
0000
1000
0010
0100
0001
,  // measure 21
1000
0000
0001
0010
0000
0100
1000
0001
,  // measure 22
0100
0000
0010
0000
0100
0001
1000
0001
,  // measure 23
1000
0100
0010
0110
,  // measure 24
1001
1000
0200
0000
0001
0000
1300
0000
,  // measure 25
1000
0010
0200
0000
1000
0000
0301
0000
,  // measure 26
0010
0001
0020
0000
1000
0000
0031
0000
,  // measure 27
0010
0001
0100
0000
1010
0000
0101
0000
,  // measure 28
1000
0100
0001
0100
2000
0000
3010
0000
,  // measure 29
0100
0010
0001
0010
0200
0000
0301
0000
,  // measure 30
0010
0001
0100
0010
2000
0000
3100
0000
,  // measure 31
0020
0001
0001
0031
,  // measure 32
1001
0000
0000
0000
1000
0000
0000
0010
0000
0000
1000
0000
0000
0000
1000
0000
,  // measure 33
0001
0000
0000
0000
0010
0000
0000
0001
0000
0000
0010
0000
0000
0000
0010
0000
,  // measure 34
0100
0000
0000
0000
0100
0000
0000
0010
0000
0000
0100
0000
0000
0000
1000
0000
,  // measure 35
0002
0010
1000
0103
,  // measure 36
0110
0000
0000
0000
0010
0000
0000
1000
0000
0000
0001
0000
1000
0000
0100
0000
,  // measure 37
0010
0000
0000
0000
0100
0000
0000
0010
0000
0000
0100
0000
1000
0000
0010
0000
,  // measure 38
0100
0000
0000
0000
0001
0000
0000
1000
0000
0000
0001
0000
1000
0000
0100
0000
,  // measure 39
0010
0011
1100
2002
,  // measure 40
3003
0000
0000
0000
,  // measure 41
1000
0100
1000
0100
0010
0001
0010
0001
,  // measure 42
1000
0001
1000
0001
0100
0010
0100
0010
,  // measure 43
1000
0010
0100
0002
0003
0000
0101
0000
,  // measure 44
1001
0000
0000
0000
1100
0000
0000
1000
0100
0000
1000
0000
0001
0000
0100
0000
,  // measure 45
0010
0000
1000
0100
0000
0010
0001
0100
,  // measure 46
0010
0000
1001
0000
1000
0100
0001
0100
,  // measure 47
1000
0000
0000
0000
0001
0000
0000
0100
0000
0000
0001
0000
1000
0000
0100
0000
,  // measure 48
0010
0000
0000
0000
0011
0000
0000
0001
0100
0000
0010
0000
1000
0000
0100
0000
,  // measure 49
0010
0000
0100
1000
0000
1000
0001
0100
,  // measure 50
0010
0000
0000
0000
1010
0000
0000
1000
0100
0000
0001
0000
0100
0000
1000
0000
,  // measure 51
0001
0000
0100
0000
0010
0100
0010
1000
,  // measure 52
1001
0011
2200
3300
,  // measure 53
1000
0010
0100
0001
0202
0000
0303
0000
,  // measure 54
0001
0010
0110
0000
2200
0000
3300
0000
,  // measure 55
1000
0010
0200
0000
1000
0000
0301
0100
,  // measure 56
0001
1000
0100
1000
0200
0000
0310
0000
,  // measure 57
0010
0100
1000
0010
0200
0000
1300
0000
,  // measure 58
0100
0001
1000
0100
0020
0000
0031
0000
,  // measure 59
0001
0011
1100
1001
;

//---------------dance-single - Oni-91----------------
#NOTES:
     dance-single:
     :
     Medium:
     5:
     0.329781,0.330830,0.204440,0.306660,0.004259,271.000000,247.000000,24.000000,36.000000,0.000000,0.000000,0.329781,0.330830,0.204440,0.306660,0.004259,271.000000,247.000000,24.000000,36.000000,0.000000,0.000000:
// measure 0
1000
0000
0001
0100
0000
0100
0001
0000
,  // measure 1
1000
0000
0001
0000
,  // measure 2
1000
0000
0001
0010
0000
0010
0001
0000
,  // measure 3
1000
0000
0000
0001
0000
0000
1000
0000
0001
0000
0000
0000
1001
0000
0000
0000
,  // measure 4
0110
0000
0010
1000
0000
1000
0001
0000
,  // measure 5
1000
0100
0010
0001
,  // measure 6
1000
0000
0100
0010
0000
0010
0001
0000
,  // measure 7
1000
0100
0020
0130
,  // measure 8
1001
0000
1000
0001
1000
0000
0001
0000
,  // measure 9
0100
0000
0010
0200
0000
0000
0301
0000
,  // measure 10
0010
0000
0100
0010
0100
0000
1000
0000
,  // measure 11
0001
0000
1000
0002
0000
0000
0103
0000
,  // measure 12
0001
0000
1000
0000
0100
0020
0000
0001
,  // measure 13
0000
0001
0000
0001
0000
0031
0000
0000
,  // measure 14
0001
0000
1000
0000
0001
2000
0000
0010
,  // measure 15
0000
0010
0000
0010
0000
0010
3010
0000
,  // measure 16
0110
0000
1001
0000
1000
0000
0001
0010
,  // measure 17
0001
0100
1000
0100
,  // measure 18
0001
0000
1000
0000
0100
0000
0010
0001
,  // measure 19
1000
0001
0100
0110
,  // measure 20
1001
0000
1000
0000
0100
0010
0100
0000
,  // measure 21
0010
0001
0100
0010
,  // measure 22
1000
0000
0001
0000
1000
0000
0001
0010
,  // measure 23
0001
0100
0010
0110
,  // measure 24
1002
0100
0200
0303
,  // measure 25
0200
0010
0020
0330
,  // measure 26
0020
1000
2000
3030
,  // measure 27
0200
1000
0001
1300
,  // measure 28
1002
0010
0020
0033
,  // measure 29
2000
0100
0200
3300
,  // measure 30
0200
0010
0020
0330
,  // measure 31
0020
0001
1000
0031
,  // measure 32
1001
0000
1000
0000
0010
0000
0100
0001
,  // measure 33
0100
0001
0010
0001
,  // measure 34
1000
0000
0100
0000
0010
0000
0100
1000
,  // measure 35
0001
1000
0001
1001
,  // measure 36
1000
0000
0010
0000
0100
0000
0010
0100
,  // measure 37
0001
1000
0100
0010
,  // measure 38
0001
0000
1000
0000
0010
0000
1000
0010
,  // measure 39
1000
1100
0110
0022
,  // measure 40
0033
0000
0000
0000
,  // measure 41
1000
0001
1000
0001
,  // measure 42
1000
0010
0100
0001
,  // measure 43
1000
2002
3003
0110
,  // measure 44
1001
0000
1000
0000
0001
1000
0001
1000
,  // measure 45
0000
0000
1000
0100
0000
0010
0001
0000
,  // measure 46
0010
0000
0001
0000
1000
0000
0010
1000
,  // measure 47
0010
0100
0001
1000
,  // measure 48
0100
0000
0010
0000
0001
0010
0001
0010
,  // measure 49
0000
0000
1000
0100
0000
0100
1000
0000
,  // measure 50
0001
0000
0100
0000
0010
0000
0100
0010
,  // measure 51
0100
0010
1000
1010
,  // measure 52
1002
0010
0200
0303
,  // measure 53
0001
1000
0002
0000
2000
0000
3003
0000
,  // measure 54
1000
0100
0020
0000
0200
0000
0330
0000
,  // measure 55
0020
0001
0001
0031
,  // measure 56
2001
0010
0200
3300
,  // measure 57
1000
0100
2000
0000
0002
0000
3003
0000
,  // measure 58
0001
0100
0020
0000
0200
0000
0330
0000
,  // measure 59
0010
1010
0110
1001
;

//---------------dance-single - Oni-91----------------
#NOTES:
     dance-single:
     :
     Easy:
     2:
     0.176451,0.203588,0.068147,0.034073,0.000000,145.000000,137.000000,8.000000,4.000000,0.000000,0.000000,0.176451,0.203588,0.068147,0.034073,0.000000,145.000000,137.000000,8.000000,4.000000,0.000000,0.000000:
// measure 0
1000
0000
0001
1000
,  // measure 1
0001
0000
0000
0000
,  // measure 2
0100
0000
0010
0100
,  // measure 3
0010
0000
0100
0000
,  // measure 4
0001
0000
1000
0001
,  // measure 5
1000
0000
0000
0000
,  // measure 6
0100
0000
0010
0100
,  // measure 7
0010
0100
0010
0000
,  // measure 8
1001
0000
1000
0000
,  // measure 9
0001
1000
0001
0000
,  // measure 10
1000
0000
0010
0000
,  // measure 11
0100
0010
0100
0000
,  // measure 12
0001
0000
1000
0000
,  // measure 13
0100
0000
0010
0000
,  // measure 14
0100
0000
0010
0000
,  // measure 15
2002
0000
0000
3003
,  // measure 16
1001
0000
0001
0000
,  // measure 17
0100
0000
0001
0000
,  // measure 18
1000
0000
0100
0100
,  // measure 19
0100
0000
0010
0000
,  // measure 20
0100
0000
0010
0000
,  // measure 21
0001
0000
0100
0000
,  // measure 22
0010
0000
1000
1000
,  // measure 23
1000
0000
0001
0001
,  // measure 24
1000
0001
1000
0000
,  // measure 25
0001
1000
0001
0000
,  // measure 26
1000
0100
1000
0000
,  // measure 27
0001
0010
0001
0000
,  // measure 28
1000
0010
1000
0000
,  // measure 29
0001
0100
0001
0000
,  // measure 30
0100
0010
0100
0000
,  // measure 31
0110
0000
0000
0000
,  // measure 32
1001
0000
1000
0000
,  // measure 33
0100
0000
1000
0000
,  // measure 34
0001
0000
0100
0000
,  // measure 35
0001
0000
0010
0000
,  // measure 36
0100
0000
0010
0000
,  // measure 37
0100
0000
1000
0000
,  // measure 38
0001
0000
0100
0000
,  // measure 39
0010
0000
1000
2002
,  // measure 40
0000
0000
0000
0000
,  // measure 41
0000
0000
0000
0000
,  // measure 42
0000
0000
0000
0000
,  // measure 43
0000
0000
0000
3003
,  // measure 44
1001
0000
1000
0000
,  // measure 45
0001
0000
0100
0000
,  // measure 46
0010
0000
0100
0010
,  // measure 47
0100
0000
0010
0000
,  // measure 48
1000
0000
0001
0000
,  // measure 49
1000
0000
0100
0000
,  // measure 50
0010
0000
0100
0010
,  // measure 51
0100
0000
0010
0000
,  // measure 52
1001
1000
1000
0000
,  // measure 53
0001
0001
0001
0000
,  // measure 54
0100
0100
0100
0000
,  // measure 55
0010
0010
0010
0000
,  // measure 56
0100
0010
0100
0000
,  // measure 57
0010
1000
0010
0000
,  // measure 58
0100
0001
0100
0000
,  // measure 59
0001
1000
0001
1000
;

//---------------dance-single - Oni-91----------------
#NOTES:
     dance-single:
     :
     Beginner:
     1:
     0.125341,0.178139,0.059628,0.000000,0.000000,103.000000,96.000000,7.000000,0.000000,0.000000,0.000000,0.125341,0.178139,0.059628,0.000000,0.000000,103.000000,96.000000,7.000000,0.000000,0.000000,0.000000:
// measure 0
1000
0000
0000
0000
,  // measure 1
0001
0000
0000
0000
,  // measure 2
0100
0000
0000
0000
,  // measure 3
0010
0000
0100
0000
,  // measure 4
0010
0000
0000
0000
,  // measure 5
0100
0000
0000
0000
,  // measure 6
0001
0000
0000
0000
,  // measure 7
1000
0000
0000
0000
,  // measure 8
1001
0000
0000
0000
,  // measure 9
0001
0000
0100
0000
,  // measure 10
0001
0000
0000
0000
,  // measure 11
1000
0000
0010
0000
,  // measure 12
1000
0000
0000
0000
,  // measure 13
0010
0000
0100
0000
,  // measure 14
0010
0000
0000
0000
,  // measure 15
1001
0000
0000
0000
,  // measure 16
0110
0000
0010
0000
,  // measure 17
0100
0000
0010
0000
,  // measure 18
1000
0000
0001
0000
,  // measure 19
1000
0000
0000
0000
,  // measure 20
0001
0000
0010
0000
,  // measure 21
0001
0000
0010
0000
,  // measure 22
0100
0000
1000
0000
,  // measure 23
0100
0000
0000
0000
,  // measure 24
1000
0000
1000
0000
,  // measure 25
0001
0000
0001
0000
,  // measure 26
0100
0000
0100
0000
,  // measure 27
0010
0000
0010
0000
,  // measure 28
1000
0000
0010
0000
,  // measure 29
0100
0000
0001
0000
,  // measure 30
0010
0000
0001
0000
,  // measure 31
1000
0000
0000
0000
,  // measure 32
1001
0000
0000
0000
,  // measure 33
1000
0000
0010
0000
,  // measure 34
0100
0000
0010
0000
,  // measure 35
0100
0000
0000
0000
,  // measure 36
0010
0000
0000
0000
,  // measure 37
0100
0000
0001
0000
,  // measure 38
1000
0000
0001
0000
,  // measure 39
1000
0000
0001
1001
,  // measure 40
0000
0000
0000
0000
,  // measure 41
0000
0000
0000
0000
,  // measure 42
0000
0000
0000
0000
,  // measure 43
0000
0000
0000
1001
,  // measure 44
1001
0000
0001
0000
,  // measure 45
0100
0000
0001
0000
,  // measure 46
1000
0000
0100
0000
,  // measure 47
0010
0000
0000
0000
,  // measure 48
0100
0000
0010
0000
,  // measure 49
0001
0000
0010
0000
,  // measure 50
0100
0000
1000
0000
,  // measure 51
0001
0000
0000
0000
,  // measure 52
1000
0000
1000
0000
,  // measure 53
0001
0000
0001
0000
,  // measure 54
0100
0000
0010
0000
,  // measure 55
0100
0000
0010
0000
,  // measure 56
0100
0000
0100
0000
,  // measure 57
0010
0000
0010
0000
,  // measure 58
1000
0000
0001
0000
,  // measure 59
1000
1000
1000
1000
;
