#TITLE:Crisalide;
#SUBTITLE:;
#ARTIST:Valentina Monetta;
#TITLETRANSLIT:;
#SUBTITLETRANSLIT:;
#ARTISTTRANSLIT:;
#GENRE:;
#CREDIT:;
#BANNER:Crisalide.png;
#BACKGROUND:Crisalide-bg.png;
#LYRICSPATH:;
#CDTITLE:;
#MUSIC:Crisalide.mp3;
#OFFSET:-10.649999;
#SAMPLESTART:39.070000;
#SAMPLELENGTH:14.210000;
#SELECTABLE:YES;
#DISPLAYBPM:76.000000:130.000000;
#BPMS:0.000000=75.964996
,57.000000=117.889999
,64.000000=130.082001
;
#STOPS:
;
#BGCHANGES:;
#KEYSOUNDS:;
#ATTACKS:;

//---------------dance-single - Oni-91----------------
#NOTES:
     dance-single:
     :
     Challenge:
     8:
     0.454916,0.582671,0.256119,0.128060,0.247582,373.000000,343.000000,30.000000,15.000000,0.000000,0.000000,0.454916,0.582671,0.256119,0.128060,0.247582,373.000000,343.000000,30.000000,15.000000,0.000000,0.000000:
// measure 0
1000
0000
0001
0000
0100
0000
0010
0100
0010
0000
0000
0000
1000
0000
0001
0000
,  // measure 1
1000
0000
0100
0010
0100
0000
0000
0000
0010
0000
0000
0000
0001
0000
0100
0000
,  // measure 2
1000
0000
0100
0000
0001
0000
1000
0100
0010
0001
2000
0000
0000
0000
3000
0000
,  // measure 3
1001
0000
0001
0100
0010
0000
0100
0000
0001
0000
1000
0000
0100
0000
0010
0100
,  // measure 4
1000
0100
0010
0000
0100
0000
1000
0000
0001
0000
1000
0010
0001
0010
1000
0000
,  // measure 5
0001
0000
1000
0000
0001
0000
0000
0010
0001
0000
1000
0000
0100
0000
1000
0000
,  // measure 6
0001
0100
0010
0100
0001
1000
0200
0000
0000
0000
0310
0000
0001
0000
1000
0010
,  // measure 7
0100
1000
0100
0001
1000
0000
1000
0000
0100
0000
0010
0001
0100
0001
1000
0000
,  // measure 8
0001
0000
0100
0000
1001
0000
0000
1010
0000
1000
0100
0000
0010
0000
0100
0000
,  // measure 9
2001
0000
0000
0000
3100
0000
0110
0000
0000
0001
0000
1000
0010
0100
0001
1000
,  // measure 10
0100
0010
0001
0000
1000
0000
0100
0000
0210
0000
0000
0000
1300
0001
0020
0000
,  // measure 11
0000
0000
0031
1000
0100
0001
1000
0010
0001
0000
1000
0000
0001
0000
0100
0010
,  // measure 12
1000
0100
0010
0100
1000
0010
0100
0001
0010
0000
0001
0000
0100
0001
1000
0010
,  // measure 13
0100
0001
0010
0100
1000
0000
0001
0000
0101
0000
0100
0001
0100
0010
1010
0000
,  // measure 14
1000
0100
1000
0001
2002
0000
0000
0000
0000
0000
0000
0000
0000
0000
0000
0000
,  // measure 15
0000
0000
0000
0000
,  // measure 16
3003
0000
0001
0000
1000
0000
0010
0100
,  // measure 17
0110
0000
0001
0000
1000
0100
0010
1001
,  // measure 18
0000
0101
0000
0100
0010
1000
0001
1000
,  // measure 19
0200
0000
0001
0000
1300
0001
0100
0110
,  // measure 20
0000
1010
0000
0001
0100
0001
1000
0100
,  // measure 21
1100
0000
1000
0001
0100
0001
0010
0110
,  // measure 22
0000
0100
0010
0001
1000
0000
1001
0000
,  // measure 23
0001
0100
0001
0000
1000
0010
1000
0100
,  // measure 24
0000
0010
0001
1000
0010
0100
1001
0000
,  // measure 25
0010
0000
1001
0000
0100
0000
1001
0001
,  // measure 26
0010
0000
0100
1000
0000
0100
1000
0000
0001
0000
1000
0000
0001
0000
1000
0000
,  // measure 27
0200
0000
1000
0000
0310
0001
0100
0010
,  // measure 28
0100
0000
0001
1000
0000
0001
1000
0000
0001
0000
0000
0000
1000
0000
0100
0000
,  // measure 29
0010
0000
0100
0010
0000
0000
0001
0000
0001
1000
0000
0000
0001
0000
0100
0000
,  // measure 30
0001
0000
0000
0100
0001
0000
0001
1000
0000
1000
0010
0000
0010
0000
1000
0000
,  // measure 31
0100
0001
0101
0000
0100
1000
0001
0100
,  // measure 32
0020
0001
2000
3030
,  // measure 33
1010
0000
1001
0000
0001
0010
0100
0001
,  // measure 34
0100
1000
0010
0200
0000
1300
0100
0001
,  // measure 35
1000
0000
0001
0000
1001
0000
1000
0100
,  // measure 36
0010
0000
0001
0010
0000
0000
0001
1000
0000
0000
0001
0000
1000
0000
0100
0000
,  // measure 37
0010
0000
0100
0001
0000
0001
0200
0000
0000
0000
1300
0000
0001
0000
0100
0000
,  // measure 38
0010
0000
0000
1000
0100
0000
0010
0002
0000
0000
0013
0000
0001
0000
0100
0000
,  // measure 39
1000
0100
0002
0000
1003
0100
0110
0000
,  // measure 40
1001
0001
0100
0010
0001
0010
0100
0001
,  // measure 41
0011
0010
0001
1000
0100
0001
0100
1000
,  // measure 42
1100
0100
1000
0010
0100
0001
1000
0100
,  // measure 43
0110
0000
0010
0000
0001
0000
0010
0000
0001
0000
0000
1000
0000
0000
0001
0000
,  // measure 44
1000
0010
1000
0010
0100
0001
0100
0001
,  // measure 45
1000
0100
0010
0100
1001
0000
0000
0000
;

//---------------dance-single - Oni-91----------------
#NOTES:
     dance-single:
     :
     Hard:
     6:
     0.353688,0.369025,0.162209,0.102448,0.051224,290.000000,271.000000,19.000000,12.000000,0.000000,0.000000,0.353688,0.369025,0.162209,0.102448,0.051224,290.000000,271.000000,19.000000,12.000000,0.000000,0.000000:
// measure 0
0001
1000
0001
0100
0020
0000
0130
0001
,  // measure 1
1000
0100
0010
0001
2000
0000
3001
0100
,  // measure 2
0010
0000
0100
0000
0001
0000
1000
0001
1000
0001
1000
0000
0000
0000
0000
0000
,  // measure 3
1001
0000
0001
0000
0100
0000
0010
1000
0010
0000
0000
0000
1000
0000
0100
0000
,  // measure 4
0010
0000
0001
0100
0001
0000
0000
0000
1000
0000
0010
0000
0001
0000
0010
0000
,  // measure 5
0100
0000
0001
2000
0000
0000
0000
0010
0000
0000
3010
0000
1000
0000
0001
0000
,  // measure 6
0010
0100
0010
0001
0000
1000
0001
0100
,  // measure 7
1000
0000
0100
0000
0010
0000
1000
0000
1001
0000
0000
0000
0001
1000
0001
0000
,  // measure 8
1000
0000
0100
0000
1000
0000
0000
0001
0000
0001
0100
0000
0010
0000
1000
0000
,  // measure 9
1002
0000
0000
0000
0103
0000
0001
0000
1000
0000
0100
0000
0010
0000
0100
1000
,  // measure 10
0001
0000
1000
0000
0001
0000
0100
0000
1010
0000
0000
0000
0001
1000
0001
0000
,  // measure 11
1000
0100
0010
0001
1000
0001
1000
0010
,  // measure 12
0110
0000
0100
0001
1000
0100
0010
0000
,  // measure 13
0100
1000
0001
0100
0010
0100
0001
1000
,  // measure 14
0001
0010
2200
0000
0000
0000
0000
0000
,  // measure 15
0000
0000
0000
0000
,  // measure 16
3300
1000
0001
0100
,  // measure 17
0010
0100
0010
0000
0100
0000
0001
2000
,  // measure 18
0000
0010
0000
0001
3001
0000
1001
0000
,  // measure 19
1000
0000
0100
0000
0010
0100
0010
0002
,  // measure 20
0000
0010
0000
1000
1003
0000
0110
0000
,  // measure 21
1010
0000
1000
0100
0000
0010
0001
0200
,  // measure 22
0000
1000
0000
0001
0301
0000
1001
0000
,  // measure 23
0001
0010
0100
0000
1000
0010
0100
0002
,  // measure 24
0000
0010
0000
1000
1003
0001
1001
0000
,  // measure 25
0110
0000
1010
0000
1000
0100
0010
0000
,  // measure 26
0100
0010
0100
1000
0001
0000
1000
0001
,  // measure 27
0100
0000
0010
0000
0100
0001
0010
0000
,  // measure 28
0001
0010
0100
1000
0100
0000
0010
0001
,  // measure 29
0100
0000
1001
0000
1000
0001
0100
0000
,  // measure 30
0001
0010
0100
0000
0010
0001
1000
0000
,  // measure 31
0001
0100
0001
0000
0010
0000
0100
0010
,  // measure 32
0002
0010
2000
3003
,  // measure 33
0001
0101
1000
1100
,  // measure 34
1000
0001
1000
0010
0000
0100
0001
0100
,  // measure 35
0001
0011
1000
1010
,  // measure 36
1000
0100
0010
0001
0100
0000
0010
0000
,  // measure 37
1000
0001
1000
0000
0001
0000
0010
0000
,  // measure 38
0100
0010
0001
0000
0100
0000
0010
0000
,  // measure 39
1000
0010
0100
0000
0001
1000
0001
1000
,  // measure 40
0010
0100
0010
0000
1000
0010
1000
0000
,  // measure 41
0001
0010
0100
0000
0010
0001
1000
0000
,  // measure 42
0001
0100
1000
0000
0001
0010
1000
0000
,  // measure 43
0001
0000
1000
0000
0001
0000
0000
0000
1000
0000
0000
0100
0000
0000
0010
0000
,  // measure 44
0001
0010
0100
0000
1000
0010
0100
0000
,  // measure 45
0001
1000
0001
1000
1001
0000
0000
0000
;

//---------------dance-single - Oni-91----------------
#NOTES:
     dance-single:
     :
     Medium:
     4:
     0.282951,0.310758,0.085373,0.076836,0.000000,232.000000,222.000000,10.000000,9.000000,0.000000,0.000000,0.282951,0.310758,0.085373,0.076836,0.000000,232.000000,222.000000,10.000000,9.000000,0.000000,0.000000:
// measure 0
1000
0001
0100
0002
0000
0000
0013
0001
,  // measure 1
1000
0020
0000
0000
1030
0000
1000
0001
,  // measure 2
0000
0001
0020
0000
0000
0030
0000
0000
,  // measure 3
1001
0000
0000
0001
0000
0001
1000
0000
,  // measure 4
0000
0100
0000
0100
2000
0000
0000
3001
,  // measure 5
0010
0100
2000
0000
0000
3010
0000
0000
,  // measure 6
1001
0000
0100
0001
0000
0001
1000
0000
,  // measure 7
0100
1000
0001
1000
0001
0000
0000
0010
,  // measure 8
0001
0100
0220
0000
0000
0330
0010
1000
,  // measure 9
1001
0000
0001
0010
0000
0010
0100
1000
,  // measure 10
0001
0000
0000
1000
0001
0000
0001
0100
,  // measure 11
0000
0100
0010
1000
0001
1000
0000
0001
,  // measure 12
0011
0000
0010
0001
0100
1000
0100
0000
,  // measure 13
1000
0100
0001
1000
0100
0000
0010
0001
,  // measure 14
1000
0010
2002
0000
0000
0000
0000
0000
,  // measure 15
0000
0000
0000
0000
,  // measure 16
3003
1000
0001
1000
,  // measure 17
0001
0000
0010
0000
0001
0000
1000
0100
,  // measure 18
0000
1000
0000
0100
1000
0000
0001
0000
,  // measure 19
0100
0000
0010
0000
0100
0000
0001
1000
,  // measure 20
0000
0001
0000
1000
0001
0000
1000
0000
,  // measure 21
0001
0000
0010
0001
0000
1000
0000
0100
,  // measure 22
0000
0010
0000
0001
1000
0000
0001
0100
,  // measure 23
0001
0000
1000
0010
0000
0100
0000
0001
,  // measure 24
0000
0100
0000
0010
0100
0000
1001
0000
,  // measure 25
1100
0000
0010
0000
0001
1000
0001
0000
,  // measure 26
1000
0000
0001
0100
0001
0000
1000
0000
,  // measure 27
0010
0000
0100
0000
0001
1000
0100
0000
,  // measure 28
0010
0000
0100
0010
0001
0000
1000
0000
,  // measure 29
0001
0000
1000
0000
0010
0100
0001
0000
,  // measure 30
1000
0000
0100
0000
0010
0100
1000
0000
,  // measure 31
0001
0000
0010
0000
0001
0000
1000
0100
,  // measure 32
0010
0100
1000
1001
,  // measure 33
0110
0000
0010
0000
1000
0000
0001
0010
,  // measure 34
0100
0000
0010
0001
1000
0000
0001
0000
,  // measure 35
0100
0000
0010
0000
1000
0000
0001
0100
,  // measure 36
0010
0000
1000
0001
0100
0000
0001
0000
,  // measure 37
1000
0100
0010
0000
0100
1000
0001
0000
,  // measure 38
1000
0010
0100
0000
0001
0100
0010
0000
,  // measure 39
1000
0001
1000
0000
0001
0000
0010
0001
,  // measure 40
0100
0000
0010
0000
0100
0100
0100
0000
,  // measure 41
0001
0000
1000
0000
0100
0100
0100
0000
,  // measure 42
0010
0000
0001
0000
1000
0001
1000
0000
,  // measure 43
0001
0100
0001
0000
1000
0000
0010
0000
,  // measure 44
0100
0010
0100
0000
0001
1000
0001
0000
,  // measure 45
0010
0100
0010
0100
0010
0000
0000
0000
;

//---------------dance-single - Oni-91----------------
#NOTES:
     dance-single:
     :
     Easy:
     3:
     0.191480,0.233068,0.076836,0.068298,0.000000,157.000000,148.000000,9.000000,8.000000,0.000000,0.000000,0.191480,0.233068,0.076836,0.068298,0.000000,157.000000,148.000000,9.000000,8.000000,0.000000,0.000000:
// measure 0
1000
0000
0000
0100
0000
0000
1000
0000
,  // measure 1
0000
0001
0000
0000
0100
0000
0000
0001
,  // measure 2
0100
0001
0100
0000
0000
0000
0000
0000
,  // measure 3
2001
0000
0000
0100
0000
0000
3002
0000
,  // measure 4
0000
0100
0000
0000
1003
0000
0000
0100
,  // measure 5
0000
1000
0100
0000
0000
0010
0000
0000
,  // measure 6
0120
0000
0000
0031
0000
0000
0002
0000
,  // measure 7
0000
1003
0000
0000
0001
0000
0000
1000
,  // measure 8
0000
0100
1000
0000
0000
0001
1000
0001
,  // measure 9
1000
0000
1000
0100
0000
0000
0010
0000
,  // measure 10
0000
0001
0000
0001
0100
0000
0010
1000
,  // measure 11
0000
1000
0100
0000
0000
0010
0001
1000
,  // measure 12
0001
0000
0000
0101
0000
0000
0100
0000
,  // measure 13
0000
0110
0000
0000
0010
0000
0000
1000
,  // measure 14
0001
2000
0002
0000
0000
0000
0000
0000
,  // measure 15
0000
0000
0000
0000
,  // measure 16
3003
1000
0001
0100
,  // measure 17
0010
0000
0100
0010
,  // measure 18
1000
0001
1000
0000
,  // measure 19
0001
0000
0010
0001
,  // measure 20
0100
0010
1000
0000
,  // measure 21
0001
0100
0001
1000
,  // measure 22
0100
1000
0001
0000
,  // measure 23
1000
0100
0010
0001
,  // measure 24
0200
0000
0020
0330
,  // measure 25
1001
0000
0001
0100
,  // measure 26
0001
1000
0100
0000
,  // measure 27
1000
0000
0001
1000
,  // measure 28
0100
0010
0001
0000
,  // measure 29
1000
0010
1000
0000
,  // measure 30
0001
0100
0001
0000
,  // measure 31
1000
0100
0010
0100
,  // measure 32
1000
0000
0001
0000
,  // measure 33
1001
0000
0001
0100
,  // measure 34
0001
1000
0001
0000
,  // measure 35
1000
0001
1000
0100
,  // measure 36
1000
0010
0100
0000
,  // measure 37
0010
0100
0001
0000
,  // measure 38
0010
0100
1000
0000
,  // measure 39
1001
0000
0001
0100
,  // measure 40
0110
0000
0010
1000
,  // measure 41
0100
0010
0001
1000
,  // measure 42
0100
1000
0100
0010
,  // measure 43
0001
0100
0010
1000
,  // measure 44
0010
0100
0001
1000
,  // measure 45
0100
0010
1001
0000
;

//---------------dance-single - Oni-91----------------
#NOTES:
     dance-single:
     :
     Beginner:
     1:
     0.101228,0.135957,0.042687,0.000000,0.000000,83.000000,78.000000,5.000000,0.000000,0.000000,0.000000,0.101228,0.135957,0.042687,0.000000,0.000000,83.000000,78.000000,5.000000,0.000000,0.000000,0.000000:
// measure 0
1000
0000
0000
0001
,  // measure 1
0000
0000
0000
0000
0100
0000
0000
0010
,  // measure 2
0000
0100
0000
0000
,  // measure 3
1001
0000
0000
1000
,  // measure 4
0000
0000
0000
0000
0001
0000
0000
1000
,  // measure 5
0000
0001
0000
0000
,  // measure 6
1000
0000
0000
0001
,  // measure 7
0000
0000
0000
0000
0100
0000
0000
0010
,  // measure 8
0000
0000
0100
0000
0000
0010
0000
0000
,  // measure 9
0110
0000
0000
0100
,  // measure 10
0000
0000
0000
0000
0001
0000
0000
1000
,  // measure 11
0000
0001
0000
0000
,  // measure 12
1000
0000
0000
0100
0000
0000
1000
0000
,  // measure 13
0000
0100
0000
0000
0010
0000
0000
0001
,  // measure 14
0000
1001
0000
0000
,  // measure 15
0000
0000
0000
0000
,  // measure 16
0000
0000
0000
0000
,  // measure 17
0001
0000
0000
0000
,  // measure 18
1000
0000
0001
0000
,  // measure 19
0100
0000
0000
0000
,  // measure 20
0010
0000
0100
0000
,  // measure 21
0001
0000
0000
0000
,  // measure 22
1000
0000
0100
0000
,  // measure 23
1000
0000
0001
0000
,  // measure 24
1000
0000
0000
0000
,  // measure 25
0110
0000
0000
0000
,  // measure 26
0100
0000
0001
0000
,  // measure 27
1000
0000
0000
0000
,  // measure 28
0001
0000
1000
0000
,  // measure 29
0100
0000
0100
0000
,  // measure 30
0010
0000
0010
0000
,  // measure 31
0100
0000
1000
0000
,  // measure 32
0001
0000
0000
0000
,  // measure 33
1000
0000
0100
0000
,  // measure 34
0010
0000
0001
0000
,  // measure 35
1000
0000
0010
0000
,  // measure 36
0100
0000
0001
0000
,  // measure 37
1000
0000
0001
0000
,  // measure 38
1000
0000
0001
0000
,  // measure 39
0100
0000
0010
0000
,  // measure 40
0100
0000
0000
0000
,  // measure 41
0001
0001
0000
0000
,  // measure 42
1000
1000
0000
0000
,  // measure 43
0100
0100
0000
0000
,  // measure 44
0010
0000
0100
0000
,  // measure 45
0010
0000
1001
0000
;
