#TITLE:Alcohol Is Free;
#SUBTITLE:;
#ARTIST:Koza Mostra feat. Agathonas Iakovidis;
#TITLETRANSLIT:;
#SUBTITLETRANSLIT:;
#ARTISTTRANSLIT:;
#GENRE:;
#CREDIT:;
#BANNER:Alcohol Is Free.png;
#BACKGROUND:Alcohol Is Free-bg.png;
#LYRICSPATH:;
#CDTITLE:;
#MUSIC:Alcohol Is Free.mp3;
#OFFSET:-5.590000;
#SAMPLESTART:33.459999;
#SAMPLELENGTH:11.160000;
#SELECTABLE:YES;
#BPMS:0.000000=172.000000
;
#STOPS:
;
#BGCHANGES:;
#KEYSOUNDS:;
#ATTACKS:;

//---------------dance-single - Oni-91----------------
#NOTES:
     dance-single:
     :
     Hard:
     8:
     0.580079,0.605076,0.418522,0.276046,0.013357,456.000000,409.000000,47.000000,31.000000,0.000000,0.000000,0.580079,0.605076,0.418522,0.276046,0.013357,456.000000,409.000000,47.000000,31.000000,0.000000,0.000000:
1000
0001
0100
0010
0000
0100
0010
0100
,
0000
0001
1000
0001
1000
0100
0010
0000
,
1000
0100
0010
0001
0000
0010
0001
0100
,
0101
0000
0000
0000
1001
0000
0000
0000
1000
0001
1000
0001
1000
0000
0000
0000
,
0001
0100
0010
1000
0020
0000
0001
0000
,
1000
0000
0100
0000
1030
0010
1000
0000
,
1001
0011
1100
2002
,
3003
0101
0000
0001
0100
0010
0110
0000
,
1000
0001
0010
0100
1000
0000
0001
0000
,
1000
0000
0010
0000
0100
0001
0010
0100
,
0020
0100
0000
1000
0000
0100
0000
0031
,
0200
1000
0000
0010
0000
0001
0000
0310
,
1000
0100
0010
0100
0002
0000
0010
0000
,
1000
0000
0103
0000
0001
1000
0001
0000
,
0100
0010
0100
0010
0000
0110
0000
0010
,
1010
0000
1100
0000
0010
0001
0100
0000
,
0010
1000
0100
0010
0100
0000
0010
0000
,
0001
0000
1000
0000
0001
0100
0000
0010
,
2000
0000
0010
0000
0001
0000
3010
1000
,
0100
0000
0110
0000
0011
0000
1001
0001
,
0100
0001
0100
0001
1000
0010
0000
1000
,
0100
0010
0001
0010
0100
1000
0000
0001
,
0100
1000
0100
0001
0010
0100
0010
0001
,
1000
0000
0001
0000
0100
0001
0101
0000
,
0100
0010
1000
0100
0010
0000
0100
1000
,
0001
0100
1000
0100
0010
1000
0000
0001
,
0010
0001
0010
0100
1000
0100
1000
0001
,
1000
0000
0000
0000
0010
0000
0000
0000
1001
0000
0000
1000
0100
0000
0010
0000
,
0001
0010
0100
0010
0001
1000
0000
0001
,
0010
0001
0100
0010
1000
0100
0000
1000
,
0100
0001
0100
1000
0010
0100
0001
0010
,
0100
0000
0010
0000
0001
1000
0001
1000
,
0010
0100
0001
0100
0010
0000
1000
0100
,
0001
0100
1000
0001
0010
0001
0000
1000
,
0010
1000
0010
1000
0001
0100
0001
0100
,
0101
1010
2002
3003
,
0220
0000
0000
0330
,
2002
0000
0000
3003
,
0022
0000
0000
0033
,
2200
3300
2002
3003
,
0202
0000
0000
0303
,
0220
0000
0000
0330
,
2020
3030
2002
3003
,
0110
1001
0110
0000
,
0001
1000
0001
1000
0001
0000
1000
0000
,
0001
0010
0000
0010
,
0001
0100
0010
1000
,
0000
0010
1000
0010
0100
0000
0001
0000
,
1000
0100
0010
0001
0010
0000
0001
0000
,
1000
0001
0100
0001
,
2000
0001
0000
0001
,
3020
0100
0100
0130
,
1001
0001
0010
0100
,
0010
0001
0100
0010
,
1000
0100
0010
0001
0000
0011
0000
1000
,
0100
1000
0001
0100
,
0010
0100
0001
1000
0100
0000
0010
0000
,
0100
1000
0000
1001
0000
0011
0000
2001
,
0000
0010
0001
3010
,
0110
0000
0000
0000
,
0010
1000
0100
1000
0001
0010
0100
0010
,
0001
1000
0010
0100
0001
0000
1001
0000
,
1000
0100
0010
0100
0010
0001
1000
0010
,
0100
0010
0100
0001
1000
0001
1000
0000
,
1000
0010
0100
0001
1000
0100
0010
0001
,
1000
0100
0001
0100
1000
0000
1001
0000
,
0001
0010
0100
0010
0001
0000
1001
0000
,
1000
0010
0100
0010
1000
0000
1001
0000
,
0010
0001
0100
0010
1000
0001
0001
1000
,
0100
0010
0100
1000
0010
0010
0110
0000
,
1000
0010
0100
0001
1000
0001
0001
1000
,
0100
0010
0001
0010
0100
0100
0100
0000
,
1001
0001
0100
0001
1000
0010
0100
0001
,
0001
0010
0100
0010
0100
1000
1100
0000
,
0001
0010
1000
0010
0002
0000
0103
0000
,
1001
0110
1001
0000
;

//---------------dance-single - Oni-91----------------
#NOTES:
     dance-single:
     :
     Beginner:
     2:
     0.174278,0.336153,0.169190,0.000000,0.000000,137.000000,118.000000,19.000000,0.000000,0.000000,0.000000,0.174278,0.336153,0.169190,0.000000,0.000000,137.000000,118.000000,19.000000,0.000000,0.000000,0.000000:
// measure 0
1000
0000
0000
0000
,  // measure 1
0001
0000
0000
0000
,  // measure 2
1000
0000
0001
0000
,  // measure 3
0100
0000
0010
0000
,  // measure 4
0110
0000
0000
0000
,  // measure 5
1000
0000
0000
0000
,  // measure 6
0001
0001
0001
0000
,  // measure 7
0000
0000
1000
0000
,  // measure 8
1000
0000
0000
0000
,  // measure 9
0001
0000
0000
0000
,  // measure 10
1000
0000
0100
0000
,  // measure 11
0010
0000
0001
0000
,  // measure 12
0100
0000
0000
0000
,  // measure 13
0010
0000
0000
0000
,  // measure 14
0100
0000
0000
0000
,  // measure 15
0010
0010
0010
0000
,  // measure 16
1001
0000
0000
0000
,  // measure 17
1000
0000
0000
0000
,  // measure 18
0100
0000
1000
0000
,  // measure 19
0001
0001
0001
0001
,  // measure 20
0001
0000
0000
0000
,  // measure 21
1000
0000
0000
0000
,  // measure 22
0001
0000
0100
0000
,  // measure 23
0010
0000
1000
0000
,  // measure 24
0100
0000
0000
0000
,  // measure 25
0010
0000
0000
0000
,  // measure 26
0100
0000
1000
0000
,  // measure 27
0001
0001
0001
0000
,  // measure 28
1000
0000
0000
0000
,  // measure 29
0001
0000
0000
0000
,  // measure 30
0100
0000
0010
0000
,  // measure 31
1000
0000
0100
0000
,  // measure 32
1000
0000
0000
0000
,  // measure 33
0001
0000
0000
0000
,  // measure 34
1000
0000
0100
0000
,  // measure 35
1000
1000
1000
0000
,  // measure 36
1001
0000
0000
0000
,  // measure 37
1001
0000
0000
0000
,  // measure 38
0110
0000
0000
0000
,  // measure 39
0110
0000
0110
0000
,  // measure 40
1001
0000
0000
0000
,  // measure 41
1001
0000
0000
0000
,  // measure 42
0110
0000
0000
0000
,  // measure 43
1001
1001
1001
0000
,  // measure 44
0110
0000
0000
0000
,  // measure 45
0000
0000
0000
0000
,  // measure 46
0000
0000
0000
0000
,  // measure 47
0000
0000
0000
0000
,  // measure 48
0000
0000
0000
0000
,  // measure 49
0000
0000
0000
0000
,  // measure 50
0000
0000
0000
0000
,  // measure 51
0000
0000
0000
0000
,  // measure 52
1001
0000
0000
0000
,  // measure 53
1000
0000
0000
0000
,  // measure 54
0100
0000
0000
0000
,  // measure 55
1000
0000
0000
0000
,  // measure 56
0001
0000
0000
0000
,  // measure 57
0100
0000
0001
0000
,  // measure 58
0100
0000
0000
0000
,  // measure 59
1001
0000
0000
0000
,  // measure 60
1000
0000
0100
0000
,  // measure 61
1000
0000
0001
0000
,  // measure 62
0100
0000
0001
0000
,  // measure 63
0100
0000
0010
0000
,  // measure 64
0100
0000
0001
0000
,  // measure 65
1000
0000
0100
0000
,  // measure 66
0010
0010
0010
0000
,  // measure 67
0100
0100
0100
0000
,  // measure 68
0010
0000
0001
0000
,  // measure 69
1000
1000
1000
0000
,  // measure 70
0001
0000
0100
0000
,  // measure 71
0010
0010
0010
0000
,  // measure 72
0100
0000
0010
0000
,  // measure 73
1000
1000
1000
0000
,  // measure 74
0001
0001
0001
0000
,  // measure 75
1001
1001
1001
0000
;

//---------------dance-single - Oni-91----------------
#NOTES:
     dance-single:
     :
     Easy:
     4:
     0.310393,0.403384,0.204809,0.097952,0.000000,244.000000,221.000000,23.000000,11.000000,0.000000,0.000000,0.310393,0.403384,0.204809,0.097952,0.000000,244.000000,221.000000,23.000000,11.000000,0.000000,0.000000:
// measure 0
1000
0000
0100
0000
,  // measure 1
1000
0001
1000
0001
,  // measure 2
0100
0000
0001
0000
,  // measure 3
0100
0010
0220
0330
,  // measure 4
0010
1000
0001
1000
,  // measure 5
0100
0000
0010
0000
,  // measure 6
0100
0100
0010
0020
,  // measure 7
0000
0000
0100
0130
,  // measure 8
0010
0001
1000
0001
,  // measure 9
0100
0000
0010
0100
,  // measure 10
0002
0000
0013
0001
,  // measure 11
2000
0000
3010
1000
,  // measure 12
0100
0010
0100
1000
,  // measure 13
0001
1000
0010
0000
,  // measure 14
0100
0010
2000
0000
,  // measure 15
0001
0001
0002
3003
,  // measure 16
0001
0010
0100
0010
,  // measure 17
0001
0000
1000
0010
,  // measure 18
0200
0000
0000
0000
,  // measure 19
0302
1000
1000
1003
,  // measure 20
0001
1000
0100
0000
,  // measure 21
0010
0001
1000
0000
,  // measure 22
0010
0100
0001
0010
,  // measure 23
0100
0010
0001
0000
,  // measure 24
1000
0010
1000
0000
,  // measure 25
0001
0100
0001
0000
,  // measure 26
1000
0100
0010
0001
,  // measure 27
0100
0100
0100
0000
,  // measure 28
0010
0100
0001
0000
,  // measure 29
0010
0100
1000
0000
,  // measure 30
0001
1000
0001
1000
,  // measure 31
0010
0100
0010
0000
,  // measure 32
0100
0001
1000
0000
,  // measure 33
0001
1000
0100
0000
,  // measure 34
1000
0001
0010
0100
,  // measure 35
0110
0110
0110
0000
,  // measure 36
1001
0000
0000
0000
,  // measure 37
0110
0000
0000
0000
,  // measure 38
1001
0000
0000
0000
,  // measure 39
0110
0000
0110
0000
,  // measure 40
1001
0000
0000
0000
,  // measure 41
0110
0000
0000
0000
,  // measure 42
1001
0000
0110
0000
,  // measure 43
1001
1001
1001
0000
,  // measure 44
0002
1000
0000
1000
,  // measure 45
0000
0100
0000
0100
,  // measure 46
0000
0010
0000
0010
,  // measure 47
0000
1000
0000
1003
,  // measure 48
0020
0100
0000
0100
,  // measure 49
0000
0001
0000
0001
,  // measure 50
0000
0100
0000
0100
,  // measure 51
0000
1000
1000
1030
,  // measure 52
1000
0001
1000
0001
,  // measure 53
1000
0000
0001
0000
,  // measure 54
1000
0100
0010
0001
,  // measure 55
0100
0000
0001
0000
,  // measure 56
0100
0001
0100
0001
,  // measure 57
1000
0010
1000
0010
,  // measure 58
0100
0000
0010
0000
,  // measure 59
1001
0000
0000
0000
,  // measure 60
1000
0100
0010
0001
,  // measure 61
0100
0010
0100
0000
,  // measure 62
0001
0100
0010
1000
,  // measure 63
0010
0100
0010
0000
,  // measure 64
1000
0100
1000
0001
,  // measure 65
0010
0001
1000
0000
,  // measure 66
0001
0100
0001
0000
,  // measure 67
1000
0010
1000
0000
,  // measure 68
1001
0010
0100
0010
,  // measure 69
0001
1000
0010
0000
,  // measure 70
0110
0100
0001
1000
,  // measure 71
0100
0010
0100
0000
,  // measure 72
1001
1000
0100
0010
,  // measure 73
0001
0100
0010
0000
,  // measure 74
1001
0010
0100
0000
,  // measure 75
1001
0100
1001
0000
;

//---------------dance-single - Oni-91----------------
#NOTES:
     dance-single:
     :
     Medium:
     6:
     0.417250,0.470614,0.249332,0.329475,0.000000,328.000000,300.000000,28.000000,37.000000,0.000000,0.000000,0.417250,0.470614,0.249332,0.329475,0.000000,328.000000,300.000000,28.000000,37.000000,0.000000,0.000000:
1000
0001
0100
0010
,
0100
0000
0001
0000
1000
0100
1000
0000
,
0001
0010
0100
1000
,
0001
0000
1000
0000
0001
0001
0001
0000
,
1001
1000
0010
0100
,
0020
0000
0000
0200
0000
0000
0330
0000
,
1010
1010
0101
0101
,
0000
0001
0000
1000
0001
0000
1001
0000
,
1000
0100
0001
0100
,
0010
0001
0100
0010
,
2000
0010
0000
0010
0000
0010
3000
0010
,
0200
0001
0000
0001
0000
0001
0300
0001
,
1000
0000
0001
0100
0001
0000
1000
0000
,
0100
0010
0100
1000
,
0001
0100
0001
0100
0000
0010
0000
0100
,
0001
1000
0100
0010
,
1001
1000
0100
0010
,
0100
1000
0001
0100
,
0020
1000
0100
1000
,
0230
0010
0010
0310
,
1001
0000
1000
0000
0001
0010
0000
0100
,
1000
0000
0100
0000
0010
0001
0000
1000
,
0001
0000
1000
0000
0010
0100
0010
0100
,
0010
1000
0100
0010
,
0100
0000
1000
0000
0001
0000
0010
0001
,
0100
0010
1000
0001
,
1000
0010
0100
0000
0001
0100
0010
0000
,
1000
0001
1000
0010
,
0110
0000
0100
0000
0001
1000
0000
0001
,
1000
0000
0100
0000
0010
0100
0000
0010
,
0100
0000
0010
0000
0001
1000
0001
1000
,
0001
1000
0010
0100
,
0001
0000
1000
0000
0010
0000
1000
0100
,
0010
0000
0100
0000
1000
0001
0000
1000
,
0010
0000
0100
0001
0100
0000
0010
1000
,
0100
0010
0220
0330
,
2002
0000
0000
3003
,
2020
0000
0000
3030
,
0202
0000
0000
0303
,
0022
0033
2200
3300
,
2002
0000
0000
3003
,
0220
0000
0000
0330
,
2020
3030
0202
0303
,
1001
0110
1001
0000
,
2001
0001
0000
0001
,
0000
0001
0000
3001
,
1000
0100
0010
0002
,
0000
1000
0000
1003
,
0200
0010
0000
0010
,
0000
0010
0000
0310
,
0020
0100
0000
0130
,
2000
0001
0001
3001
,
1001
1000
0001
1000
,
0001
0100
0001
0100
,
0010
0100
0010
0100
,
0010
1000
0010
1000
,
0001
0010
0100
1000
,
0001
1000
0000
0001
0000
1000
0000
2002
,
0000
0000
0000
3003
,
0110
0000
0000
0000
,
0001
0100
0010
1000
,
0001
1000
0001
1000
0001
0000
0000
0000
,
1000
0010
0100
0001
,
1000
0001
1000
0001
1000
0000
0000
0000
,
0001
0010
0100
0010
,
0001
0010
0001
0010
0001
0000
0000
0000
,
1000
0100
1000
0100
1000
0000
0000
0000
,
0001
0100
0001
0100
0001
0000
0000
0000
,
1000
0010
1000
0000
0001
0100
0001
0000
,
1000
0100
0010
0001
,
1000
0100
0001
0000
1000
0010
0001
0000
,
1000
0001
0100
0010
,
0100
0001
0010
0000
0100
1000
0010
0000
,
1000
0001
0010
0000
2200
0000
3300
0000
,
0010
0001
0100
0000
2020
0000
3030
0000
,
0010
1000
0001
1000
0001
0000
0000
0000
;
