#TITLE:A-Ba-Ni-Bi;
#SUBTITLE:;
#ARTIST:Izhar Cohen & The Alphabeta;
#TITLETRANSLIT:;
#SUBTITLETRANSLIT:;
#ARTISTTRANSLIT:;
#GENRE:;
#CREDIT:;
#BANNER:A-Ba-Ni-Bi.png;
#BACKGROUND:A-Ba-Ni-Bi-bg.png;
#LYRICSPATH:;
#CDTITLE:;
#MUSIC:A-Ba-Ni-Bi.mp3;
#OFFSET:-1.040000;
#SAMPLESTART:13.179999;
#SAMPLELENGTH:13.310000;
#SELECTABLE:YES;
#DISPLAYBPM:144.000000;
#BPMS:0.000000=139.000000
,8.000000=137.000000
,16.000000=145.000000
,20.000000=143.000000
,32.000000=145.000000
,40.000000=143.000000
,44.000000=144.000000
,60.000000=149.000000
,64.000000=141.000000
,68.000000=144.000000
,76.000000=149.000000
,80.000000=135.000000
,81.000000=144.000000
,84.000000=140.000000
,87.000000=146.000000
,88.000000=142.000000
,92.000000=146.000000
,96.000000=143.000000
,100.000000=145.000000
,108.000000=146.000000
,112.000000=144.000000
,116.000000=148.000000
,120.000000=142.000000
,124.000000=144.000000
,136.000000=145.000000
,140.000000=146.000000
,144.000000=143.000000
,146.000000=151.000000
,147.000000=140.000000
,148.000000=142.000000
,152.000000=143.000000
,160.000000=142.000000
,171.000000=136.000000
,172.000000=146.000000
,176.000000=143.000000
,180.000000=139.000000
,184.000000=145.000000
,188.000000=139.000000
,192.000000=143.000000
,204.000000=142.240005
,208.000000=147.000000
,212.000000=137.000000
,214.000000=144.000000
,216.000000=146.000000
,220.000000=143.000000
;
#STOPS:
;
#BGCHANGES:;
#KEYSOUNDS:;
#ATTACKS:;

//---------------dance-single - Oni-91----------------
#NOTES:
     dance-single:
     :
     Hard:
     7:
     0.507275,0.518622,0.134977,0.000000,0.067488,342.000000,329.000000,13.000000,0.000000,0.000000,0.000000,0.507275,0.518622,0.134977,0.000000,0.067488,342.000000,329.000000,13.000000,0.000000,0.000000,0.000000:
// measure 0
0000
0000
0000
0000
,  // measure 1
0000
0000
0000
0000
,  // measure 2
0000
0000
0000
0000
,  // measure 3
0000
0000
0001
1000
,  // measure 4
0001
0100
0010
1000
0000
1000
0001
0010
,  // measure 5
0100
0010
0001
1000
0000
0001
0100
0010
,  // measure 6
1000
1000
0001
0001
1000
0100
0010
0001
,  // measure 7
1001
0000
0000
0110
,  // measure 8
1001
0000
0001
0000
0100
0010
1000
0000
,  // measure 9
0001
0000
0010
0001
0100
0010
1000
0010
,  // measure 10
0100
0001
1000
0100
1000
0000
0001
0000
,  // measure 11
1000
0000
0100
0000
0010
0100
0010
0001
,  // measure 12
1000
0000
0001
0000
0100
0010
1000
0000
,  // measure 13
0001
0000
0100
0010
1000
0100
0010
0001
,  // measure 14
0100
0010
0100
0001
1000
0000
0001
0000
,  // measure 15
1000
0100
1000
0001
0100
0001
1000
0100
,  // measure 16
0010
0000
0100
0000
0010
0001
0100
0010
,  // measure 17
1000
0000
0010
0100
0001
1000
0001
0100
,  // measure 18
0010
0000
1000
1000
0000
0001
0010
0100
,  // measure 19
0010
0000
0001
0001
0000
1000
0001
0100
,  // measure 20
0010
0010
0010
0010
,  // measure 21
1001
0000
0000
0110
,  // measure 22
1010
0000
1001
0000
0001
0010
0100
0010
,  // measure 23
0000
0001
1000
0001
0100
0010
1000
0100
,  // measure 24
0010
0100
0100
0000
0100
0010
0010
0001
,  // measure 25
1000
0001
1000
0010
0100
0001
0100
0010
,  // measure 26
1000
0000
0101
0000
0001
1000
0100
0010
,  // measure 27
0000
0100
0010
0100
1000
0001
1000
0010
,  // measure 28
0100
0000
0001
0000
1000
0100
0010
0001
,  // measure 29
0100
0000
0001
0100
1000
0100
0001
1000
,  // measure 30
0100
0000
0010
0001
0000
0001
1000
0010
,  // measure 31
0100
0000
0010
0100
0001
0010
0100
0010
,  // measure 32
0001
0000
1000
0100
0000
0010
0100
1000
,  // measure 33
0001
0000
0100
0010
1000
0100
0010
0100
,  // measure 34
1000
0000
0001
0100
0000
0010
0001
0010
,  // measure 35
1000
0000
0001
1000
0100
0010
0001
0100
,  // measure 36
0101
0000
0000
0000
0000
0000
0000
0000
1000
0000
0000
1000
0100
0000
0010
0000
,  // measure 37
0001
0000
0010
0000
0001
0000
0000
0000
1000
0100
0000
1000
0000
0000
0000
0000
,  // measure 38
0001
0000
0100
0000
0001
0000
0000
0000
1000
0000
0000
0010
0000
0000
0100
0000
,  // measure 39
0001
0000
1000
0000
0001
0000
0000
0000
1000
0001
0000
1000
0000
0000
0000
0000
,  // measure 40
0001
0000
0010
0000
0100
0000
0000
0000
1000
0000
0000
0010
0000
0000
0100
0000
,  // measure 41
0001
0000
0100
0000
0010
0000
0000
0000
1000
0000
0000
0001
0010
0000
0001
0000
,  // measure 42
0100
0000
0010
0000
1000
0000
0000
0000
0010
0000
0000
1000
0010
0000
1000
0000
,  // measure 43
0001
0000
1000
0000
0100
0000
0000
0000
0010
0000
0000
0010
0001
0000
1000
0000
,  // measure 44
1001
0000
0000
0000
0000
0000
0000
0000
0001
0000
0000
1000
0001
0000
0000
0000
,  // measure 45
0010
0000
1001
0000
1000
0100
0010
0001
,  // measure 46
0000
0010
0001
0100
0010
1000
0010
0100
,  // measure 47
0001
0001
1000
0100
1000
0001
0100
0001
,  // measure 48
0000
1000
0100
1000
0001
0010
0100
0010
,  // measure 49
0001
0000
1000
0000
0001
0100
0010
1000
,  // measure 50
0000
0010
1000
0001
0100
0010
0001
0010
,  // measure 51
1000
1000
0001
0010
0100
0000
0010
0001
,  // measure 52
0010
0000
0000
0001
0010
0000
0100
0000
0000
1000
0100
0000
1000
0000
0001
0000
,  // measure 53
0100
0000
1001
0000
0001
0100
1000
0100
,  // measure 54
0010
1000
0100
0010
0100
0001
0100
0010
,  // measure 55
0001
1000
0001
0001
1001
0000
0000
0000
;

//---------------dance-single - Oni-91----------------
#NOTES:
     dance-single:
     :
     Medium:
     6:
     0.403446,0.403372,0.134977,0.000000,0.015574,272.000000,259.000000,13.000000,0.000000,0.000000,0.000000,0.403446,0.403372,0.134977,0.000000,0.015574,272.000000,259.000000,13.000000,0.000000,0.000000,0.000000:
// measure 0
0000
0000
0000
0000
,  // measure 1
0000
0000
0000
0000
,  // measure 2
0000
0000
0000
0000
,  // measure 3
0000
0000
1000
0100
,  // measure 4
1000
0000
0000
0001
0000
0000
1000
0000
,  // measure 5
0010
0000
0000
0100
0000
0000
0010
0000
,  // measure 6
1000
0000
0100
0000
0010
0001
0010
0001
,  // measure 7
1000
0000
0000
1001
,  // measure 8
0001
0000
0100
0000
0010
0100
0001
0000
,  // measure 9
1000
0000
0100
0000
1000
0001
0100
0001
,  // measure 10
1000
0000
0001
1000
0100
0000
0010
0000
,  // measure 11
0001
0000
1000
0001
1000
0010
0100
0000
,  // measure 12
0010
0000
0100
0000
0001
0100
0001
0000
,  // measure 13
1000
0000
0100
0000
1000
0100
1000
0000
,  // measure 14
0001
0010
0100
0010
0001
0000
1000
0000
,  // measure 15
0001
0000
0100
0000
0010
0100
0010
0010
,  // measure 16
1000
0000
0001
0000
0010
0001
1000
0000
,  // measure 17
0010
0000
0100
0000
0001
1000
0100
0000
,  // measure 18
1000
0000
1000
0001
0000
0001
0010
0000
,  // measure 19
0010
0000
0001
0100
0000
0100
0010
0100
,  // measure 20
0001
0000
0000
0000
,  // measure 21
0110
0000
0000
1001
,  // measure 22
1001
0000
0010
0000
0001
0000
0100
0010
,  // measure 23
1000
0000
0100
0000
1000
0100
1000
0001
,  // measure 24
0100
0000
0001
0000
1000
0000
0001
0100
,  // measure 25
0010
0000
0100
0000
0001
0100
0001
1000
,  // measure 26
0100
0000
1000
0000
0001
0000
0010
0001
,  // measure 27
0100
0000
0010
0000
1000
0010
1000
0000
,  // measure 28
0001
0000
0010
0000
0100
0010
0001
0000
,  // measure 29
0100
0000
0010
1000
0010
0000
0100
0000
,  // measure 30
0001
0000
0100
0010
0000
0010
1000
0000
,  // measure 31
0001
0000
1000
0000
0100
0010
0100
0000
,  // measure 32
0010
0000
0001
1000
0000
0001
1000
0000
,  // measure 33
0001
0000
0100
0000
0010
1000
0100
1000
,  // measure 34
0001
0000
1000
0100
0000
0010
0001
0000
,  // measure 35
1000
0000
0001
0000
0100
0010
0100
0010
,  // measure 36
0100
0000
1001
0110
,  // measure 37
0001
1000
0100
0000
0010
0000
1001
0000
,  // measure 38
0001
0100
0010
0000
0100
0000
1001
0000
,  // measure 39
1000
0100
1000
0000
0001
0000
0101
0000
,  // measure 40
0001
0010
0001
0000
1000
0000
1100
0000
,  // measure 41
1000
0000
0000
0000
0001
0000
0000
0000
0100
0000
0000
0010
0000
0000
0100
0000
,  // measure 42
0010
0000
0000
0000
1000
0000
0000
0000
0001
0000
0000
0010
0000
0000
0001
0000
,  // measure 43
0010
0000
0000
0000
0001
0000
0000
0000
1000
0000
0000
0010
0000
0000
1000
0000
,  // measure 44
0001
0000
1010
0011
,  // measure 45
1001
0000
0001
0000
0100
0001
1000
0100
,  // measure 46
0000
1000
0100
0000
0010
0001
0100
0000
,  // measure 47
0001
0000
1000
0010
0100
0000
0001
0000
,  // measure 48
0100
0010
0100
0000
0001
1000
0001
0000
,  // measure 49
1000
0000
0001
0000
0010
0001
0100
0001
,  // measure 50
0000
1000
0010
0000
0100
0001
0100
0000
,  // measure 51
0010
0000
1000
0001
1000
0000
0100
0000
,  // measure 52
0010
0000
0010
0100
0000
0100
1000
0001
,  // measure 53
0100
0000
0010
0000
0100
0010
0100
0010
,  // measure 54
0000
0010
1000
0000
0001
1000
0001
0000
,  // measure 55
1000
0100
0010
0001
1000
0000
0000
0000
;

//---------------dance-single - Oni-91----------------
#NOTES:
     dance-single:
     :
     Easy:
     3:
     0.206173,0.259311,0.083063,0.000000,0.000000,139.000000,131.000000,8.000000,0.000000,0.000000,0.000000,0.206173,0.259311,0.083063,0.000000,0.000000,139.000000,131.000000,8.000000,0.000000,0.000000,0.000000:
// measure 0
0000
0000
0000
0000
,  // measure 1
0000
0000
0000
0000
,  // measure 2
0000
0000
0000
0000
,  // measure 3
0000
0000
1000
0001
,  // measure 4
1000
0000
0000
0000
,  // measure 5
0001
0000
0100
0000
,  // measure 6
0001
0001
1000
1000
,  // measure 7
0001
0000
0000
0000
,  // measure 8
0100
0000
0001
1000
,  // measure 9
0100
0000
0010
0100
,  // measure 10
0010
0001
1000
0001
,  // measure 11
0100
0000
0001
1000
,  // measure 12
0001
0000
1000
0000
,  // measure 13
0100
0000
1000
0001
,  // measure 14
0100
0001
1000
0000
,  // measure 15
0001
0000
0010
0001
,  // measure 16
0100
0000
0110
0000
,  // measure 17
0010
0000
1000
0001
,  // measure 18
1001
0000
0000
0000
,  // measure 19
0110
0000
0000
0000
,  // measure 20
0001
0001
0001
0001
,  // measure 21
0001
0000
0000
0000
,  // measure 22
1000
0000
0001
0000
,  // measure 23
0100
0000
0001
1000
,  // measure 24
0001
0000
1000
0000
,  // measure 25
0100
0000
0010
0001
,  // measure 26
1000
0000
0001
0000
,  // measure 27
0100
0000
0001
0100
,  // measure 28
0010
0000
1000
0000
,  // measure 29
0001
1000
0001
0010
,  // measure 30
0100
0000
0010
0000
,  // measure 31
0100
0010
0001
1000
,  // measure 32
0001
0000
1000
0000
,  // measure 33
0001
0100
0010
1000
,  // measure 34
0010
0000
1000
0000
,  // measure 35
0001
1000
0001
1000
,  // measure 36
1001
0000
0000
0000
,  // measure 37
1000
0000
1000
0000
,  // measure 38
0001
0000
0001
0000
,  // measure 39
0100
0000
0100
0000
,  // measure 40
0010
0000
0010
0000
,  // measure 41
1000
0000
0010
0000
,  // measure 42
0100
0000
0001
0000
,  // measure 43
1000
0000
0100
0000
,  // measure 44
0110
0000
0000
0000
,  // measure 45
1001
0000
0001
0000
,  // measure 46
0100
0000
0001
1000
,  // measure 47
0001
0010
0100
0000
,  // measure 48
0010
0000
0001
1000
,  // measure 49
0001
0000
1000
0000
,  // measure 50
0010
1000
0100
0010
,  // measure 51
0001
1000
0001
0000
,  // measure 52
0110
0000
0000
0000
,  // measure 53
1001
0000
0001
0000
,  // measure 54
1000
0100
0010
0001
,  // measure 55
1000
1000
1000
0000
;

//---------------dance-single - Oni-91----------------
#NOTES:
     dance-single:
     :
     Beginner:
     2:
     0.154259,0.201686,0.083063,0.000000,0.000000,104.000000,96.000000,8.000000,0.000000,0.000000,0.000000,0.154259,0.201686,0.083063,0.000000,0.000000,104.000000,96.000000,8.000000,0.000000,0.000000,0.000000:
// measure 0
0000
0000
0000
0000
,  // measure 1
0000
0000
0000
0000
,  // measure 2
0000
0000
0000
0000
,  // measure 3
0000
0000
0000
0000
,  // measure 4
1000
0000
0100
0000
,  // measure 5
1000
0000
0000
0000
,  // measure 6
1001
0000
0000
0000
,  // measure 7
1001
0000
0000
0000
,  // measure 8
0010
0000
0100
0000
,  // measure 9
0010
0000
0000
0000
,  // measure 10
0100
0000
0001
0000
,  // measure 11
1000
0000
0000
0000
,  // measure 12
0001
0000
0010
0000
,  // measure 13
0001
0000
0000
0000
,  // measure 14
1000
0000
0100
0000
,  // measure 15
0010
0000
0001
0000
,  // measure 16
1001
0000
0000
0000
,  // measure 17
1000
0000
0001
0000
,  // measure 18
0100
0000
0000
0000
,  // measure 19
0010
0000
0000
0000
,  // measure 20
0100
0100
0100
0100
,  // measure 21
0100
0000
0000
0000
,  // measure 22
1001
0000
0000
0000
,  // measure 23
0001
0000
1000
0000
,  // measure 24
0100
0000
1000
0000
,  // measure 25
0001
0000
0100
0000
,  // measure 26
0010
0000
0000
0000
,  // measure 27
0100
0000
0010
0000
,  // measure 28
1000
0000
0001
0000
,  // measure 29
1000
0000
0001
0000
,  // measure 30
0100
0100
0100
0000
,  // measure 31
0010
0000
1000
0000
,  // measure 32
0001
0001
0001
0000
,  // measure 33
1000
0000
0100
0000
,  // measure 34
0010
0010
0010
0000
,  // measure 35
0001
0000
1000
0000
,  // measure 36
1001
0000
0000
0000
,  // measure 37
1000
0000
1000
0000
,  // measure 38
0001
0000
0001
0000
,  // measure 39
1000
0000
1000
0000
,  // measure 40
0010
0000
0010
0000
,  // measure 41
0100
0000
0100
0000
,  // measure 42
0010
0000
0010
0000
,  // measure 43
0100
0000
0100
0000
,  // measure 44
0110
0000
0000
0000
,  // measure 45
1001
0000
0000
0000
,  // measure 46
0001
0000
0100
0000
,  // measure 47
0001
0001
0001
0000
,  // measure 48
1000
0000
0001
0000
,  // measure 49
1000
0000
0000
0000
,  // measure 50
0100
0000
0010
0000
,  // measure 51
0100
0100
0100
0000
,  // measure 52
0110
0000
0000
0000
,  // measure 53
1000
0000
0001
0000
,  // measure 54
0100
0000
0010
0010
,  // measure 55
0010
0010
0010
0000
;
