#TITLE:Move Your Feet;
#ARTIST:Junior Senior;
#BANNER:Move Your Feet.png;
#BACKGROUND:Move Your Feet-bg.png;
#MUSIC:Move Your Feet.ogg;
#SAMPLESTART:54.51;
#SAMPLELENGTH:15;
#DISPLAYBPM:118;
#BPMS:0=118.84;
#BGCHANGES:6.75=Move Your Feet.avi=1=1=0=0StretchNoLoop==CrossFade==,153.75=move your feet-bg.png=1=0=0=1;

//---------------dance-single - ----------------
#NOTES:
     dance-single:
     :
     Beginner:
     1:
     :
0000
0000
0000
0000
,
0000
0000
0000
0000
,
0000
0000
0000
0000
,
0010
0000
0000
0000
,
1000
0000
0000
0000
,
0010
0000
0000
0000
,
0100
0000
0000
0000
,
0010
0000
0000
0000
,
0001
0000
0000
0000
,
0010
0000
0000
0000
,
0100
0000
1000
0000
,
0100
0000
0001
0000
,
1000
0000
0001
0000
,
1001
0000
1001
0000
,
0010
0000
0100
0000
,
0110
0000
0110
0000
,
0001
0000
1000
0000
,
1001
0000
1001
0000
,
0010
0000
0100
0000
,
0110
0000
0110
0000
,
1000
1000
1000
0000
,
0100
0100
0100
0000
,
0010
0010
0010
0000
,
0001
0001
0001
0000
,
0100
0000
0010
0010
,
0010
0000
0100
0100
,
0100
0000
1000
1000
,
1000
1000
1000
1000
,
1000
0000
0000
0000
,
1000
0000
0000
0000
,
0010
0000
0000
0000
,
0100
0000
0000
0000
,
0010
0000
0000
0000
,
0001
0000
0000
0000
,
0010
0000
0000
0000
,
0100
0000
0001
0000
,
0100
0000
1000
0000
,
0100
0000
0001
0000
,
0100
0000
1000
1000
;

//---------------dance-single - ----------------
#NOTES:
     dance-single:
     :
     Easy:
     3:
     :
0000
0000
0000
0000
,
0000
0000
0000
0000
,
0000
0000
0000
0000
,
0001
0001
0001
0000
,
1000
1000
1000
0100
,
0001
0100
1000
0100
,
0010
0000
0100
0100
,
1000
1000
1000
0000
,
0001
0001
0001
0100
,
1000
0100
0001
0100
,
0010
0000
0100
0000
,
0001
0000
1000
0001
,
2000
3000
0020
0030
,
0100
0000
0100
0100
,
0002
0003
2000
3000
,
0010
0000
0010
0100
,
0002
0003
0020
0030
,
0100
0000
0100
0100
,
2000
3000
0002
0003
,
0010
0000
0010
0100
,
1000
1000
1000
0100
,
0001
0001
0001
1000
,
0010
0010
0010
0100
,
0001
0010
1000
0100
,
0001
0000
0001
1001
,
0100
0000
0100
0110
,
1000
0000
1000
1001
,
0001
1000
0001
1000
,
0001
0001
0001
0000
,
1000
1000
1000
0100
,
0001
0100
1000
0100
,
0010
0000
0100
0100
,
1000
1000
0100
0000
,
0001
0001
0001
0100
,
1000
0100
0001
0010
,
0010
0010
0100
0100
,
0001
0001
1000
1000
,
0100
0100
0010
0010
,
0001
0001
1000
1001
;

//---------------dance-single - ----------------
#NOTES:
     dance-single:
     :
     Medium:
     5:
     :
0000
0000
0000
0000
,
0000
0000
0000
0000
,
0000
0000
0000
0000
,
0001
0000
1100
0000
0001
1000
0100
0000
,
0010
0100
1001
0100
,
1000
0000
0100
0000
0001
1000
0001
0000
,
1000
1000
0001
0001
,
1000
0000
0101
0000
1000
0001
0100
0000
,
0010
0100
1001
0100
,
0001
0000
0100
0000
1000
0001
1000
0000
,
1001
0001
1010
0100
,
0101
0001
1000
0001
,
1001
0000
0000
1000
0200
0000
0300
0000
,
1000
0100
0001
0010
,
1001
0000
0000
1000
0200
0000
0300
0000
,
0010
0001
0100
1000
,
1001
0000
0000
1000
0200
0000
0300
0000
,
0001
0100
1000
0010
,
1001
0000
0000
1000
0200
0000
0300
0000
,
0010
1000
0100
0001
,
1000
1000
1000
0000
1001
0000
0100
0000
,
0010
0010
0010
0000
1010
0000
0100
0000
,
0001
0001
0001
0000
1000
0000
1001
0000
,
0001
0000
0100
0000
0010
1000
0100
0000
,
0001
0000
1100
0000
0001
0010
0100
0000
,
0010
0000
0110
0000
0100
0010
0100
0000
,
1000
0000
0101
0000
1000
0010
0100
0000
,
0001
1000
0001
1000
,
0001
0000
1100
0000
0001
1000
0100
0000
,
0010
0100
1001
0100
,
1000
0000
0100
0000
0001
1000
0001
0000
,
1000
1000
0001
0001
,
1000
0000
0101
0000
1000
0001
0100
0000
,
0010
0100
1001
0100
,
0001
0000
0100
0000
1000
0001
1000
0000
,
1001
0001
1010
0100
,
1100
0001
0110
0001
,
1010
0100
1001
0100
,
1100
0010
0100
1001
;

//---------------dance-single - ----------------
#NOTES:
     dance-single:
     :
     Hard:
     7:
     :
0000
0000
0000
0000
,
0000
0000
0000
0000
,
0000
0000
0000
0000
,
0001
0000
0001
0100
0000
0010
0000
0100
0000
0100
0000
0001
0000
1000
0001
0000
,
1000
0000
1000
0100
0000
0010
0000
0100
0000
0100
0000
1000
0000
0001
1000
0000
,
0001
0000
0001
0100
0000
0010
0000
0100
0000
0100
0000
0001
0000
1000
0001
0000
,
0010
2000
3100
0002
,
1003
0000
1000
0100
0000
0010
0000
0100
0000
0100
0000
1000
0000
0001
1000
0000
,
0001
0000
0001
0100
0000
0010
0000
0100
0000
0100
0000
0001
0000
1000
0001
0000
,
1000
0000
1000
0100
0000
0010
0000
0100
0000
0100
0000
1000
0000
0001
1000
0000
,
0010
1001
0100
1001
,
0010
0001
1100
0101
,
1001
0000
0010
1000
0200
0000
0300
0010
,
0002
0000
1003
0000
1001
0100
1000
0000
,
1001
0000
0010
1000
0200
0000
0300
0010
,
0002
1003
1100
0101
,
1001
0000
0010
0001
0200
0000
0300
0010
,
2000
0000
3001
0000
1001
0100
0001
0000
,
1001
0000
0010
1000
0200
0000
0300
0010
,
0002
0103
1000
0001
,
0100
0000
1000
0000
0100
0000
1000
0000
0001
0000
0010
0100
0000
0000
0010
0000
,
0001
0000
0100
0000
0001
0000
0100
0000
0010
0000
1000
0001
0000
0000
0010
0000
,
0100
0000
0001
0000
0100
0000
0001
0000
1000
0000
0010
0100
0000
0000
1000
0000
,
0001
0010
0100
0010
0001
0010
1000
0001
,
0010
0000
0000
0000
0011
0000
0000
0000
1000
0000
0001
0100
0000
0000
0010
0000
,
0100
0000
0000
0000
0110
0000
0000
0000
0100
0000
0010
1000
0000
0000
0100
0000
,
1000
0000
0000
0000
1100
0000
0000
0000
0001
0000
1000
0001
0000
0000
0000
0000
,
0011
0110
1100
1001
,
0001
0000
0001
0100
0000
0010
0000
0100
0000
0100
0000
0001
0000
1000
0001
0000
,
1000
0000
1000
0100
0000
0010
0000
0100
0000
0100
0000
1000
0000
0001
1000
0000
,
0001
0000
0001
0100
0000
0010
0000
0100
0000
0100
0000
0001
0000
1000
0001
0000
,
0010
2000
3100
0002
,
1003
0000
1000
0100
0000
0010
0000
0100
0000
0100
0000
1000
0000
0001
1000
0000
,
0001
0000
0001
0100
0000
0010
0000
0100
0000
0100
0000
0001
0000
1000
0001
0000
,
1000
0000
1000
0100
0000
0010
0000
0100
0000
0100
0000
1000
0000
0001
1000
0000
,
0010
1001
0100
1001
,
0010
0001
1100
0101
,
1001
0010
0110
0001
,
0100
1000
0001
1001
;

//---------------dance-double - ----------------
#NOTES:
     dance-double:
     :
     Easy:
     3:
     :
00000000
00000000
00000000
00000000
,
00000000
00000000
00000000
00000000
,
00000000
00000000
00000000
00000000
,
00010000
00010000
00010000
00010000
,
00000000
10000000
10000000
10000000
,
10000000
00000000
10000000
00000000
,
01000000
00000000
00010000
00000000
,
00011000
00001000
00001000
00001000
,
00000000
00000010
00000010
00000010
,
00000010
00000000
00000100
00000000
,
00001001
00001000
00001001
00001000
,
00001001
00001000
00001000
00000001
,
00001001
00000001
00000001
00000000
,
00000100
00000000
00001000
00001000
,
00010000
00010000
00010000
00000000
,
00100000
00000000
10000000
00010000
,
10010000
00010000
00010000
00000000
,
10000000
10000000
10000000
10000000
,
10000000
00000000
01000000
00000000
,
00010000
00001000
00010000
00001000
,
00011000
00001000
00001000
00001000
,
00000010
00000000
00000010
00000000
,
00000100
00000100
00000100
00000100
,
00001001
00000000
00001000
00000001
,
00001000
00000000
00001000
00001000
,
00010000
00000000
00010000
00010000
,
00100000
00000000
00100000
00100000
,
01000000
00100000
00010000
10000000
,
10010000
00010000
00010000
00010000
,
00000000
10000000
10000000
10000000
,
10000000
00000000
10000000
00000000
,
01000000
00000000
00010000
00000000
,
00011000
00001000
00001000
00001000
,
00000000
00000010
00000010
00000010
,
00000010
00000000
00000100
00000000
,
00001001
00000001
00001001
00000001
,
00001001
00000001
00001001
00000001
,
00001001
00001000
00001001
00001000
,
00001001
00001000
00001001
00000000
;

//---------------dance-double - ----------------
#NOTES:
     dance-double:
     :
     Medium:
     5:
     :
00000000
00000000
00000000
00000000
,
00000000
00000000
00000000
00000000
,
00000000
00000000
00000000
00000000
,
00010000
00010000
10000000
10000000
,
10000000
10000000
00010000
00010000
,
10000000
01000000
00010000
00001000
,
00000100
00000001
00001000
00000010
,
00001000
00001000
00000001
00000001
,
00000001
00000001
00001000
00001000
,
00010000
00010000
00100000
00100000
,
10010000
01000000
10010000
01000000
,
01100000
00010000
01100000
10010000
,
01100000
01000000
10000000
10000000
,
00100000
00010000
00001000
00000010
,
00000010
00000010
00000100
00000100
,
00001000
00000010
00000100
00000001
,
00000110
00000100
00000001
00000001
,
00000010
00001000
00010000
00100000
,
00100000
00100000
01000000
01000000
,
00010000
00100000
01000000
10000000
,
10010000
00000000
01000000
00000000
00100000
01000000
00100000
00000000
,
00010000
00000000
00010000
00000000
00010000
00001000
00010000
00000000
,
00000100
00000000
00000100
00000000
00000100
00000010
00000100
00000000
,
00001000
00000001
00000100
00000000
00000010
00000000
00001001
00000000
,
00000010
00000100
00000100
00000000
00000100
00000000
00001100
00000000
,
00000010
00000100
00000100
00000000
00000100
00000000
00000101
00000000
,
00001100
00000000
00010000
00000000
00010000
00001000
00010000
00000000
,
00011000
00110000
10100000
10010000
,
00010000
10000000
00010000
00000000
10000000
00000000
10000000
00000000
,
10000000
00010000
10000000
00000000
00010000
00000000
00010000
00000000
,
10000000
01000000
00010000
00010000
,
00001000
00000100
00000001
00000000
00000010
00000000
00000100
00000000
,
00001000
00000001
00001000
00000000
00000001
00000000
00000001
00000000
,
00000001
00001000
00000001
00000000
00001000
00000000
00001000
00000000
,
00010000
00010000
00100000
00100000
,
10010000
01000000
10010000
01000000
,
00110000
00001000
00011000
00010000
,
00010100
00001000
00001100
00000010
,
00000110
00001000
00001001
00000001
;

//---------------dance-double - ----------------
#NOTES:
     dance-double:
     :
     Hard:
     7:
     :
00000000
00000000
00000000
00000000
,
00000000
00000000
00000000
00000000
,
00000000
00000000
00000000
00000000
,
00000001
00001000
00000001
00000000
00001000
00000001
00001000
00000000
,
00000001
00000100
00001000
00000000
00010000
01000000
10000000
00010000
,
10000000
00010000
10000000
00000000
00010000
10000000
00010000
00000000
,
10000000
01000000
00010000
00000000
00001000
00000100
00000001
00000000
,
00000001
00001000
00000001
00000000
00001000
00000001
00001000
00000000
,
00000001
00000100
00001000
00000000
00010000
01000000
10000000
00010000
,
10000000
00010000
10000000
00000000
00010000
10000000
00010000
00000000
,
01100000
00010000
01100000
10000000
,
00110000
00001000
00011000
00000110
,
00001001
00000000
00000001
00001000
00000001
00000000
00000001
00001000
,
00000001
00000000
00000001
00000000
00000001
00000100
00001000
00010000
,
00001000
00000000
00001000
00010000
01000000
00000000
01000000
10000000
,
00010000
00000000
00010000
00000000
01100000
00000000
00010000
10000000
,
11000000
00000000
01000000
00010000
00001000
00000000
00001000
00000100
,
00000001
00000000
00000001
00000000
00000001
00000010
00000100
00000010
,
00000100
00000000
00000100
00010000
00001000
00000000
00010000
00001000
,
01000000
00000000
00010000
10000000
01000000
00000000
01000000
00000000
,
10010000
00010000
00010000
00010000
00010000
10000000
00010000
00000000
,
00010000
00010000
00010000
00000000
10000000
10000000
10000000
00000000
,
01100000
00010000
10000000
00000000
00100000
00010000
00011000
00000000
,
00000110
00000001
00001000
00000001
00000001
00000001
00000001
00001000
,
00001100
00000000
00000000
00010000
00011000
00000000
00100000
00100000
,
01100000
00000000
00000000
01000000
01100000
00000000
01000000
10000000
,
11000000
00000000
00000000
00000000
00000000
00000000
00010000
00000000
00010000
00000000
10000000
00000000
00010000
10000000
00000000
00000000
,
01100000
00011000
00000110
00001001
,
00000001
00000001
00000001
00000000
00001000
00001000
00001000
00000000
,
00000001
00000010
00001000
00010000
00100000
10000000
00010000
10000000
,
10000000
10000000
10000000
00000000
00010000
00010000
00010000
00000000
,
10000000
01000000
00010000
00001000
00000100
00000001
00001000
00000001
,
00000001
00000001
00000001
00000000
00001000
00001000
00001000
00000000
,
00000001
00000010
00001000
00010000
00100000
10000000
00010000
10000000
,
10000000
10000000
10000000
10000000
00010000
00010000
00010000
00000000
,
01100000
00001000
00011000
00000100
,
00010100
00001000
00101000
00010000
,
11000000
00100000
00110000
01000000
,
10010000
00100000
00011000
00001000
;
