#TITLE:HEAVEN AND EARTH;
#ARTIST:POP!;
#BANNER:HEAVEN AND EARTH.png;
#BACKGROUND:HEAVEN AND EARTH-bg.png;
#MUSIC:HEAVEN AND EARTH.ogg;
#SAMPLESTART:69.25;
#SAMPLELENGTH:15;
#BPMS:0=130;
#BGCHANGES:6.25=HEAVEN AND EARTH.avi=1=1=0=0=StretchNoLoop==CrossFade==,220=HEAVEN AND EARTH-bg.png=1=0=0=1;

//---------------dance-single - ----------------
#NOTES:
     dance-single:
     :
     Beginner:
     1:
     :
0000
0000
0000
0000
,
0000
0000
0000
0000
,
0010
0000
0000
0000
,
0010
0000
0100
0000
,
0001
0000
0000
0000
,
0000
0000
0000
0000
,
0100
0000
1000
0000
,
0010
0000
1000
0000
,
0001
0000
0000
0000
,
0000
0000
0000
0000
,
0010
0000
0000
0000
,
0010
0000
0100
0000
,
1000
0000
0000
0000
,
0010
0000
0000
0000
,
0100
0000
0001
0000
,
0010
0000
1000
0000
,
0001
0001
0000
0000
,
1000
1000
0000
0000
,
0001
0000
0100
0000
,
1000
0000
0100
0000
,
0010
0010
0000
0001
,
0000
0100
0000
1000
,
1000
0000
0010
0000
,
1000
0000
0100
0000
,
1000
1000
0000
0010
,
0000
0100
0000
0001
,
0001
0000
0100
0000
,
1000
0000
0100
0000
,
0010
0010
0000
0100
,
0100
0000
0000
1000
,
1000
0000
0001
0000
,
0010
0000
0100
0000
,
1001
0000
0000
0000
,
0000
0000
0000
0100
,
0100
0000
0010
0000
,
0001
0000
1000
1000
,
1000
0000
0010
0000
,
1001
0000
0010
0010
,
0010
0000
0100
0000
,
1001
0000
1000
0000
,
0010
0000
0110
0000
,
1001
0000
0100
0100
,
0100
0000
0001
0000
,
0010
0000
1000
0000
,
0100
0000
0001
0000
,
0010
0000
1000
1000
,
1000
0000
0100
0000
,
1001
0000
0010
0000
,
0001
0000
0110
0000
,
1001
0000
0100
0100
,
0100
0000
1000
0000
,
0010
0000
0001
0000
,
0100
0000
1000
0000
,
0001
0000
0010
0000
,
1001
0000
0000
0000
;

//---------------dance-single - ----------------
#NOTES:
     dance-single:
     :
     Easy:
     4:
     :
0000
0000
0000
0000
,
0000
0000
0000
0000
,
0000
0000
0100
0100
,
0010
0001
0100
1000
,
0002
0000
0003
0200
0000
0000
0300
0000
,
0000
0000
0000
0000
0000
0000
0000
0001
,
0100
0000
0001
0001
,
0010
0100
1000
0100
,
2000
0000
0000
3000
,
0000
0000
0000
0000
,
0020
0030
1000
1000
,
0001
0001
0010
0100
,
2000
0000
3000
0200
0000
0000
0300
0000
,
0002
0000
0000
0000
0003
0000
0000
1000
,
0100
0000
1000
0000
,
0010
0010
1000
0001
,
0020
0000
0000
0030
,
0001
0000
1000
0000
,
2002
3003
0000
0000
,
0000
0100
0000
1001
0000
0000
0000
0000
,
0000
0000
0000
1002
,
0000
0000
0003
0000
,
1000
0001
0010
0100
,
1000
0100
0001
1000
,
0001
1000
0010
0000
0100
0000
0001
0000
,
0000
0100
0000
0100
,
2002
3003
0010
1000
,
0001
0010
1000
0010
,
0020
0030
1000
0100
,
0002
0000
0003
0100
,
0010
1000
0100
0100
,
0010
1000
0100
0110
,
2002
0000
0000
0000
,
3003
0000
0000
0000
0000
0000
1000
0001
,
1000
0001
0010
0100
,
1000
0010
0100
0002
,
2003
0000
0000
3000
,
1001
0000
0010
0110
,
0001
0000
1000
0000
,
2002
3003
0010
0000
,
1001
0000
0010
0000
,
0010
0000
0000
0000
0000
1000
0001
0000
,
0001
0000
1000
0000
,
0001
1000
0001
0000
,
1000
0000
0100
1000
,
0000
0010
1001
0000
0001
0000
0002
0000
,
0003
2000
0000
3000
,
0001
1000
0100
1001
,
0100
0010
1000
1100
,
2000
0000
0010
3010
,
0001
0010
0100
1000
,
1001
0010
0001
0110
,
0010
0001
0100
1000
,
1001
0000
0001
0100
,
0020
0000
0030
0000
;

//---------------dance-single - ----------------
#NOTES:
     dance-single:
     :
     Medium:
     5:
     :
0000
0000
0000
0000
,
0000
0000
0000
0000
,
0010
0000
1000
0100
,
0010
0001
0100
0001
,
0002
0000
0003
0200
0000
0000
0300
0000
,
0000
0000
0000
0000
0000
0000
0000
0001
,
0100
0000
0001
0100
,
0010
1000
0100
1000
,
2000
0000
0000
3000
,
0002
0000
0100
0103
,
0020
0030
1000
0100
,
0010
0001
0100
0001
,
0020
0000
0030
0002
0000
0000
0003
0000
,
0200
0000
0000
0000
0000
0000
0300
0001
,
0100
0000
1000
0100
,
0001
0001
0010
0100
,
2000
0000
0000
0000
,
0000
3000
0000
0000
,
0010
0000
0110
0000
0010
1000
0100
0000
,
0010
0000
0011
0000
0001
1000
0100
0000
,
0001
0000
1100
0000
0001
0100
1000
0000
,
1100
0000
0101
0000
1000
0100
0001
0000
,
0010
0000
0110
0000
0010
0001
0100
0000
,
0010
0000
1010
0000
1000
0001
0100
0000
,
1000
0000
0101
0000
1000
0100
0001
0000
,
0001
0000
1100
0000
0001
0100
1000
0000
,
0001
0000
0110
0000
0010
0001
1000
0000
,
0010
0101
1100
1001
,
0010
0000
1001
0000
0010
0001
0100
0000
,
0010
0000
1100
0000
0001
1000
0100
0000
,
0010
0001
1000
0000
0100
0010
0100
0000
,
0010
1100
0110
0101
,
2002
0000
0000
0000
,
3003
0000
0000
0000
0000
0000
1000
0001
,
2000
3002
0023
0230
,
1300
0001
0100
0000
0020
0000
2030
0000
,
3002
0000
0000
0003
,
1001
0000
0010
0110
,
0001
0000
1100
0000
0010
1000
0100
0000
,
2002
3003
0100
0100
,
0001
0010
0100
0000
1000
0001
0100
0000
,
0020
0000
0100
0130
,
0001
1000
0100
0000
0010
0001
0100
0000
,
0010
0000
0110
0000
0010
0001
1000
0000
,
0200
0000
1000
1300
,
0011
1100
0010
0110
,
1000
0000
0101
0000
0010
0001
0100
0000
,
2002
3003
0100
0100
,
1000
0010
0100
0000
1000
0001
0100
0000
,
0020
0000
0100
0130
,
1000
0001
0100
0000
0010
1000
0100
0000
,
0010
0001
0100
0010
1000
0001
1000
0000
,
0020
0000
0000
0000
1000
0030
1000
0000
,
1010
0000
0101
0000
0010
0001
0100
0000
,
2002
0000
3003
0000
;

//---------------dance-single - ----------------
#NOTES:
     dance-single:
     :
     Hard:
     7:
     :
0000
0000
0000
0000
,
0000
0000
0000
0000
,
0001
0000
0000
0000
1000
0001
0100
0000
,
0010
0000
1000
0000
0010
1000
0100
0000
,
0020
0000
0030
0002
0000
0000
0003
0000
,
0010
0000
0000
0000
0000
0000
0000
0000
0000
0000
0000
0000
0000
0000
0001
1000
,
0200
0300
0010
0010
,
0001
0000
1000
0000
0001
0100
0001
0000
,
2000
0000
0000
3000
,
0200
0000
1000
1300
,
0002
0000
0003
0000
1000
0010
0100
0000
,
0010
1000
0100
0010
,
0100
1000
0100
0020
0000
0000
0030
0000
,
0002
0000
0000
0000
0000
0000
0000
0000
0000
0000
0000
0000
0003
0000
1000
0001
,
2000
0000
3000
0000
0010
0100
0001
0010
,
0000
0001
0000
1000
0000
0001
0010
0000
,
0200
1000
1000
1300
,
0002
0000
0100
0000
0103
0000
0010
1000
,
0110
0000
0000
0010
0100
0000
0001
0000
0010
0000
0100
0000
1000
0000
0000
0000
,
0010
1000
0100
1000
0001
0100
0001
0010
,
0100
0000
1000
0100
0000
1000
0001
0000
0010
0100
0000
1000
0100
0000
1000
0010
,
0000
0100
0001
0000
0010
0100
0000
1000
0001
0000
0100
0000
0001
0000
0100
0001
,
0010
0100
1000
0010
0100
0001
0100
0001
,
0010
0001
1000
0100
0010
0100
1000
0010
,
0100
0000
0001
0100
0000
0001
1000
0000
0010
0100
0000
0001
0100
0000
0001
0010
,
0000
0100
1000
0000
0010
0100
0000
0001
1000
0000
0100
0000
1000
0000
0001
1000
,
0001
0000
0010
0000
1000
0001
0100
0010
,
1000
0010
0100
0001
1000
0010
0100
0010
,
2000
0001
3001
0000
0002
0100
0103
0000
,
0010
1000
0100
0000
1000
0001
0100
0000
,
0010
1000
0101
0000
0001
1000
1100
0000
,
0010
0001
0100
0010
0100
1000
0100
0001
,
2002
0000
0000
0000
,
3003
0000
0000
0000
0000
0000
1000
0001
,
2000
0000
3020
0000
1030
0001
0100
0000
,
0001
1000
0100
1000
0010
0100
0001
2000
,
3200
0000
0010
0310
,
1001
0000
0000
0000
0010
1000
0100
0000
,
0010
0001
1100
0000
0010
0001
0110
0000
,
2002
0000
0000
0000
3003
0000
0000
0000
0010
0000
0000
0010
0000
0000
0001
0000
,
1000
0001
0100
0010
0001
1000
0100
1000
,
0002
0000
0010
0000
0013
0000
0000
0000
0100
0000
0000
1000
0001
0000
0010
0000
,
0100
1000
1100
0000
0010
0100
0001
0000
,
0010
0100
0010
0001
0000
0010
0000
0100
,
2000
0000
0000
0000
0010
0000
0000
0000
0010
0000
0000
0010
3000
0000
0010
0000
,
1000
0001
0100
0010
0100
0001
1001
0000
,
0010
1000
0101
0000
0010
1000
0110
0000
,
2002
0000
0000
0000
3003
0000
0000
0000
0010
0000
0000
0010
0000
0000
1000
0000
,
0001
1000
0100
0010
1000
0001
0100
0001
,
2000
0000
0010
0000
3010
0000
0000
0000
0100
0000
0000
0001
1000
0000
0010
0000
,
0100
0001
0101
0000
0010
0100
1000
0000
,
0010
0000
0100
0000
0010
0000
0100
0000
0010
0000
1000
0001
1000
0000
0100
0000
,
0020
0000
0000
0000
0000
0000
0000
0000
0001
0000
0000
0001
0030
0000
0001
0000
,
1000
0001
0100
0010
1000
0010
2000
0000
,
0002
3000
0003
0000
;
