#TITLE:Good Luck;
#ARTIST:BASEMENT JAXX feat. Lisa Kekaula;
#BANNER:Good Luck.png;
#BACKGROUND:Good Luck-bg.png;
#CDTITLE:./CDTitles/DANCING STAGE FUSION.png;
#MUSIC:Good Luck.ogg;
#SAMPLESTART:40.46;
#SAMPLELENGTH:15;
#DISPLAYBPM:77:154;
#BPMS:0=76.96,48=153.92;

//---------------dance-single - ----------------
#NOTES:
     dance-single:
     :
     Beginner:
     1:
     :
0000
0000
0000
0000
,
0000
0000
0000
0000
,
0000
0000
0000
0000
,
1001
0000
0000
0000
,
1001
0000
1000
0000
,
0001
0001
0001
0000
,
1001
0000
0001
0000
,
1000
1000
1000
0000
,
0001
0000
0100
0000
,
0010
0010
0010
0000
,
0100
0100
0100
0000
,
0010
0000
1001
0000
,
0000
0000
0000
0000
,
1000
0000
0000
0000
,
0001
0000
0000
0000
,
1000
0000
0001
0000
,
1000
0000
1000
0000
,
0001
0000
0001
0000
,
0010
0010
0010
0000
,
0100
0100
0100
0000
,
0001
0000
1000
0000
,
1001
0000
0000
0000
,
1000
0000
1000
0000
,
0001
0000
0001
0000
,
1000
0000
0001
0000
,
1000
0000
1000
0000
,
0001
0000
0001
0000
,
0100
0000
0100
0000
,
0010
0010
0010
0000
,
1001
0000
0000
0000
,
0001
0001
0001
0000
,
0100
0000
0100
0000
,
1000
1000
1000
0000
,
0100
0000
0100
0000
,
0001
0000
1000
0000
,
1000
0000
0001
0000
,
0100
0000
0100
0000
,
0010
0000
0100
0000
,
0001
0000
1001
0000
,
0001
0000
0001
0000
,
1000
0000
1000
0000
,
0010
0010
0010
0000
,
1000
0000
1001
0000
,
0010
0000
0100
0000
,
0001
0001
0000
0000
,
1001
0000
0000
0000
;

//---------------dance-single - ----------------
#NOTES:
     dance-single:
     :
     Easy:
     3:
     :
0000
0000
0000
0000
,
0000
0000
0000
0000
,
0000
0000
0000
0000
,
1001
0000
0000
0000
0010
0100
0000
0000
,
1001
0000
0001
1000
,
0001
0001
0100
0001
,
1001
0000
1000
0000
0010
0100
0000
0000
,
1001
0000
0001
0000
0010
0100
0000
0000
,
1000
0000
1000
0100
,
0010
0010
0010
0000
,
0100
0100
0100
0000
,
0010
0001
2001
0000
,
3001
0000
0001
0000
,
1000
0000
0100
1000
,
0001
0000
0001
0000
,
1000
0000
0001
0000
,
1000
1000
1000
0000
,
0001
0001
1000
0000
,
0010
0010
0100
0000
,
0100
0000
0100
0000
,
0001
0001
1000
0000
,
2002
0000
0000
3003
,
1000
0000
1000
0000
,
0001
0000
1000
0000
,
0001
1000
0000
0001
,
0001
0001
1000
0000
,
0010
0010
0100
0000
,
0100
0000
0100
0000
,
1000
1000
0100
0000
,
2002
0000
0000
3003
,
0001
0001
0001
0000
,
0100
0000
0100
0000
,
1000
1000
1000
0000
,
0100
0000
0100
0000
,
0001
0001
1000
0000
,
0001
0000
1000
0000
,
0001
0001
0100
0000
,
0200
0000
0020
0330
,
0001
1000
0000
1001
,
1000
0001
0000
0001
,
1000
0001
0000
1000
,
0010
0010
0010
0000
,
0001
1000
0000
1001
,
1000
0001
0000
0001
,
1000
0020
0000
0000
,
0130
0000
0000
0000
;

//---------------dance-single - ----------------
#NOTES:
     dance-single:
     :
     Medium:
     6:
     :
0000
0000
0000
0000
,
0000
0000
0000
0000
,
0000
0000
0000
0010
,
1001
0000
0100
0000
0001
0010
0100
0000
,
1001
0000
0010
0000
0001
0001
1000
1000
,
1001
0000
0100
0000
0001
1000
0001
0100
,
1001
0000
0010
0000
1000
0010
0100
0001
,
1000
0000
1000
0000
0001
0100
0001
0000
,
1001
0000
0100
0000
0001
0100
0010
1000
,
0001
1000
0100
0100
0001
0000
1000
0000
,
1000
0001
0100
0100
1000
0000
0100
0000
,
0001
1000
0100
0100
0001
0000
1000
0000
,
0001
1000
0100
0100
,
0001
0000
1000
0000
0001
0100
0001
1000
,
0001
0000
0001
0000
0010
0001
0010
0000
,
0100
0000
0100
1000
0000
1000
0001
0000
,
1000
0100
1000
0000
1100
0000
0000
0000
,
0100
0000
0100
0010
0000
1000
0001
1000
,
0001
0000
0001
0000
0010
0001
0010
0000
,
0100
0000
0100
1000
0000
0001
0000
0000
,
0011
0110
1100
0000
,
0002
0000
2000
3003
,
1001
0000
1000
0000
0010
1000
0010
0000
,
0100
0000
0100
0001
0000
0001
1000
0000
,
0001
0101
0000
0101
,
0100
0000
0100
0010
0000
0001
1000
0001
,
1000
0000
1000
0000
0010
1000
0010
0000
,
0100
0000
0100
0001
0000
1000
0000
0000
,
1010
0110
0101
0000
,
2000
0100
0002
3003
,
0001
1000
1001
0000
,
1000
0100
0001
0000
0001
0000
0010
0000
,
0011
0100
1100
0000
,
0001
1000
0001
0000
1000
0100
1000
0000
,
1100
0010
0011
0000
,
1000
0001
1000
0000
0001
0000
0010
0000
,
0011
1001
0110
0000
,
0010
0100
0010
0100
0020
0000
0130
0000
,
1001
0100
0110
0010
,
1000
0001
1000
0000
0010
0000
0100
0000
,
1010
0101
0000
0010
,
0001
0100
0001
1000
0000
0000
0001
0000
,
1001
0100
0110
0010
,
0001
1000
0001
0000
0010
0000
0100
0000
,
1010
0001
0011
1000
,
2002
0000
0000
0000
0000
3003
0000
0000
;

//---------------dance-single - ----------------
#NOTES:
     dance-single:
     :
     Hard:
     8:
     :
0000
0000
0000
0000
,
0000
0000
0000
0000
,
0000
0000
0000
0000
0000
0000
1000
0001
,
0101
0000
0100
0000
0001
0000
0100
0000
0010
1000
0100
0000
0010
0000
1000
0000
,
0001
1000
0001
0000
1000
0000
0100
0000
0010
0000
0010
0000
0110
0000
1001
0000
,
0001
0100
0001
0000
0100
0000
0001
0000
1000
0000
1000
0000
0001
1000
0001
1000
,
0001
0000
0010
0000
0110
0000
1000
0000
0010
1000
0100
0000
1000
0000
0001
0000
,
0100
0001
0100
0000
0010
0000
1000
0000
0010
1000
0100
0000
0010
0000
0001
0000
,
0011
0011
0110
0110
0001
1000
1001
1000
,
0001
0100
0001
0100
0010
1000
0010
1000
0001
0000
0000
0000
1000
0000
0000
0000
,
1000
0100
1000
0100
0010
0001
0010
0001
2000
0000
0000
0000
3001
0000
0000
0000
,
0001
0100
0001
0100
0010
1000
0010
1000
0001
0000
0000
0000
1000
0000
0000
0000
,
0001
0001
0100
0001
,
1000
0000
0100
0000
0001
0010
0001
0100
,
0001
0010
0001
0010
0001
0100
0010
0100
,
0010
1000
0100
2000
0000
3001
1000
0001
,
1000
0010
1000
0010
1000
0100
0010
0001
,
1000
1000
0001
0200
0000
0301
1000
0001
,
1000
0010
1000
0010
1000
0100
0010
0100
,
0010
0001
0100
0002
0000
1003
0001
0000
,
1000
0010
1000
0100
0020
0000
0031
0000
,
0010
0001
0000
0000
0001
0100
0000
0000
0100
0010
0000
0000
1000
0000
0000
0000
,
0001
0010
0001
0010
0001
0100
0010
0100
,
0010
1000
0100
2000
0000
3001
1000
0001
,
0100
0202
0303
1100
,
1000
0100
1000
0002
0000
0013
0001
1000
,
1000
0010
1000
0010
1000
0100
0010
0100
,
0010
0001
0100
0002
0000
1003
0001
0000
,
1000
0010
1000
0100
0020
0000
0030
0000
,
0010
0001
0000
0000
0001
0100
0000
0000
0100
0010
0000
0000
1000
0000
0000
0000
,
1010
0000
0110
0000
0102
0000
0003
1000
,
0001
0000
0100
0001
0000
0000
0001
0000
0100
0000
0001
0100
0000
0000
0001
0000
,
0011
0000
0110
0000
2100
0000
3000
0001
,
1000
0000
0100
1000
0000
0000
1000
0000
0100
0000
1000
0100
0000
0000
1000
0000
,
1010
0000
0110
0000
0102
0000
0003
1000
,
0001
0000
0100
0001
0000
0000
0001
0000
0100
0000
0001
0100
0000
0000
0001
0000
,
0101
0110
2020
3030
,
0010
1000
0000
0000
1000
0100
0000
0000
0100
0010
0000
0000
0010
0001
0000
0000
,
1001
0001
0010
0001
0010
0000
1100
0000
,
0010
0100
0010
0200
0000
0310
1000
0001
,
0001
0020
0002
0000
0033
0000
0110
0000
,
0100
1000
0100
1000
0010
0100
0010
0000
,
1010
0010
1000
0010
1000
0000
0101
0000
,
0100
0010
0100
0020
0000
0130
0001
1000
,
0001
0010
0100
0010
0001
1000
1001
0000
,
2002
0000
0000
0000
0000
3003
0000
0000
;
