#TITLE:50 Ways To Say Goodbye;
#SUBTITLE:;
#ARTIST:Train;
#TITLETRANSLIT:;
#SUBTITLETRANSLIT:;
#ARTISTTRANSLIT:;
#GENRE:;
#CREDIT:;
#BANNER:50 Ways to Say Goodbye.png;
#BACKGROUND:50 Ways to Say Goodbye-bg.png;
#LYRICSPATH:;
#CDTITLE:;
#MUSIC:50 Ways To Say Goodbye.mp3;
#OFFSET:-0.149;
#SAMPLESTART:44.200;
#SAMPLELENGTH:17.220;
#SELECTABLE:YES;
#BPMS:0.000=140.000
;
#STOPS:
;
#BGCHANGES:;
#KEYSOUNDS:;
#ATTACKS:;

//---------------dance-single - ----------------
#NOTES:
     dance-single:
     :
     Hard:
     7:
     0.495,0.501,0.440,0.386,0.049,294.000,49.000,43.000,0.000,0.000,0.000,0.495,0.501,0.440,0.386,0.049,294.000,49.000,43.000,0.000,0.000,0.000: // measure 0
0000
0000
0000
0000
,  // measure 1
0000
0000
0000
0000
,  // measure 2
0000
0000
0000
0000
,  // measure 3
0000
0000
0000
0000
,  // measure 4
0000
0000
0000
0000
,  // measure 5
0000
0000
0000
0000
,  // measure 6
0000
0000
0000
0000
,  // measure 7
0000
0000
0000
0000
,  // measure 8
1000
1100
0101
1001
,  // measure 9
0002
0000
0013
0010
0200
0000
1300
0000
,  // measure 10
0001
1010
0011
1001
,  // measure 11
2000
0000
3010
0010
0200
0000
0301
0000
,  // measure 12
1000
0000
0101
0000
1100
0000
0001
1000
,  // measure 13
0002
0000
0013
0000
0100
1000
0001
0000
,  // measure 14
2000
0010
0100
3100
,  // measure 15
0002
0000
0000
0000
1003
0000
0001
0100
0001
0000
0010
0000
0100
0000
1000
0000
,  // measure 16
0001
1100
0110
0011
,  // measure 17
2000
0000
3010
0010
0002
0000
0013
0000
,  // measure 18
1000
0011
0110
1100
,  // measure 19
0002
0000
0103
0100
2000
0000
3100
0000
,  // measure 20
1000
0000
1001
0000
1000
0100
0000
0001
,  // measure 21
0100
0000
1000
0020
0000
0230
0000
0301
,  // measure 22
0002
0010
0100
1003
,  // measure 23
2000
0000
0010
0000
0100
0000
3001
1000
,  // measure 24
0001
0100
0010
1000
0010
0100
0001
1000
,  // measure 25
0001
0010
0100
1000
0001
0000
1000
0010
,  // measure 26
0200
0000
0010
0010
0301
0000
1001
0000
,  // measure 27
0020
0000
0100
0100
1030
0000
1001
0000
,  // measure 28
1000
0010
0100
0001
1000
0001
0000
0001
,  // measure 29
0000
0010
0100
1000
2100
0000
3001
0000
,  // measure 30
2000
0000
3010
0002
0000
0013
0000
0011
,  // measure 31
0000
1010
0000
1100
0000
1000
0100
0020
,  // measure 32
0000
0000
0001
0000
0000
0000
0130
0000
0000
0000
0010
0001
0010
0001
0010
0001
,  // measure 33
0020
0000
0130
0000
1000
0010
0100
0001
,  // measure 34
2000
0000
0010
0010
3100
0000
1001
0000
,  // measure 35
0001
0010
1000
0010
0120
0000
1030
0000
,  // measure 36
0001
0100
0000
0010
1000
0010
0100
0002
,  // measure 37
0000
0013
0100
1000
2100
0000
3001
0000
,  // measure 38
2000
0000
3100
0002
0000
0103
0000
0101
,  // measure 39
0000
1100
0000
1010
0000
0110
0000
0100
,  // measure 40
0002
0010
0100
0103
,  // measure 41
1000
0000
0010
0000
0010
0000
0100
0000
0001
0000
0001
0000
1000
0001
1000
0001
,  // measure 42
2000
0000
0010
0010
3100
0000
1001
0000
,  // measure 43
0001
0100
1000
0100
0102
0000
1003
0000
,  // measure 44
0001
0010
0000
0100
1000
0010
0100
0001
,  // measure 45
1000
0100
0010
0001
0012
0000
1003
0000
,  // measure 46
0002
0000
0103
2000
0000
3100
0000
1100
,  // measure 47
0000
0101
0000
1001
0000
0001
0010
0200
,  // measure 48
0000
0000
1000
0000
0000
0000
0310
0000
0000
0000
0100
1000
0100
1000
0100
1000
,  // measure 49
0100
0000
0010
0000
0010
0000
0001
0000
0001
0000
1000
0000
0001
1000
0001
1000
,  // measure 50
0002
0000
0010
0010
0103
0000
1001
0000
,  // measure 51
2000
0000
0010
0010
3100
0000
1001
0000
,  // measure 52
1000
0100
0000
0001
0100
0010
0001
0011
,  // measure 53
0000
1100
0000
0101
0000
1010
0000
0000
,  // measure 54
0002
0000
0013
2000
0000
3010
0000
0011
,  // measure 55
0000
0101
0000
0110
0000
1010
0000
1000
,  // measure 56
0002
0000
0010
0000
0100
0000
1003
0001
,  // measure 57
1000
0010
0100
0001
1000
1000
0001
0001
,  // measure 58
0101
0000
1000
1100
0000
0001
1002
0000
,  // measure 59
0010
0010
0013
1001
,  // measure 60
0001
0100
0100
0010
1000
0001
2002
0000
,  // measure 61
0000
0000
0000
0000
,  // measure 62
3003
0000
0000
0000
;

//---------------dance-single - Blank----------------
#NOTES:
     dance-single:
     :
     Easy:
     3:
     0.237,0.250,0.090,0.108,0.000,163.000,10.000,12.000,0.000,0.000,0.000,0.237,0.250,0.090,0.108,0.000,163.000,10.000,12.000,0.000,0.000,0.000:
0000
0000
0000
0000
,
0000
0000
0000
0000
,
0000
0000
0000
0000
,
0000
0000
0000
0000
,
0000
0000
0000
0000
,
0000
0000
0000
0000
,
0000
0000
0000
0000
,
0000
0000
0000
0000
,
1000
0000
0100
0000
,
0010
0010
0001
0000
,
1000
0000
0010
0000
,
0100
0100
0001
0000
,
1000
0000
0001
0000
,
0010
0010
0100
0100
,
1000
0000
0001
0000
,
0100
0100
0010
0010
,
1000
0000
0001
0000
,
0100
0010
0100
0000
,
0001
0000
1000
0000
,
0010
0100
0010
0000
,
1000
0000
0001
0000
,
1000
0100
0010
0001
,
1000
0000
1000
0000
,
0001
0000
0001
0000
,
1000
0010
0100
0001
,
1000
0001
1001
0000
,
0001
0010
0100
0100
,
1000
0010
0100
0100
,
0001
1000
0010
0100
,
0001
1000
0010
0010
,
1010
0000
0101
0000
,
0001
0010
0100
1000
,
0002
0000
0003
1000
,
2000
3000
0002
0003
,
1000
0100
0010
0010
,
0001
0100
0010
0010
,
1000
0001
0100
0010
,
1000
0001
0100
0100
,
0101
0000
1010
0000
,
1000
0100
0010
0001
,
2000
3000
0002
0003
,
1000
0010
0100
1001
,
0001
0010
0100
0100
,
1000
0010
0100
0100
,
0001
1000
0010
0100
,
0001
1000
0010
0010
,
1010
0000
0101
0000
,
0001
0010
0100
1000
,
0002
0000
0003
1000
,
2000
3000
0002
0003
,
1000
0100
0010
0010
,
0001
0100
0010
0010
,
1000
0001
0100
0010
,
1000
0001
0100
0100
,
0101
0000
1010
0000
,
1000
0100
0010
0001
,
2000
3000
0002
0003
,
1000
0100
0010
0001
,
1000
0000
0000
0010
0000
0000
0200
0000
,
0000
0000
0300
0000
,
0001
0000
0000
0010
0000
0000
0200
0000
,
0000
0000
0000
0000
,
0300
0000
0000
0000
;

//---------------dance-single - Blank----------------
#NOTES:
     dance-single:
     :
     Medium:
     5:
     0.363,0.390,0.144,0.386,0.000,224.000,16.000,43.000,0.000,0.000,0.000,0.363,0.390,0.144,0.386,0.000,224.000,16.000,43.000,0.000,0.000,0.000:
0000
0000
0000
0000
,
0000
0000
0000
0000
,
0000
0000
0000
0000
,
0000
0000
0000
0000
,
0000
0000
0000
0000
,
0000
0000
0000
0000
,
0000
0000
0000
0000
,
0000
0000
0000
0000
,
1000
0100
0010
0001
,
1000
0000
0010
0100
0020
0000
1030
0000
,
0001
0010
0100
1000
,
0001
0000
0100
0010
0200
0000
0301
0000
,
1000
0100
0001
0100
,
1000
0010
0001
0010
,
1000
0100
0001
0010
,
1000
0000
0001
0000
1000
0100
0010
0001
,
1000
0010
0001
0010
,
0100
0000
0001
1000
0002
0000
0103
0000
,
0001
0010
1000
0010
,
0100
0000
1000
0001
2000
0000
3100
0000
,
1000
0010
0001
0010
,
1000
0100
0001
0100
,
1000
0010
0001
0100
,
1000
0000
0010
0000
0100
0000
0001
1000
,
0000
0000
0000
0000
,
0000
0000
0000
0000
1000
0001
1000
0000
,
0001
0100
0010
1010
,
1000
0100
0010
0011
,
0001
0010
0100
1000
,
0010
0100
0010
0100
0002
0000
1003
0000
,
0002
0013
2000
3010
,
0002
0203
2300
3020
,
0032
0000
0100
0000
0103
0000
0001
1000
,
0200
0310
0002
1003
,
0001
0010
0100
1100
,
1000
0010
0100
0101
,
0001
0100
0010
1000
,
0100
0010
0100
0010
0002
0000
1003
0000
,
0002
0103
2000
3100
,
0002
0023
2030
3200
,
0302
0010
0013
0001
,
1000
1000
0001
0000
1000
0010
0100
0001
,
1000
0010
0100
0101
,
0001
0010
0100
1100
,
1000
0100
0010
0001
,
0100
0010
0100
0010
2000
0000
3001
0000
,
2000
3100
0002
0103
,
2000
3020
0032
0203
,
2300
0000
0010
0000
3010
0000
1000
0001
,
0020
0130
2000
3001
,
1000
0100
0010
0011
,
0001
0100
0010
1010
,
1000
0010
0100
0001
,
1100
1100
0101
0101
,
2000
3010
0002
0013
,
2000
3200
0302
0023
,
2030
0100
3100
1000
,
0001
0001
1000
0000
0010
0010
0100
0000
,
0101
0000
0000
1010
0000
0000
2002
0000
,
0000
0000
0000
3003
,
1000
0100
0100
0010
0001
0000
2002
0000
,
0000
0000
0000
0000
,
3003
0000
0000
0000
;
