#TITLE:milky ice bear;
#SUBTITLE:;
#ARTIST:S-C-U;
#TITLETRANSLIT:;
#SUBTITLETRANSLIT:;
#ARTISTTRANSLIT:;
#GENRE:;
#CREDIT:;
#BANNER:milky ice bear.png;
#BACKGROUND:milky ice bear-bg.png;
#LYRICSPATH:;
#CDTITLE:;
#MUSIC:milky ice bear.mp3;
#OFFSET:-0.107000;
#SAMPLESTART:68.639999;
#SAMPLELENGTH:12.000000;
#SELECTABLE:YES;
#BPMS:0.000000=147.000000
;
#STOPS:
;
#BGCHANGES:;
#KEYSOUNDS:;
#ATTACKS:;

//---------------dance-single - Blank----------------
#NOTES:
     dance-single:
     :
     Hard:
     8:
     0.607930,0.634270,0.252446,0.126223,0.441780,472.000000,444.000000,28.000000,14.000000,0.000000,0.000000,0.607930,0.634270,0.252446,0.126223,0.441780,472.000000,444.000000,28.000000,14.000000,0.000000,0.000000:
0000
0000
0000
0000
,
0000
0000
0000
0000
,
0000
0000
0000
0000
,
0000
0000
0000
0000
,
0000
0000
0000
0000
,
0000
0000
0000
0000
,
0000
0000
0000
0000
,
0000
0000
0001
0000
1000
0000
0010
0100
0000
0010
0100
0000
0001
0000
1000
0000
,
0001
0000
0010
0000
0100
0000
1000
0100
0000
0100
1000
0000
0100
0000
0010
0000
,
0001
0000
0100
0000
0010
0000
1000
0010
0000
0010
1000
0000
0010
0000
0100
0000
,
0001
0000
0100
0000
1000
0000
0100
0010
0000
0010
0100
0000
0001
0000
1000
0000
,
0001
0000
0010
0000
1000
0000
0010
0100
0000
0100
0010
0000
0001
0000
1000
0000
,
0001
0000
0100
0000
0010
0000
1000
0010
0000
1000
0010
0000
0100
0000
0001
0000
,
1000
0000
0100
0000
0010
0000
0001
0010
0000
0001
0010
0000
0100
0000
1000
0000
,
0001
0000
0100
0000
0010
0000
1000
0001
0000
1000
0001
0000
0010
0000
0100
0000
,
0000
1000
0100
0001
1000
0010
0001
2000
,
0100
0000
0000
3100
0000
0000
0020
0000
0001
0000
0000
0031
0000
0000
2000
0000
,
0010
0000
0000
3010
0000
0000
0200
0000
0001
0000
0000
0301
0000
0000
2000
0000
,
0001
0000
0000
3001
0000
0000
0020
0000
0100
0000
0000
0130
0000
0000
2000
0000
,
0001
0000
0000
3001
0000
0000
0200
0000
0010
0000
0000
0310
0000
0000
1000
0000
,
0001
0000
0000
0001
0010
0000
0001
0000
1000
0000
0000
1000
0010
0000
1000
0000
,
0001
0000
0000
0001
0100
0000
0001
0000
1000
0000
0000
1000
0100
0000
1000
0000
,
0001
0000
0000
0010
0100
0000
1000
0000
0001
0000
0000
0100
0010
0000
1000
0000
,
1010
0000
0000
0101
0000
0000
0011
0000
0000
1100
0000
0000
2002
3003
0000
0000
,
1000
0000
0010
0000
0100
0001
0000
0100
0001
0000
1000
0010
0000
1000
0010
0000
,
1000
0000
1000
0000
0001
0000
0001
0000
0010
0000
0000
0100
0000
0000
1001
0000
,
0000
0000
0100
0000
0000
0010
1000
0001
,
0010
0000
0010
0000
0100
0000
0100
0000
1000
0000
0000
0001
0000
0000
1001
0000
,
0000
0000
0100
0000
0010
1000
0000
0010
1000
0000
0001
0100
0000
0001
0100
0000
,
0001
0000
0001
0000
1000
0000
1000
0000
0100
0000
0000
0010
0000
0000
1001
0000
,
0000
0010
0000
0100
,
0001
0100
0010
1000
0000
0001
1001
0000
,
0000
0000
0001
0010
0001
0000
0010
0100
0000
0100
0010
0000
0001
0000
1000
0000
,
0001
0000
0100
0000
0010
0000
1000
0100
0000
0100
1000
0000
0000
0000
0000
0000
,
0000
0000
0001
0000
0100
0000
0010
1000
0000
1000
0010
0000
0100
0000
0001
0000
,
1000
0000
0100
0000
0010
0000
0001
0010
0000
0010
0001
0000
1000
0000
0010
0000
,
0000
0000
1000
0000
0100
0000
0001
0100
0000
0100
0001
0000
0100
0000
1000
0000
,
0001
0000
0010
0000
1000
0000
0010
0001
0000
0001
1000
0000
0000
0000
0000
0000
,
0000
0000
0001
0000
0100
0000
0010
1000
0000
0001
0100
0000
0010
0000
1000
0000
,
0000
0000
0001
0000
0010
0000
0100
1000
0000
0001
0010
0000
0100
0000
1000
0000
,
0001
0000
0100
0000
1000
0000
0100
0010
0000
1000
0001
0000
0010
0000
0120
0000
,
0000
0000
0031
0000
1000
1000
0001
0100
,
0001
0000
0001
0000
0010
0000
0010
0000
0100
0000
0000
1000
0000
0000
1001
0000
,
0000
0000
1000
0000
0010
0000
0000
0000
0101
0000
0000
1100
0000
0000
1001
0000
,
0000
0000
1000
0000
0100
0000
0010
0001
0000
0001
1000
0000
0010
0000
0100
0000
,
0001
0010
1000
0010
0000
2001
0000
3100
,
0000
0000
1000
0000
1010
0000
0000
0000
0011
0000
0000
1100
0000
0000
1001
0000
,
0000
1000
0010
0000
0100
0000
0001
0100
0000
0100
0001
0000
0010
0000
0100
0000
,
1000
0000
0100
0000
0001
0000
0100
0010
0000
0010
0100
0000
1000
0000
0001
0000
,
0000
1000
0010
0001
1000
0100
0001
1000
,
0001
0000
0001
0000
0100
0000
0100
0000
0010
0000
0000
1000
0000
0000
1001
0000
,
0000
0000
1000
0000
0100
0000
0000
0000
0011
0000
0000
1010
0000
0000
1001
0000
,
0000
0000
1000
0000
0010
0000
0100
0001
0000
0001
1000
0000
0100
0000
0010
0000
,
0001
0100
1000
0100
0000
2001
0000
3010
,
0000
0000
1000
0000
1100
0000
0000
0000
0101
0000
0000
1010
0000
0000
1001
0000
,
0000
1000
0100
0000
0010
0000
0001
0010
0000
0010
0001
0000
0100
0000
0010
0000
,
1000
0000
0010
0000
0001
0000
0010
0100
0000
0100
0010
0000
1000
0000
0001
0000
,
0000
0000
1000
0000
0001
0000
0100
0010
0000
0100
0010
0000
1000
0000
0001
0000
,
1000
0000
0100
0000
0010
0000
0001
0010
0000
0010
0001
0000
0010
0000
0100
0000
,
1000
0000
0010
0000
0100
0000
0001
0100
0000
0100
0001
0000
0100
0000
0010
0000
,
1000
0000
0010
0000
0001
0000
0010
0100
0000
0100
0010
0000
1000
0000
0001
0000
,
1000
0000
0100
0000
0001
0000
0100
0010
0000
0010
0100
0000
1000
0000
0001
0000
,
1000
0000
0010
0000
0100
0000
0001
0100
0000
0001
0100
0000
0010
0000
1000
0000
,
0001
0000
0010
0000
0100
0000
1000
0100
0000
1000
0100
0000
0010
0000
0001
0000
,
1000
0000
0010
0000
0100
0000
0001
1000
0000
0001
1000
0000
0100
0000
0010
0000
,
0000
0001
0010
1000
0001
0100
1000
0002
,
0000
0000
0000
0000
,
0003
0000
0000
0000
;

//---------------dance-single - ----------------
#NOTES:
     dance-single:
     :
     Easy:
     4:
     0.285933,0.302033,0.099175,0.126223,0.000000,222.000000,211.000000,11.000000,14.000000,0.000000,0.000000,0.285933,0.302033,0.099175,0.126223,0.000000,222.000000,211.000000,11.000000,14.000000,0.000000,0.000000:
0000
0000
0000
0000
,
0000
0000
0000
0000
,
0000
0000
0000
0000
,
0000
0000
0000
0000
,
0000
0000
0000
0000
,
0000
0000
0000
0000
,
0000
0000
0000
0000
,
0000
0000
0000
0000
,
1000
0010
1000
1000
,
0001
0010
0001
0001
,
1000
0001
1000
1000
,
0001
0100
0010
1001
,
0001
0100
0001
0001
,
1000
0100
1000
1000
,
0001
1000
0001
0001
,
0000
0010
0100
1000
,
0002
0003
0020
0030
,
0200
0300
2000
3000
,
0002
0003
0200
0300
,
0020
0030
2000
3000
,
0001
0001
0001
0001
,
1000
1000
1000
1000
,
0010
0010
0010
0010
,
0100
0100
0100
1001
,
0000
0001
0010
0100
,
1000
1000
0001
0001
,
0200
0300
0020
0030
,
1000
0001
1000
1001
,
0000
0001
0010
0100
,
1000
1000
0001
0001
,
0200
0300
0020
0030
,
1000
0001
1000
1001
,
0000
0001
0010
1000
,
0010
0001
1000
1000
,
0000
0001
0100
1000
,
0100
0001
1000
1001
,
0000
1000
0100
0001
,
0100
1000
0001
0001
,
0000
1000
0010
0001
,
0000
1000
0100
0001
,
0010
0100
1000
0001
,
2000
0000
3000
1001
,
1000
1000
0010
0010
,
0100
0100
0001
0001
,
1000
0100
0001
0100
,
1000
0001
1000
1001
,
0001
0001
0010
0010
,
0100
0100
1000
1000
,
0001
0010
1000
0010
,
0001
1000
0001
1001
,
1000
1000
0010
0010
,
0001
0001
0100
0100
,
0001
0010
1000
0100
,
0010
0001
1000
1001
,
0001
0001
0100
0100
,
1000
1000
0010
0010
,
1000
0100
0001
0010
,
0001
0100
1000
1001
,
0001
0010
0100
0100
,
1000
0010
0100
0100
,
0001
0100
0010
0010
,
1000
0100
0010
1001
,
0001
0010
1000
1000
,
0001
0100
1000
1000
,
0001
0100
1000
1000
,
0001
0000
0010
0000
1000
0000
0001
0002
,
0000
0000
0000
0000
,
0003
0000
0000
0000
;

//---------------dance-single - ----------------
#NOTES:
     dance-single:
     :
     Medium:
     6:
     0.408292,0.453050,0.153271,0.270477,0.085651,317.000000,300.000000,17.000000,30.000000,0.000000,0.000000,0.408292,0.453050,0.153271,0.270477,0.085651,317.000000,300.000000,17.000000,30.000000,0.000000,0.000000:
0000
0000
0000
0000
,
0000
0000
0000
0000
,
0000
0000
0000
0000
,
0000
0000
0000
0000
,
0000
0000
0000
0000
,
0000
0000
0000
0000
,
0000
0000
0000
0000
,
0000
1000
0010
0000
0100
0000
1001
0000
,
0001
0010
0001
0000
0020
0000
0130
0000
,
1000
0010
1000
0000
0020
0000
0130
0000
,
0001
0100
0001
0000
0200
0000
0310
0000
,
1000
0100
1000
0000
0200
0000
0310
0000
,
0001
0010
0100
0000
2000
0000
3001
0000
,
1000
0010
0100
0000
0002
0000
1003
0000
,
0001
0010
1000
0000
0001
0100
1000
0001
,
0000
0100
0100
0000
0020
0000
1030
0000
,
0001
0000
0000
0001
0000
0000
0000
0000
0010
0000
0000
0010
0000
0000
0000
0000
,
0100
0000
0000
0100
0000
0000
0000
0000
1000
0000
0000
1000
0000
0000
0000
0000
,
0001
0000
0000
0001
0000
0000
0000
0000
1000
0000
0000
1000
0000
0000
0000
0000
,
0010
0000
0000
0010
0000
0000
0000
0000
0100
0000
0000
0100
0000
0000
0000
0000
,
0001
0000
0000
0001
0000
0000
0001
0000
0010
0000
0000
0010
0000
0000
0010
0000
,
0100
0000
0000
0100
0000
0000
0100
0000
1000
0000
0000
1000
0000
0000
1000
0000
,
0001
0000
0000
0001
0000
0000
0001
0000
1000
0000
0000
1000
0000
0000
1000
0000
,
0010
0000
0000
0010
0000
0000
0010
0000
0000
0010
0000
0000
2002
0000
3003
0000
,
1000
0010
0100
0001
,
1000
0000
1000
0000
0100
0000
0100
0000
0010
0000
0000
0001
0000
0000
1001
0000
,
0000
0010
0000
0100
,
0001
0000
0001
0000
0010
0000
0010
0000
1000
0000
0000
0010
0000
0000
1001
0000
,
0001
0100
0010
1000
,
0001
0000
0001
0000
0010
0000
0010
0000
0100
0000
0000
1000
0000
0000
1001
0000
,
0000
0100
0000
0010
,
1000
1000
0100
0100
0000
0010
1001
0000
,
0002
0100
1000
0103
,
0001
0010
0100
1000
0001
0001
0000
0000
,
2000
0100
0001
3100
,
1000
0010
0100
0001
1000
1000
0001
0001
,
0020
0100
1000
0031
,
0010
0001
0100
0010
1000
0100
0000
0000
,
0010
0102
0010
0013
,
0100
2100
0010
3010
,
1000
0010
0100
0001
0100
0010
1000
0002
,
0000
0000
0003
1001
,
0001
0001
0010
0010
0200
0000
1300
0000
,
0001
0001
1000
0000
1010
0000
0101
0000
,
2000
0100
0010
3001
,
1000
0010
0001
0010
0100
0000
1001
0000
,
0001
0010
0200
0000
1000
0000
0301
0000
,
0100
0010
0001
0000
1000
0000
1001
0000
,
0001
0100
0010
1000
0010
0100
0001
2000
,
0000
0100
0010
3001
,
1000
1000
0100
0100
0020
0000
0031
0000
,
1000
1000
0001
0000
0101
0000
1010
0000
,
0002
0010
0100
1003
,
0001
0100
1000
0100
0010
0000
1001
0000
,
1000
0100
0020
0000
0001
0000
1030
0000
,
0010
0100
1000
0000
0001
0000
1001
0000
,
1000
0010
0100
0001
0100
0010
1000
0002
,
0000
0010
0100
1003
,
0001
0100
0001
0000
0200
0000
0310
0000
,
1000
0100
1000
0000
0200
0000
0310
0000
,
0001
0010
0001
0000
0020
0000
0130
0000
,
1000
0010
1000
0000
0020
0000
0130
0000
,
0001
0100
0010
0000
2000
0000
3001
0000
,
1000
0100
0010
0000
0002
0000
1003
0000
,
0001
0100
1000
0000
0001
0010
1000
0001
,
0000
0000
1000
0010
0001
0010
1000
0001
,
2000
0000
0000
0000
,
3000
0000
0000
0000
;

//---------------dance-double - ----------------
#NOTES:
     dance-double:
     :
     Hard:
     9:
     0.627250,0.664473,0.324573,0.108191,0.482351,487.000000,451.000000,36.000000,12.000000,0.000000,0.000000,0.627250,0.664473,0.324573,0.108191,0.482351,487.000000,451.000000,36.000000,12.000000,0.000000,0.000000:
// measure 0
00000000
00000000
00000000
00000000
,  // measure 1
00000000
00000000
00000000
00000000
,  // measure 2
00000000
00000000
00000000
00000000
,  // measure 3
00000000
00000000
00000000
00000000
,  // measure 4
00000000
00000000
00000000
00000000
,  // measure 5
00000000
00000000
00000000
00000000
,  // measure 6
00000000
00000000
00000000
00000000
,  // measure 7
00000000
00000000
00000001
00000000
00000010
00000000
00000100
00001000
00000000
00000001
00001000
00000000
00000010
00000000
00000100
00000000
,  // measure 8
00000001
00000000
00000010
00000000
00000100
00000000
00001000
00000010
00000000
00000010
00001000
00000000
00000100
00000000
00010000
00000000
,  // measure 9
00001000
00000000
00100000
00000000
00010000
00000000
01000000
00010000
00000000
00010000
01000000
00000000
00100000
00000000
10000000
00000000
,  // measure 10
00010000
00000000
00100000
00000000
10000000
00000000
00100000
01000000
00000000
01000000
10000000
00000000
00001000
00000000
00010000
00000000
,  // measure 11
00000010
00000000
00000100
00000000
00000001
00000000
00001000
00000100
00000000
00000010
00000001
00000000
00001000
00000001
00001000
00000001
,  // measure 12
00001000
00000000
00000001
00000000
00000100
00000000
00001000
00000100
00000000
00001000
00010000
00000000
00100000
00000000
10000000
00000000
,  // measure 13
00010000
00000000
01000000
00000000
10000000
00000000
01000000
00010000
00000000
01000000
00100000
00000000
10000000
00000000
00010000
00000000
,  // measure 14
10000000
00000000
01000000
00000000
00010000
00000000
00001000
00010000
00000000
01000000
00100000
00000000
00001000
00000000
00010000
00000000
,  // measure 15
00000000
00000010
00000100
00000001
00001000
00000100
00000010
00000001
,  // measure 16
00001002
00000000
00000000
00000010
00000000
00000000
00000010
00000000
00000100
00000000
00000000
00000100
00000003
00000000
00000001
00000000
,  // measure 17
00002000
00000000
00000000
00000010
00000000
00000000
00000010
00000000
00000100
00000000
00000000
00000100
00003000
00000000
00001000
00000000
,  // measure 18
00000200
00000000
00000000
00010000
00000000
00000000
00010000
00000000
00001000
00000000
00000000
00001000
00000300
00000000
00000100
00000000
,  // measure 19
00020000
00000000
00000000
00001000
00000000
00000000
00001000
00000000
00100000
00000000
00000000
00100000
00030000
00000000
01000000
00000000
,  // measure 20
00010000
00000000
00000000
00010000
00100000
00000000
00010000
00000000
10000000
00000000
00000000
10000000
00100000
00000000
10000000
00000000
,  // measure 21
00010000
00000000
00000000
00010000
01000000
00000000
00010000
00000000
10000000
00000000
00000000
10000000
01000000
00000000
10000000
00000000
,  // measure 22
00010000
00000000
00000000
01000000
00100000
00000000
00010000
00000000
00001000
00000000
00000000
00000100
00000010
00000000
00001000
00000000
,  // measure 23
00001010
00000000
00000000
00000101
00000000
00000000
00000011
00000000
00000000
00001100
00000000
00000000
00002002
00003003
00000000
00000000
,  // measure 24
00000001
00000000
00000010
00000000
00000100
00001000
00000000
00000100
00001000
00000000
00000010
00010000
00000000
00000010
00010000
00000000
,  // measure 25
00001000
00000000
00001000
00000000
00100000
00000000
00100000
00000000
00010000
00000000
00000000
10000000
00000000
00000000
10010000
00000000
,  // measure 26
00000000
00000000
00100000
00000000
00000000
01000000
00010000
10000000
,  // measure 27
01000000
00000000
01000000
00000000
00100000
00000000
00100000
00000000
00110000
00000000
00000000
10100000
00000000
00000000
10010000
00000000
,  // measure 28
00000000
00000000
01000000
00000000
00100000
00010000
00000000
00100000
00010000
00000000
01000000
00001000
00000000
01000000
00001000
00000000
,  // measure 29
00010000
00000000
00010000
00000000
00000100
00000000
00000100
00000000
00001000
00000000
00000000
00000001
00000000
00000000
00001001
00000000
,  // measure 30
00000000
00000010
00000000
00000100
,  // measure 31
00000001
00000010
00000100
00001000
00000000
00001100
00010100
00000000
,  // measure 32
00000000
00000000
00001000
00100000
00001000
00000000
00100000
00010000
00000000
00010000
10000000
00000000
00100000
00000000
01000000
00000000
,  // measure 33
00010000
00000000
00100000
00000000
10000000
00000000
00100000
00001000
00000000
00001000
00010000
00000000
00000000
00000000
00000000
00000000
,  // measure 34
00000000
00000000
00000100
00000000
00001000
00000000
00000010
00000001
00000000
00000001
00000010
00000000
00000100
00000000
00000001
00000000
,  // measure 35
00001000
00000000
00000100
00000000
00000010
00000000
00001000
00000010
00000000
00000010
00000001
00000000
00010000
00000000
00001000
00000000
,  // measure 36
00000000
00000000
10000000
00000000
00100000
00000000
01000000
00001000
00000000
00001000
00100000
00000000
00010000
00000000
10000000
00000000
,  // measure 37
00100000
00000000
01000000
00000000
00001000
00000000
00010000
00000100
00000000
00000100
00000010
00000000
00000000
00000000
00000000
00000000
,  // measure 38
00000000
00000000
00000001
00000000
00000100
00000000
00001000
00000100
00000000
00000100
00000010
00000000
00010000
00000000
00001000
00000000
,  // measure 39
00000000
00000000
10000000
00000000
00100000
00000000
00010000
00100000
00000000
00100000
01000000
00000000
00001000
00000000
00010000
00000000
,  // measure 40
00000001
00000000
00000100
00000000
00001000
00000000
00010000
00100000
00000000
10000000
00010000
00000000
10000000
00000000
10020000
00000000
,  // measure 41
00000000
00000000
00000000
00000000
00100000
00000000
00000000
01000000
00000000
01030000
00000000
00000000
00010000
00000000
10000000
00000000
,  // measure 42
00010000
00000000
00010000
00000000
00100000
00000000
00100000
00000000
11000000
00000000
00000000
01010000
00000000
00000000
20010000
00000000
,  // measure 43
00000000
00000000
00100000
00000000
30100000
00000000
00000000
00000000
10100000
00000000
00000000
01010000
00000000
00000000
10010000
00000000
,  // measure 44
00000000
00000000
10000000
00000000
01000000
00000000
00010000
00001000
00000000
00001000
00000100
00000000
00000001
00000000
00001000
00000000
,  // measure 45
00000001
00000010
00001000
00000010
00000000
00000120
00000000
00000031
,  // measure 46
00000000
00000000
00001000
00000000
00001010
00000000
00000000
00000000
00000101
00000000
00000000
00001100
00000000
00000000
00001001
00000000
,  // measure 47
00000000
00000001
00000010
00000000
00001000
00000000
00000010
00000100
00000000
00000100
00001000
00000000
00000010
00000000
00010000
00000000
,  // measure 48
00001000
00000000
01000000
00000000
10000000
00000000
01000000
00100000
00000000
00100000
10000000
00000000
00001000
00000000
00010000
00000000
,  // measure 49
00000000
00000001
00000100
00001000
00000100
00000010
00001000
00000001
,  // measure 50
00001000
00000000
00001000
00000000
00000100
00000000
00000100
00000000
00000011
00000000
00000000
00001010
00000000
00000000
00001002
00000000
,  // measure 51
00000000
00000000
00000100
00000000
00000103
00000000
00000000
00000000
00000101
00000000
00000000
00001010
00000000
00000000
00001001
00000000
,  // measure 52
00000000
00000000
00000001
00000000
00000010
00000000
00001000
00010000
00000000
00010000
00100000
00000000
10000000
00000000
00010000
00000000
,  // measure 53
10000000
01000000
00010000
01000000
00000000
02100000
00000000
13000000
,  // measure 54
00000000
00000000
00010000
00000000
01010000
00000000
00000000
00000000
10100000
00000000
00000000
00110000
00000000
00000000
10010000
00000000
,  // measure 55
00000000
10000000
01000000
00000000
00010000
00000000
01000000
00100000
00000000
00100000
00010000
00000000
01000000
00000000
00001000
00000000
,  // measure 56
00010000
00000000
00000010
00000000
00000001
00000000
00000010
00000100
00000000
00000100
00000001
00000000
00010000
00000000
00001000
00000000
,  // measure 57
00000000
00000000
10000000
00000000
00100000
00000000
00010000
00100000
00000000
00100000
10000000
00010000
10000000
01000000
00100000
00010000
,  // measure 58
10000000
00000000
00100000
00000000
01000000
00000000
00010000
00100000
00000000
00100000
00010000
00000000
01000000
00000000
00001000
00000000
,  // measure 59
00010000
00000000
00000010
00000000
00001000
00000000
00000100
00001000
00000000
00001000
00000100
00000000
00000010
00000000
00000001
00000000
,  // measure 60
00001000
00000000
00000010
00000000
00000001
00000000
00000010
00000100
00000000
00000100
00000001
00000000
00010000
00000000
00001000
00000000
,  // measure 61
00100000
00000000
01000000
00000000
10000000
00000000
00010000
01000000
00000000
00100000
10000000
00000000
00010000
10000000
00010000
10000000
,  // measure 62
00010000
00000000
10000000
00000000
01000000
00000000
00010000
01000000
00000000
00010000
00001000
00000000
00000010
00000000
00000001
00000000
,  // measure 63
00001000
00000000
00000100
00000000
00000001
00000000
00000100
00001000
00000000
00000100
00000010
00000000
00000001
00000000
00001000
00000000
,  // measure 64
00000001
00000000
00000100
00000000
00001000
00000000
00010000
00001000
00000000
00000100
00000010
00000000
00010000
00000000
00001000
00000000
,  // measure 65
00000000
00100000
01000000
10000000
00010000
01000000
00100000
20000000
,  // measure 66
00000000
00000000
00000000
00000000
,  // measure 67
30000000
00000000
00000000
00000000
;
