#TITLE:Alive;
#SUBTITLE:;
#ARTIST:Krewella;
#TITLETRANSLIT:;
#SUBTITLETRANSLIT:;
#ARTISTTRANSLIT:;
#GENRE:;
#CREDIT:;
#BANNER:Alive.png;
#BACKGROUND:Alive-bg.png;
#JACKET:Alive-jacket.png;
#LYRICSPATH:Alive.lrc;
#CDTITLE:cdtitle.png;
#MUSIC:Alive.ogg;
#OFFSET:0.000;
#SAMPLESTART:52.499;
#SAMPLELENGTH:15.000;
#SELECTABLE:YES;
#BPMS:0.000=64.000
,24.000=128.000
;
#STOPS:
;
#BGCHANGES:;
#KEYSOUNDS:;
#ATTACKS:;

//---------------dance-single - xRGTMx----------------
#NOTES:
     dance-single:
     xRGTMx-EXP:
     Hard:
     8:
     0.418,0.366,0.114,0.638,0.090,228.000,12.000,67.000,0.000,0.000,0.000,0.418,0.366,0.114,0.638,0.090,228.000,12.000,67.000,0.000,0.000,0.000: // measure 0
0000
0000
0000
0000
,  // measure 1
0000
0000
0000
0000
,  // measure 2
1000
0010
0010
0100
0200
0000
0302
0000
,  // measure 3
1003
0100
0100
0010
0002
1000
1003
0000
,  // measure 4
0001
0010
0010
0100
0200
0000
2300
0000
,  // measure 5
3001
0100
0100
0010
2000
0001
3001
0000
,  // measure 6
2001
0001
0100
3200
,  // measure 7
0001
0001
1000
1300
,  // measure 8
2000
3020
0032
0203
,  // measure 9
2300
3002
0203
0310
,  // measure 10
1002
1000
0010
0023
,  // measure 11
1000
1000
0001
0031
,  // measure 12
0002
0203
2300
3020
,  // measure 13
0032
2003
3020
0130
,  // measure 14
2001
3100
1001
0110
,  // measure 15
1000
1000
0001
0001
,  // measure 16
1002
0103
1001
0110
,  // measure 17
0001
0001
1000
1000
,  // measure 18
0001
0010
0100
0000
0001
0100
1000
0000
,  // measure 19
0010
0100
0110
1001
,  // measure 20
1000
0100
0010
0100
2000
0000
3002
0000
,  // measure 21
1003
0010
0100
0002
0020
0000
0003
0000
,  // measure 22
0130
0000
0000
0100
0000
0000
2000
0000
0000
0000
3001
0000
1000
0000
0001
0000
,  // measure 23
0100
0000
0000
0100
0000
0000
0002
0000
0000
0000
1003
0000
0001
0000
1000
0000
,  // measure 24
0010
0000
0000
0010
0000
0000
2000
0000
0000
0000
3001
0000
1000
0000
0001
0000
,  // measure 25
0010
0000
0000
0010
0000
0000
0002
0000
0000
0000
1003
0000
0001
0000
1000
0000
,  // measure 26
0010
0000
0000
0100
0000
0000
0002
0000
0000
0000
0013
0000
0100
0000
1000
0000
,  // measure 27
0001
0000
0000
0100
0000
0000
0020
0000
0000
0000
1030
0000
0001
0000
0010
0000
,  // measure 28
0010
0000
0000
0100
0000
0000
2000
0000
0000
0000
3010
0000
0100
0000
0001
0000
,  // measure 29
1000
0000
0000
0100
0000
0000
0020
0000
0000
0000
0031
0000
1000
0000
0010
0000
,  // measure 30
0200
0000
0000
0001
0000
0000
0302
0000
0000
0000
0000
0000
1003
0000
0000
0000
,  // measure 31
0002
0023
0230
2300
,  // measure 32
3020
0000
0000
1000
0000
0000
2030
0000
0000
0000
0000
0000
3001
0000
0000
0000
,  // measure 33
2000
3020
0230
0302
,  // measure 34
0023
0000
0000
0001
0000
0000
0032
0000
0000
0000
0000
0000
1003
0000
0000
0000
,  // measure 35
0002
0203
0320
2030
,  // measure 36
3100
0010
0100
0010
0001
1000
0001
1000
,  // measure 37
0020
2030
3001
0110
,  // measure 38
1001
0000
0000
1000
0000
0000
0200
0000
0000
0000
0310
0000
0001
0000
1000
0000
,  // measure 39
0001
0000
0000
0100
0000
0000
0020
0000
0000
0000
1030
0000
0001
0000
0100
0000
,  // measure 40
0001
0000
0000
0001
0000
0000
0200
0000
0000
0000
0310
0000
1000
0000
0001
0000
,  // measure 41
1000
0000
0000
0100
0000
0000
0020
0000
0000
0000
0031
0000
1000
0000
0100
0000
,  // measure 42
1000
0000
0000
1000
0000
0000
0020
0000
0000
0000
0130
0000
0001
0000
1000
0000
,  // measure 43
0001
0000
0000
0010
0000
0000
0200
0000
0000
0000
1300
0000
0001
0000
0100
0000
,  // measure 44
0001
0000
0000
0001
0000
0000
0020
0000
0000
0000
0130
0000
1000
0000
0001
0000
,  // measure 45
1000
0000
0000
0010
0000
0000
0200
0000
0000
0000
0301
0000
1000
0000
0010
0000
,  // measure 46
0200
0000
0000
0000
,  // measure 47
0000
0000
0000
0000
,  // measure 48
0300
0000
0000
0000
;

//---------------dance-single - Riakodoadm----------------
#NOTES:
     dance-single:
     Riakodoadm-DIF:
     Medium:
     5:
     0.259,0.273,0.352,0.152,0.000,137.000,37.000,16.000,0.000,0.000,0.000,0.259,0.273,0.352,0.152,0.000,137.000,37.000,16.000,0.000,0.000,0.000: // measure 0
0000
0000
0000
0000
,  // measure 1
0000
0000
0000
0000
,  // measure 2
1000
2000
3001
0002
,  // measure 3
0023
0030
0010
0100
,  // measure 4
0001
0002
1003
2000
,  // measure 5
3200
0300
0100
0010
,  // measure 6
1000
0000
0002
0003
,  // measure 7
0001
0000
2000
3000
,  // measure 8
0010
0000
0200
0300
,  // measure 9
0100
0000
0020
0030
,  // measure 10
1000
0000
0200
0300
,  // measure 11
0001
0000
0200
0300
,  // measure 12
1000
0000
0020
0030
,  // measure 13
0001
0000
0020
0030
,  // measure 14
1001
0000
1001
0000
,  // measure 15
0010
0100
0001
0100
,  // measure 16
1001
0000
1001
0000
,  // measure 17
0010
1000
0100
1000
,  // measure 18
0110
0000
0110
0000
,  // measure 19
0010
0001
1000
0100
,  // measure 20
0010
1000
0001
0100
,  // measure 21
1000
0100
0010
0001
,  // measure 22
1001
0000
0001
0000
,  // measure 23
1001
0000
1000
0000
,  // measure 24
1001
0000
0100
0000
,  // measure 25
1001
0000
0010
0000
,  // measure 26
1001
1000
1000
0000
,  // measure 27
1001
0001
0001
0000
,  // measure 28
1001
0010
0010
0010
,  // measure 29
1001
0100
0100
0100
,  // measure 30
1001
0000
1001
0000
,  // measure 31
0100
0010
1000
0010
,  // measure 32
1001
0000
1001
0000
,  // measure 33
0100
0010
0001
0010
,  // measure 34
0110
0000
0110
0000
,  // measure 35
0100
1000
0001
0010
,  // measure 36
0100
0001
1000
0010
,  // measure 37
0001
0100
0010
1000
,  // measure 38
1001
0001
1001
1000
,  // measure 39
1001
0100
1001
0010
,  // measure 40
1001
1000
1001
0001
,  // measure 41
1001
0010
1001
0100
,  // measure 42
0110
0100
0110
0010
,  // measure 43
0110
0001
0110
1000
,  // measure 44
0110
0010
0110
0100
,  // measure 45
0110
1000
0110
0001
,  // measure 46
2002
0000
0000
0000
,  // measure 47
0000
0000
0000
3003
;

//---------------dance-single - xRGTMx----------------
#NOTES:
     dance-single:
     xRGTMx-BAS:
     Easy:
     3:
     0.171,0.134,0.067,0.038,0.000,115.000,7.000,4.000,0.000,0.000,0.000,0.171,0.134,0.067,0.038,0.000,115.000,7.000,4.000,0.000,0.000,0.000: // measure 0
0000
0000
0000
0000
,  // measure 1
0000
0000
0000
0000
,  // measure 2
0001
0001
1000
0000
,  // measure 3
0100
0100
0010
0000
,  // measure 4
0001
1000
0001
0000
,  // measure 5
0010
0100
0010
0000
,  // measure 6
0001
0000
1000
0000
,  // measure 7
1000
0000
0000
0000
,  // measure 8
0100
0000
0010
0000
,  // measure 9
0010
0000
0000
0000
,  // measure 10
0001
0000
0010
0000
,  // measure 11
2000
3000
0000
0000
,  // measure 12
0001
0000
0100
0000
,  // measure 13
2000
3000
0000
0000
,  // measure 14
1001
0000
0100
0000
,  // measure 15
0010
1000
0001
0000
,  // measure 16
1001
0000
0100
0000
,  // measure 17
0010
0001
1000
0000
,  // measure 18
0110
0000
1000
0000
,  // measure 19
0001
1000
0001
0000
,  // measure 20
0100
0001
1000
0000
,  // measure 21
0100
1000
0001
0000
,  // measure 22
1000
1000
1000
0000
,  // measure 23
0001
0001
0001
0000
,  // measure 24
1000
1000
1000
0000
,  // measure 25
0001
0001
0001
0000
,  // measure 26
0100
0100
0100
0000
,  // measure 27
0010
0010
0010
0000
,  // measure 28
0100
0100
0100
0000
,  // measure 29
0010
0010
0010
0000
,  // measure 30
1001
0000
0010
0000
,  // measure 31
0100
1000
0001
0000
,  // measure 32
1001
0000
0010
0000
,  // measure 33
0100
0001
1000
0000
,  // measure 34
0110
0000
1000
0000
,  // measure 35
0001
1000
0001
0000
,  // measure 36
0010
0001
1000
0000
,  // measure 37
0010
1000
0001
0000
,  // measure 38
1000
1000
1000
0000
,  // measure 39
0001
0001
0001
0000
,  // measure 40
1000
1000
1000
0000
,  // measure 41
0001
0001
0001
0000
,  // measure 42
0010
0010
0010
0000
,  // measure 43
0100
0100
0100
0000
,  // measure 44
0010
0010
0010
0000
,  // measure 45
0100
0100
0100
0000
,  // measure 46
2002
0000
0000
0000
,  // measure 47
3003
0000
0000
0000
;

//---------------dance-single - xRGTMx----------------
#NOTES:
     dance-single:
     xRGTMx-BEG:
     Beginner:
     1:
     0.084,0.090,0.086,0.019,0.000,51.000,9.000,2.000,0.000,0.000,0.000,0.084,0.090,0.086,0.019,0.000,51.000,9.000,2.000,0.000,0.000,0.000: // measure 0
0000
0000
0000
0000
,  // measure 1
0000
0000
0000
0000
,  // measure 2
1000
0000
1000
0000
,  // measure 3
0001
0000
0000
0000
,  // measure 4
0001
0000
0001
0000
,  // measure 5
1000
0000
0000
0000
,  // measure 6
0100
0000
0000
0000
,  // measure 7
0000
0000
0000
0000
,  // measure 8
0010
0000
0000
0000
,  // measure 9
0000
0000
0000
0000
,  // measure 10
0001
0000
0000
0000
,  // measure 11
0000
0000
0000
0000
,  // measure 12
1000
0000
0000
0000
,  // measure 13
0000
0000
0000
0000
,  // measure 14
0010
0000
0010
0000
,  // measure 15
0010
0000
0000
0000
,  // measure 16
1000
0000
1000
0000
,  // measure 17
1000
0000
0000
0000
,  // measure 18
0001
0000
0001
0000
,  // measure 19
0001
0000
0000
0000
,  // measure 20
1000
0000
0001
0000
,  // measure 21
1000
0000
0000
0000
,  // measure 22
1001
0000
0000
0000
,  // measure 23
0100
0000
0000
0000
,  // measure 24
1001
0000
0000
0000
,  // measure 25
0100
0000
0000
0000
,  // measure 26
1001
0000
0000
0000
,  // measure 27
0010
0000
0000
0000
,  // measure 28
1001
0000
0000
0000
,  // measure 29
0010
0000
0000
0000
,  // measure 30
0010
0000
0010
0000
,  // measure 31
0010
0000
0000
0000
,  // measure 32
0001
0000
0001
0000
,  // measure 33
0001
0000
0000
0000
,  // measure 34
1000
0000
1000
0000
,  // measure 35
1000
0000
0000
0000
,  // measure 36
0001
0000
1000
0000
,  // measure 37
0001
0000
0000
0000
,  // measure 38
1001
0000
0000
0000
,  // measure 39
0100
0000
0000
0000
,  // measure 40
1001
0000
0000
0000
,  // measure 41
0100
0000
0000
0000
,  // measure 42
1001
0000
0000
0000
,  // measure 43
0010
0000
0000
0000
,  // measure 44
1001
0000
0000
0000
,  // measure 45
0010
0000
0000
0000
,  // measure 46
2002
0000
0000
0000
,  // measure 47
3003
0000
0000
0000
;
