
//----- song ID: tone -----//
#TITLE:Rescue Me;
#ARTIST:NAOKI feat. Fracus;
#BANNER:Rescue Me.png;
#BACKGROUND:Rescue Me-bg.png;
#CDTITLE:./CDTitles/DDR 2010.png;
#MUSIC:Rescue Me.ogg;
#SAMPLESTART:67.88;
#SAMPLELENGTH:15;
#BPMS:0=145;
#NOTES:
     dance-single:
     :
     Beginner:
     2:
     :
0000
0000
0000
0000
,
0000
0000
0000
0000
,
0000
0000
0000
0000
,
0000
0000
0000
0000
,
0000
0000
0000
0000
,
1000
0000
0100
0000
,
0001
0000
0100
0000
,
1000
0000
0100
0000
,
0001
0000
0000
0000
,
1000
0000
0000
0000
,
0100
0000
0000
0000
,
0001
0000
0000
0000
,
0010
0000
0000
0000
,
1000
0000
0000
0000
,
0100
0000
0000
0000
,
0001
0000
0000
0000
,
0010
0000
0000
0000
,
0010
0000
1000
0000
,
0010
0000
1000
0000
,
0001
0000
0100
0000
,
0001
0000
0100
0000
,
0010
0000
0100
0000
,
0010
0000
0100
0000
,
1000
0000
0001
0000
,
1000
0000
0001
0000
,
1000
0000
0000
0000
,
0001
0000
0000
0000
,
0010
0000
0000
0000
,
1000
0000
0000
0000
,
1000
0000
1000
0000
,
1000
0000
1000
0000
,
0010
0000
0100
0000
,
0001
0000
1000
0000
,
0100
0000
0000
0000
,
0100
0000
0000
0000
,
0001
0000
0000
0000
,
1000
0000
0000
0000
,
0010
0000
0000
0000
,
0100
0000
0000
0000
,
1000
0000
0000
0000
,
0001
0000
0000
0000
,
0001
0001
0001
0000
,
0100
0100
0100
0000
,
1000
1000
1000
0000
,
0010
0000
0000
0000
,
0001
0000
1000
0000
,
0001
0000
1000
0000
,
0001
0000
0010
0000
,
0100
0000
0000
0000
,
1000
1000
1000
0000
,
0100
0100
0100
0000
,
0001
0001
0001
0000
,
0010
0000
0000
0000
,
1000
0000
0001
0000
,
1000
0000
0001
0000
,
1000
0000
0010
0000
,
0100
0000
0001
0000
,
0100
0000
0000
0000
,
0000
0000
0000
0000
;
#NOTES:
     dance-single:
     :
     Easy:
     4:
     :
0000
0000
0000
0000
,
0000
0000
0000
0000
,
0000
0000
0000
0000
,
0000
0000
0000
0000
,
0000
0000
0000
0000
,
1001
0000
1000
0000
,
0100
0000
0001
0000
,
0100
0000
0010
0000
,
1000
0000
0000
0000
,
0001
0000
1000
0000
,
0001
1000
0001
0000
,
0010
0000
0100
0000
,
0010
0100
0010
0000
,
1000
0000
1000
0000
,
0001
0001
0001
0000
,
1000
0000
0100
0000
,
1000
1000
1000
0000
,
0001
0000
1000
0000
,
0010
1000
0100
0000
,
0010
0000
0100
0000
,
0001
1000
0100
0000
,
1000
0000
0100
0000
,
0010
0010
0001
0000
,
0001
0000
1000
0000
,
0100
0000
0000
0000
,
0001
0000
0001
0000
,
0001
0000
0001
0000
,
1000
0000
1000
0000
,
1000
0000
1000
0000
,
0001
1000
0000
0000
,
1000
0100
0000
0000
,
0001
0100
0000
0000
,
0010
0100
0000
0000
,
1000
0000
0000
0000
,
0100
0000
0000
0000
,
0001
0000
0000
0000
,
0100
0000
0000
0000
,
1000
0001
0000
0000
,
0001
1000
0000
0000
,
0001
0010
0100
1000
,
0001
0000
0000
0000
,
0001
0000
0000
0000
,
1000
0000
0000
0000
,
0100
0000
0000
0000
,
0010
0000
0000
0000
,
1000
0001
1000
0000
,
0010
1000
0010
0000
,
0001
0000
0001
0000
,
1000
1000
0001
0000
,
1000
0000
0000
0000
,
0001
0000
0000
0000
,
0100
0000
0000
0000
,
0010
0000
0000
0000
,
0001
1000
0001
0000
,
0010
0001
0010
0000
,
1000
0000
1000
0000
,
0010
1000
0001
0100
,
0001
0000
0000
0000
,
0000
0000
0000
0000
;
#NOTES:
     dance-single:
     :
     Medium:
     8:
     :
0000
0000
0000
0000
,
0000
0000
0000
0000
,
0000
0000
0000
0000
,
0000
0000
0000
0000
,
0000
0000
0000
0000
,
0010
0000
1100
0000
0001
1000
0100
0000
,
0010
0000
0101
0000
1000
0001
0100
0000
,
0010
0000
1001
0000
0001
1000
0001
0000
,
0010
0000
0010
0000
0100
1000
0001
0000
,
1000
0000
1000
1000
,
0010
0000
0001
0000
1000
0100
1000
0000
,
1000
0000
0001
0100
,
0010
0000
1000
0000
0010
0001
0010
0000
,
0010
0000
1000
0100
,
1000
0000
1000
0000
0001
0010
0100
0000
,
1000
1000
0000
0000
0010
0010
0000
0000
,
0100
0100
0000
0000
0001
1000
0010
0000
,
0010
0000
0000
0001
1000
0000
0100
0000
,
0000
1000
0000
0001
0010
0100
1000
0000
,
1000
0000
0000
0010
0100
0000
0001
0000
,
0000
0010
0000
0010
0100
1000
0001
0000
,
0001
0000
0100
0000
0010
1000
0100
0000
,
1000
0000
0100
0000
0010
0001
0100
0000
,
0001
1000
0100
0000
1000
0001
0100
0000
,
0010
1000
0100
0000
,
1000
0000
0000
0001
0001
0000
0000
0000
,
0001
0000
0000
0100
0100
0000
0000
0000
,
1000
0000
0000
0010
0010
0000
0000
0000
,
0100
0000
0000
1000
1000
0000
1000
0000
,
0010
1000
0100
0000
1000
0000
1100
0000
,
1000
0100
1000
0000
0001
0000
0101
0000
,
0010
0100
0001
0000
1000
0000
1100
0000
,
1000
1000
0001
0100
,
0010
0000
1000
0000
,
0001
0000
1000
1000
,
0010
0000
1000
0000
,
0100
0000
0001
0100
,
1000
0100
1000
0000
0001
0000
0100
0000
,
0100
1000
0100
0000
0001
0000
0010
0000
,
0100
0010
0001
0000
1000
0000
0010
0000
,
0001
0010
0100
0000
1000
0000
1000
0000
,
0001
1000
0001
1000
,
1000
0000
0001
0000
1000
0100
1000
0000
,
0010
0100
0010
0100
,
0100
0000
0010
0000
0010
1000
0010
0000
,
0010
1000
0100
0000
0001
0000
0100
0000
,
0010
1000
0100
0000
0001
0000
0100
0000
,
0010
0001
0100
0000
1000
0000
0100
0000
,
0010
0001
0100
0000
1000
0000
0100
0000
,
1000
0001
0100
0000
0010
0000
1000
0000
,
1000
0001
0100
0000
0010
0000
1000
0000
,
0001
1000
0100
0000
0010
0000
0001
0000
,
0001
1000
0100
0000
0010
0000
0001
0000
,
0010
1001
1000
0100
,
0010
1001
0001
0100
,
0010
1000
0100
0000
0010
1000
0100
0000
,
0010
0001
0100
0000
0010
1000
0001
0100
,
0001
0000
0000
0000
,
0000
0000
0000
0000
;
#NOTES:
     dance-single:
     :
     Hard:
     12:
     :
0000
0000
0000
0000
,
0000
0000
0000
0000
,
0000
0000
0000
0000
,
0000
0000
0000
0000
,
0000
0000
0000
0000
,
0010
1000
0100
0000
0010
1000
0100
0000
,
0001
1000
0100
0000
0010
0000
0101
0000
,
0001
1000
0100
0000
0100
1000
0001
0000
,
0000
0000
0010
0000
0000
0001
0000
0000
1000
0000
0100
0000
1000
0000
0000
0000
,
0010
0000
0000
0000
0000
0000
1000
0000
0001
0000
0000
0100
0000
0000
0100
0000
,
0010
0000
0000
0001
0000
0000
0100
0000
0001
0010
0000
0100
0000
0000
0000
0000
,
1000
0000
0000
0000
0000
0000
0001
0000
0100
0000
0000
1000
0000
0000
1000
0000
,
0100
0000
0000
0010
0000
0000
0100
0000
1000
0001
0000
0100
0000
0000
0000
0000
,
0010
0000
0000
0000
0000
0000
0100
0000
0010
0000
0000
1000
0000
0000
0100
0000
,
0001
0000
0000
0010
0000
0000
0100
0000
0001
1000
0000
0100
0000
0000
0000
0000
,
1000
0001
0000
0010
0001
0100
0000
1000
,
1000
0000
0000
0100
0000
0000
1000
0100
1000
0000
0000
0000
0010
0000
0000
0000
,
1100
0000
0000
0000
0000
0000
1000
0000
0100
0000
0000
0100
0000
0000
0010
0000
,
0000
0001
0000
0100
0000
1000
0100
0000
,
1000
0000
0010
0100
0000
0001
0010
0100
,
0000
0000
1000
0000
0000
0000
0001
0000
0100
0000
0000
0100
0000
0000
0001
0000
,
0010
0100
1000
0000
1000
0010
0100
0000
,
0010
0000
0001
0000
0100
0000
0000
0000
0001
1000
0000
0100
0000
0000
1000
0000
,
0001
0000
0000
0010
0000
0000
1000
0000
0100
0000
0000
0001
0000
0000
0100
0000
,
1000
0000
0000
0000
,
0001
0000
1000
0000
0000
0100
0000
0000
1000
0000
0000
0010
0000
0000
0100
0000
,
0001
0000
0010
0000
0000
0010
0000
0000
1000
0000
0000
0100
0000
0000
1000
0000
,
1000
0000
1000
0000
0000
0100
0000
0000
0010
0000
0000
0001
0000
0000
0010
0000
,
0100
0000
1000
0001
0000
0010
0000
0010
,
0000
0000
1000
0000
0000
0100
0000
0000
0001
0000
0000
1000
0000
0000
0100
0000
,
0000
0000
0100
0000
0000
1000
0000
0000
1000
0000
0000
1000
0000
0000
0100
0000
,
0000
0000
0010
0000
0000
0001
0000
0000
0100
0000
0000
1000
0000
0000
0100
0000
,
0100
0000
1000
0001
0000
1000
0000
0001
,
0100
0000
0000
0100
0000
0000
1000
0000
0100
0000
0000
0100
0000
0000
0010
0000
,
0001
0000
0000
1000
0000
0000
0100
0000
0010
0000
0000
0001
0000
0000
1000
0000
,
0100
0000
0000
0100
0000
0000
0010
0000
0001
0000
0000
0001
0000
0000
1000
0000
,
0100
0000
0000
0010
0000
0000
0001
0000
0001
0000
0000
1000
0000
0000
0100
0000
,
0010
0000
1000
0000
1000
0000
0000
0000
0001
1000
0000
1000
0000
0000
0000
0000
,
0010
0000
1000
0000
0100
0000
0000
0000
0010
1000
0000
1000
0000
0000
0000
0000
,
1000
0000
0010
0000
0100
0000
0000
0000
0001
0100
0000
0001
0000
0000
0000
0000
,
1000
0000
0100
0000
0000
0010
0000
0000
0001
0000
0100
0000
0010
0000
0000
0000
,
0100
0000
0001
0000
0010
0000
0000
0000
0100
0000
0000
0100
0000
0000
0000
0000
,
1000
0000
0010
0000
0100
0000
0000
0000
0001
0000
0000
0001
0000
0000
0000
0000
,
0001
0000
1000
0000
0100
0000
0000
0000
0010
0000
0000
0010
0000
0000
0000
0000
,
0100
0000
0010
0000
0001
0000
0000
0000
1000
0000
0000
1000
0000
0000
0000
0000
,
1001
0000
0100
0000
0010
0000
0000
0000
0001
0100
0000
1000
0000
0000
0001
0000
,
0010
0000
0100
0000
0010
0000
0000
0000
0010
0100
0000
1000
0000
0000
0001
0000
,
0010
0000
1000
0000
0100
0000
0000
0000
1000
0100
0000
0010
0000
0000
0001
0000
,
0100
0000
0001
0000
0010
0000
0000
0000
0100
1000
0000
1000
0000
0000
0100
0000
,
0010
0000
0100
0000
1000
0000
0000
0000
0010
0100
0010
0000
0001
0000
0100
0000
,
0001
0000
0010
0000
1000
0000
0000
0000
1000
0001
1000
0000
0100
0000
0010
0000
,
0100
0000
1000
0000
0001
0000
0000
0000
0001
0100
0001
0000
0010
0000
1000
0000
,
0100
0000
0010
0000
0001
0000
0000
0000
1000
0010
1000
0000
0100
0000
0001
0000
,
0010
0000
0100
0000
1000
0000
0000
0000
0010
0100
0010
0000
0001
0000
1000
0000
,
0100
0010
0100
0000
0000
0010
0001
0100
,
0001
1000
0000
0100
0000
0000
1000
0000
0010
0100
0000
0001
0000
0000
1000
0000
,
0000
0000
0100
0000
0000
0010
0000
0001
1000
0000
0010
0000
1000
0000
0001
0000
,
0100
0000
0000
0000
,
0000
0000
0000
0000
;
#NOTES:
     dance-double:
     :
     Easy:
     5:
     :
00000000
00000000
00000000
00000000
,
00000000
00000000
00000000
00000000
,
00000000
00000000
00000000
00000000
,
00000000
00000000
00000000
00000000
,
00000000
00000000
00000000
00000000
,
01000000
00000000
00010000
00010000
,
00001000
00000000
00000010
00000010
,
00001000
00000000
00010000
01000000
,
10000000
00000000
00100000
00010000
,
00001000
00000000
00000100
00000000
,
00000001
00000010
00001000
00000000
,
00010000
00000000
01000000
00000000
,
10000000
00100000
00010000
00000000
,
00001000
00000000
00000100
00000000
,
00000010
00001000
00010000
00000000
,
01000000
00000000
10000000
00000000
,
00100000
00010000
00001000
00000100
,
00000001
00000000
00000010
00000000
,
00001000
00010000
01000000
10000000
,
00100000
00000000
00010000
00000000
,
00001000
00000100
00000001
00000000
,
00000010
00000000
00001000
00000000
,
00010000
01000000
00010000
00001000
,
00000100
00000000
00000010
00000000
,
00001000
00000000
00000000
00000000
,
00010000
00000000
01000000
00000000
,
00100000
00000000
00010000
00000000
,
00001000
00000000
00000100
00000000
,
00000010
00000000
00001000
00000000
,
00010000
00000000
01000000
00000000
,
10000000
11000000
00000000
00000000
,
00010000
01010000
00000000
00000000
,
00001000
00000100
00000000
00000001
,
00000010
00000000
00000000
00000000
,
00001000
00000000
00000000
00000000
,
00010000
00000000
00000000
00000000
,
00001000
00000000
00000000
00000000
,
00010000
00000000
00001000
00000100
,
00000010
00000100
00000000
00001000
,
00010000
01000000
10000000
00000000
,
00100000
00010000
00001000
00000100
,
00000010
00000000
00000000
00000000
,
00000100
00000000
00000000
00000000
,
00001000
00000000
00000000
00000000
,
00010000
00000000
00000000
00000000
,
01000000
10000000
00100000
00000000
,
00010000
00001000
00000100
00000000
,
00000001
00000000
00000010
00000000
,
00000100
00000001
00000010
00000000
,
00001000
00010000
01000000
00000000
,
10000000
00100000
00010000
00000000
,
00001000
00000000
00010000
00000000
,
00100000
01000000
00010000
00000000
,
00001000
00000100
00000010
00000000
,
00001000
00010000
00000000
00100000
,
01000000
00000000
00010000
00000000
,
00001000
00000010
00000100
00000001
,
00001000
00000000
00000000
00000000
,
00000000
00000000
00000000
00000000
;
#NOTES:
     dance-double:
     :
     Medium:
     9:
     :
00000000
00000000
00000000
00000000
,
00000000
00000000
00000000
00000000
,
00000000
00000000
00000000
00000000
,
00000000
00000000
00000000
00000000
,
00000000
00000000
00000000
00000000
,
00010000
00000000
00110000
00000000
00010000
00001000
00000100
00000000
,
00000010
00000000
00000011
00000000
00001000
00010000
01000000
00000000
,
00100000
00000000
10100000
00000000
00010000
00001000
00000100
00000000
,
00000001
00000000
00000100
00000000
00001000
00010000
00100000
00000000
,
10000000
00000000
01000000
00010000
,
00001000
00000000
00000010
00000000
00000100
00000001
00000100
00000000
,
00001000
00000000
00010000
01000000
,
10000000
00000000
00100000
00000000
01000000
00010000
00001000
00000000
,
00000100
00000000
00000001
00000100
,
00001000
00000000
00010000
00000000
00100000
10000000
00100000
00000000
,
00010000
00001000
00000000
00000000
00000010
00000001
00000000
00000000
,
00000010
00001000
00000000
00000000
00010000
01000000
00010000
00000000
,
00001000
00000000
00000000
00000100
00000001
00000000
00000100
00000000
,
00000000
00001000
00000000
00010000
00100000
10000000
01000000
00000000
,
00010000
00000000
00000000
00001000
00000010
00000000
00000001
00000000
,
00000000
00000010
00000000
00000010
00001000
00010000
00100000
00000000
,
10000000
00000000
01000000
00000000
00010000
00001000
00000100
00000000
,
00000010
00000000
00000001
00000000
00001000
00010000
00100000
00000000
,
00010000
01000000
00010000
00000000
00001000
00000010
00001000
00000000
,
00010000
00100000
10000000
00000000
,
00100000
00000000
00000000
00010000
00001000
00000000
00000000
00000000
,
00000100
00000000
00000000
00000001
00000100
00000000
00000000
00000000
,
00001000
00000000
00000000
00010000
00001000
00000000
00000000
00000000
,
00010000
00000000
00000000
01000000
10000000
00000000
01000000
00000000
,
00100000
10000000
01000000
00000000
00100000
00000000
00110000
00000000
,
00001000
00000010
00001000
00000000
00000001
00000000
00000101
00000000
,
00001000
00010000
00100000
00000000
10000000
00000000
11000000
00000000
,
00100000
00010000
00001000
00000010
,
00000001
00000000
00000010
00000000
,
00001000
00000000
00010000
00100000
,
10000000
00000000
00100000
00000000
,
00010000
00000000
00001000
00000100
,
00000001
00000100
00000001
00000000
00000100
00000000
00001000
00000000
,
00010000
01000000
00010000
00000000
00001000
00000000
00000010
00000000
,
00000001
00000010
00001000
00000000
00010000
00000000
00100000
00000000
,
10000000
00100000
00010000
00000000
00001000
00000000
00000100
00000000
,
00000001
00000100
00001000
00010000
,
00100000
00000000
10000000
00000000
00100000
00010000
00100000
00000000
,
00010000
00001000
00000010
00000001
,
00000100
00000000
00001000
00000000
00010000
01000000
00010000
00000000
,
00001000
00000100
00000001
00000000
00000100
00000000
00001000
00000000
,
00010000
00100000
10000000
00000000
00100000
00000000
00010000
00000000
,
00001000
00000010
00000001
00000000
00000010
00000000
00001000
00000000
,
00010000
01000000
10000000
00000000
01000000
00000000
00010000
00000000
,
00001000
00000100
00000001
00000000
00000100
00000000
00001000
00000000
,
00010000
00100000
10000000
00000000
00100000
00000000
00010000
00000000
,
00001000
00000010
00000001
00000000
00000010
00000000
00001000
00000000
,
00010000
01000000
10000000
00000000
01000000
00000000
00010000
00000000
,
00001000
00001010
00001000
00010000
,
00100000
10100000
00100000
00010000
,
00001000
00000100
00000001
00000000
00000100
00001000
00010000
00000000
,
00100000
00010000
01000000
00000000
00100000
10000000
00010000
00001000
,
00000010
00000000
00000000
00000000
,
00000000
00000000
00000000
00000000
;
#NOTES:
     dance-double:
     :
     Hard:
     13:
     :
00000000
00000000
00000000
00000000
,
00000000
00000000
00000000
00000000
,
00000000
00000000
00000000
00000000
,
00000000
00000000
00000000
00000000
,
00000000
00000000
00000000
00000000
,
00000010
00000001
00000100
00000000
00001000
00010000
01000000
00000000
,
10000000
00100000
10000000
00000000
01000000
00000000
00110000
00000000
,
00100000
00010000
01000000
00000000
00010000
00001000
00010000
00000000
,
00000000
00000000
00001000
00000000
00000000
00000010
00000000
00000000
00000100
00000000
00000001
00000000
00000100
00000000
00000000
00000000
,
00000010
00000000
00000000
00000000
00000000
00000000
00001000
00000000
00010000
00000000
00000000
01000000
00000000
00000000
10000000
00000000
,
01000000
00000000
00000000
00010000
00000000
00000000
00100000
00000000
00010000
00001000
00000000
00010000
00000000
00000000
00000000
00000000
,
00100000
00000000
00000000
00000000
00000000
00000000
00010000
00000000
00001000
00000000
00000000
00000100
00000000
00000000
00000001
00000000
,
00000100
00000000
00000000
00001000
00000000
00000000
00000010
00000000
00001000
00010000
00000000
00001000
00000000
00000000
00000000
00000000
,
00010000
00000000
00000000
00000000
00000000
00000000
00100000
00000000
00010000
00000000
00000000
01000000
00000000
00000000
10000000
00000000
,
01000000
00000000
00000000
00010000
00000000
00000000
00100000
00000000
00010000
00001000
00000000
00010000
00000000
00000000
00000000
00000000
,
00001000
00000010
00000000
00000001
00000010
00001000
00000000
00000100
,
00001000
00000000
00000000
00010000
00000000
00000000
01000000
10000000
01000000
00000000
00000000
00000000
00010000
00000000
00000000
00000000
,
00110000
00000000
00000000
00000000
00000000
00000000
00001000
00000000
00010000
00000000
00000000
00001000
00000000
00000000
00000100
00000000
,
00000000
00000001
00000000
00000010
00000000
00000001
00000100
00000000
,
00001000
00000000
00010000
00001000
00000000
00000100
00001000
00010000
,
00000000
00000000
00100000
00000000
00000000
00000000
10000000
00000000
01000000
00000000
00000000
10000000
00000000
00000000
00100000
00000000
,
00010000
00001000
00000100
00000000
00000100
00000001
00000010
00000000
,
00000010
00000000
00001000
00000000
00010000
00000000
00000000
00000000
00010000
00100000
00000000
10000000
00000000
00000000
00100000
00000000
,
00010000
00000000
00000000
00001000
00000000
00000000
00000100
00000000
00000001
00000000
00000000
00000010
00000000
00000000
00000001
00000000
,
00000100
00000000
00000000
00000000
,
00001000
00000000
00010000
00000000
00000000
00100000
00000000
00000000
10000000
00000000
00000000
01000000
00000000
00000000
10000000
00000000
,
00100000
00000000
00010000
00000000
00000000
00001000
00000000
00000000
00000100
00000000
00000000
00000001
00000000
00000000
00000100
00000000
,
00001000
00000000
00000010
00000000
00000000
00001000
00000000
00000000
00010000
00000000
00000000
00100000
00000000
00000000
10000000
00000000
,
01000000
00000000
10000000
00100000
00000000
00010000
00000000
00001000
,
00000000
00000000
00010000
00000000
00000000
01000000
00000000
00000000
00010000
00000000
00000000
00001000
00000000
00000000
00000010
00000000
,
00000000
00000000
00001000
00000000
00000000
00000100
00000000
00000000
00000001
00000000
00000000
00000100
00000000
00000000
00001000
00000000
,
00000000
00000000
00010000
00000000
00000000
00100000
00000000
00000000
00010000
00000000
00000000
00001000
00000000
00000000
00010000
00000000
,
00100000
00000000
10000000
01000000
00000000
00010000
00000000
00001000
,
00000200
00000000
00000000
00000001
00000000
00000000
00000010
00000000
00002300
00000000
00000000
00010000
00000000
00000000
00000100
00000000
,
00023000
00000000
00000000
00100000
00000000
00000000
01000000
00000000
20030000
00000000
00000000
01000000
00000000
00000000
30200000
00000000
,
02300000
00000000
00000000
10000000
00000000
00000000
00100000
00000000
03020000
00000000
00000000
00001000
00000000
00000000
01000000
00000000
,
00032000
00000000
00000000
00000010
00000000
00000000
00000100
00000000
00003002
00000000
00000000
00000100
00000000
00000000
00000013
00000000
,
00002000
00000000
00010000
00000000
00010000
00000000
00000000
00000000
00023000
00100000
00000000
00130000
00000000
00000000
00000000
00000000
,
20000000
00000000
01000000
00000000
01000000
00000000
00000000
00000000
30200000
00010000
00000000
00310000
00000000
00000000
00000000
00000000
,
00002000
00000000
00000010
00000000
00000100
00000000
00000000
00000000
00003020
00000001
00000000
00001030
00000000
00000000
00000000
00000000
,
00020000
00000000
00100000
00000000
00000000
00031000
00000000
00000000
00002000
00000000
00000100
00000000
00013000
00000000
00000000
00000000
,
00100000
00000000
10000000
00000000
02000000
00000000
00000000
00000000
00010000
00000000
00000000
13000000
00000000
00000000
00000000
00000000
,
00100000
00000000
00010000
00000000
00002000
00000000
00000000
00000000
00000010
00000000
00000000
00013000
00000000
00000000
00000000
00000000
,
00000010
00000000
00001000
00000000
00000200
00000000
00000000
00000000
00000001
00000000
00000000
00001300
00000000
00000000
00000000
00000000
,
00000010
00000000
00001000
00000000
00020000
00000000
00000000
00000000
00100000
00000000
00000000
00031000
00000000
00000000
00000000
00000000
,
00100000
00000000
00010000
00000000
00100000
00000000
00000000
00000000
00010000
01000000
00000000
00010000
00000000
00000000
00001000
00000000
,
00000100
00000000
00000001
00000000
00000100
00000000
00000000
00000000
00001000
00010000
00000000
00001000
00000000
00000000
00000100
00000000
,
00000010
00000000
00001000
00000000
00000010
00000000
00000000
00000000
00001000
00000100
00000000
00001000
00000000
00000000
00010000
00000000
,
01000000
00000000
10000000
00000000
01000000
00000000
00000000
00000000
00010000
00001000
00000000
00010000
00000000
00000000
01000000
00000000
,
10000000
00000000
01000000
00000000
00010000
00000000
00000000
00000000
00010000
01000000
00010000
00000000
00001000
00000000
00000010
00000000
,
00001000
00000000
00010000
00000000
00100000
00000000
00000000
00000000
00100000
00010000
00002000
00000000
00000010
00000000
00003100
00000000
,
00000001
00000000
00000100
00000000
00001000
00000000
00000000
00000000
00001000
00000100
00001000
00000000
00010000
00000000
00100000
00000000
,
00010000
00000000
00001000
00000000
00000010
00000000
00000000
00000000
00000010
00001000
00020000
00000000
00100000
00000000
01030000
00000000
,
00100000
00000000
00010000
00000000
01000000
00000000
00000000
00000000
10000000
01000000
00100000
00000000
00010000
00000000
00001000
00000000
,
00000010
00000001
00000010
00000000
00000000
00000100
00001000
00000010
,
00001000
00010000
00000000
00100000
00000000
00000000
10000000
00000000
01000000
10000000
00000000
00100000
00000000
00000000
00010000
00000000
,
00000000
00000000
00001000
00000000
00000000
00000010
00000000
00001000
00010000
00000000
00100000
00000000
00010000
00000000
00001000
00000000
,
00000100
00000000
00000000
00000000
,
00000000
00000000
00000000
00000000
;
