
//----- song ID: melo -----//
#TITLE:Melody Life;
#ARTIST:張馨予;
#ARTISTTRANSLIT:Zhang Xin Yu;
#BANNER:Melody Life (Chinese).png;
#BACKGROUND:Melody Life (Chinese)-bg.png;
#CDTITLE:./CDTitles/bm IIDX 13 DistorteD.png;
#MUSIC:Melody Life (Chinese).ogg;
#SAMPLESTART:69.76;
#SAMPLELENGTH:15;
#DISPLAYBPM:172;
#BPMS:0=171.5,4=172;
#NOTES:
     dance-single:
     :
     Beginner:
     2:
     :
0000
0000
0000
0000
,
0000
0000
0000
0000
,
0000
0000
0000
0000
,
0000
0000
0000
0000
,
0000
0000
0000
0000
,
1000
0000
0000
0000
,
1000
0000
0000
0000
,
0001
0000
0000
0000
,
0001
0000
0000
0000
,
0010
0000
0010
0000
,
0010
0000
0000
0000
,
0010
0000
0010
0000
,
0010
0000
0000
0000
,
0010
0000
0010
0000
,
0010
0000
0000
0000
,
0010
0000
0010
0000
,
0010
0000
0000
0000
,
1000
0000
0000
0000
,
0000
0000
0000
0000
,
0001
0000
0000
0000
,
0000
0000
0000
0000
,
0100
0000
0000
0000
,
0000
0000
0000
0000
,
0010
0000
0000
0000
,
0000
0000
0000
0000
,
1000
0000
0000
0000
,
1000
0000
0000
0000
,
0001
0000
0000
0000
,
0001
0000
0000
0000
,
0010
0000
0000
0000
,
0010
0000
0000
0000
,
0100
0000
0000
0000
,
0100
0000
0000
0000
,
1000
0000
0000
0000
,
0100
0000
0000
0000
,
1000
0000
0000
0000
,
0000
0000
0000
0000
,
0001
0000
0000
0000
,
0100
0000
0000
0000
,
0001
0000
0000
0000
,
0000
0000
0000
0000
,
2000
0000
3000
0000
,
0002
0000
0003
0000
,
2000
0000
3000
0000
,
0002
0000
0003
0000
,
0010
0000
0000
0000
,
0010
0000
0000
0000
,
0100
0000
0000
0000
,
0100
0000
0000
0000
,
0000
0000
0000
0000
,
1000
0000
1000
0000
,
0001
0000
0001
0000
,
1000
0000
1000
0000
,
0001
0000
0000
0000
,
0010
0000
0000
0000
,
1000
0000
0000
0000
,
0010
0000
0000
0000
,
0001
0000
0000
0000
,
0001
0000
0001
0000
,
1000
0000
1000
0000
,
0001
0000
0001
0000
,
1000
0000
0000
0000
,
0010
0000
0000
0000
,
0001
0000
0000
0000
,
0010
0000
0000
0000
,
1000
0000
0000
0000
,
0001
0000
0001
0000
,
0010
0000
0010
0000
,
1000
0000
1000
0000
,
0010
0000
0010
0000
,
0001
0000
0001
0000
,
0010
0000
0010
0000
,
1000
0000
1000
0000
,
0010
0000
0000
0000
,
0100
0000
0100
0000
,
0100
0000
0000
0000
,
0100
0000
0100
0000
,
0100
0000
0000
0000
,
0100
0000
0100
0000
,
0100
0000
0000
0000
,
0100
0000
0100
0000
,
0100
0000
0000
0000
,
1000
0000
0000
0000
,
0001
0000
1001
0000
,
0000
0000
0000
0000
;
#NOTES:
     dance-single:
     :
     Easy:
     5:
     :
0000
0000
0000
0000
,
0000
0000
0000
0000
,
0000
0000
0000
0000
,
0000
0000
0000
0000
,
0000
0000
0000
0000
,
1000
0000
0100
0000
,
0001
0000
0100
0000
,
0001
0000
0010
0000
,
1000
0000
0010
0000
,
0200
0000
0301
0000
,
1000
0100
1000
0000
,
0200
0000
1300
0000
,
0001
0100
0001
0000
,
0200
0000
0301
0000
,
1000
0001
1000
0000
,
0001
0000
1000
0000
,
1001
0000
0000
0000
,
1000
0010
0001
0000
,
0100
0000
0001
0000
,
0001
0100
1000
0000
,
0001
0000
1000
0000
,
0001
0010
1000
0000
,
0010
0000
1000
0000
,
1000
0100
0001
0000
,
1000
0000
0000
0000
,
1000
0010
0010
0000
,
0001
0000
0010
0000
,
1000
0010
0010
0000
,
0001
0000
0010
0000
,
0001
0000
1000
0000
,
1000
0000
0001
0000
,
0100
0000
0001
0000
,
0010
0100
0010
0000
,
0001
0010
1000
0000
,
0010
0000
1000
0000
,
1000
0100
0001
0000
,
1000
0000
0001
0000
,
1000
0010
0001
0000
,
0010
0000
0001
0000
,
0001
0100
1000
0000
,
0001
0000
0000
0000
,
0002
0000
0000
0003
,
2000
0000
0000
3000
,
0020
0000
0000
0030
,
0200
0000
0000
0300
,
1000
0000
0001
0000
,
0001
0000
1000
0000
,
0100
0000
1000
0000
,
0010
0010
0100
0000
,
0010
0010
0000
0000
,
0010
0010
1000
1000
,
0100
0100
0010
0010
,
0001
0001
0100
0100
,
0010
0010
1000
1000
,
0000
0010
0000
0001
,
0000
1000
0000
0001
,
0000
0010
0000
0100
,
0000
0000
0000
0000
,
0010
0010
0001
0001
,
0100
0100
0010
0010
,
1000
1000
0100
0100
,
0010
0010
0001
0001
,
0000
0010
0000
1000
,
0000
0001
0000
1000
,
0000
0010
0000
1000
,
0001
1001
0000
0000
,
0100
0100
0100
0100
,
0010
0010
0010
0010
,
0001
0001
0001
0001
,
1000
1000
1000
0000
,
0100
0100
1000
1000
,
0010
0010
0001
0001
,
1000
1000
0010
0010
,
0001
0001
0001
0000
,
0200
0000
1300
0000
,
0001
0100
0001
0000
,
0200
0000
0301
0000
,
1000
0100
1000
0000
,
0200
0000
1300
0000
,
0001
1000
0001
0000
,
0200
0000
0301
0000
,
1000
0001
1000
0000
,
0100
0000
0010
0000
,
0110
0000
2002
0000
,
0000
0000
0000
0000
,
0000
0000
0000
0000
,
0000
0000
0000
3003
,
0000
0000
0000
0000
;
#NOTES:
     dance-single:
     :
     Medium:
     7:
     :
0000
0000
0000
0000
,
0000
0000
0000
0000
,
0000
0000
0000
0000
,
0000
0000
0000
0000
,
0000
0000
0000
0000
,
0100
0100
0001
0001
,
0010
0010
1000
1000
,
0010
0010
0100
0100
,
0001
0001
1000
0000
,
1200
0010
1000
0310
,
0001
0100
0001
0000
,
0201
0010
0001
0310
,
1000
0100
1000
0000
,
1200
0010
1000
0310
,
0001
1000
0001
0000
,
1000
0000
0100
0010
0000
0100
0000
0100
,
0000
0000
0000
0110
,
0001
0010
1000
0001
,
0100
0001
1000
0010
,
1000
0100
0001
0100
,
1000
0010
0001
0010
,
1000
0010
0001
1000
,
0010
1000
0001
0010
,
0001
0100
1000
0100
,
0001
0010
1000
0000
,
0001
0010
0010
0001
,
1000
0010
1010
0000
,
1000
0010
0010
1000
,
0001
0010
0011
0000
,
1000
0100
0001
1000
,
0001
0100
1000
0001
,
0100
0001
1000
0100
,
0010
0100
0010
0000
,
1000
0010
0001
1000
,
0010
1000
0001
0010
,
0001
0100
1000
0100
,
0001
0010
1000
0010
,
0001
0010
1000
0001
,
0010
0001
1000
0010
,
1000
0100
0001
0100
,
1000
0010
0001
0000
,
1000
0010
0010
1000
,
0002
0100
1003
0000
,
0001
0010
0010
0001
,
2000
0100
3001
0000
,
0001
0100
1000
0001
,
1000
0100
0001
1000
,
0100
1000
0001
0100
,
0010
0010
0100
0100
,
0010
0010
0010
0000
0000
0000
0000
0000
,
0011
0011
0001
0001
,
0101
0101
0100
0100
,
0110
0110
1000
1000
,
1001
1001
0001
0100
,
0000
0010
0100
1000
,
0000
0001
0100
1000
,
0000
0000
0010
0000
0001
0000
0100
0001
,
0000
1000
0000
0100
0000
1000
0000
0000
,
1010
1010
1000
1000
,
1100
1100
0100
0100
,
0110
0110
0001
0001
,
1001
1001
1000
0100
,
0000
0010
0100
0001
,
0000
1000
0100
0001
,
0100
0010
1000
0100
,
0010
0110
0000
0000
,
0100
0100
1100
1100
,
0010
0010
0011
0011
,
1000
1000
1010
1010
,
0001
0001
0101
0101
,
0100
0100
0101
0101
,
0010
0010
1010
1010
,
0001
0001
0011
0011
,
1000
0001
1000
0000
,
0201
0010
0001
0310
,
1000
0100
1000
0000
,
1200
0010
1000
0310
,
0001
0100
0001
0000
,
0201
0010
0001
0310
,
1000
0001
1000
0000
,
1200
0010
1000
0310
,
0001
1000
0001
0000
,
0100
0000
0010
0000
0000
1001
0000
0000
,
0110
0000
2002
0000
,
0000
0000
0000
0000
,
0000
0000
0000
0000
,
0000
0000
0000
3003
,
0000
0000
0000
0000
;
#NOTES:
     dance-single:
     :
     Hard:
     10:
     :
0000
0000
0000
0000
,
0000
0000
0000
0000
,
0000
0000
0000
0000
,
0000
0000
0000
0000
,
0000
0000
0000
0000
,
0010
0000
0010
0000
1000
0010
1000
0010
,
0100
0000
0100
0000
0001
1000
0001
1000
,
0100
0000
0100
0000
0010
0001
0010
0001
,
1000
0000
1000
0000
0001
0100
0001
0000
,
0001
0020
1000
0000
0001
0000
1030
0000
,
0001
0000
0001
0000
1000
0001
0100
0000
,
1000
0020
0001
0000
1000
0000
0031
0000
,
1000
0000
1000
0000
0001
1000
0100
0000
,
0001
0200
1000
0000
0001
0000
1300
0000
,
0001
0000
0001
0000
1000
0001
0010
0000
,
0001
1000
0010
0100
0000
0010
0100
0010
,
0000
0000
0000
0110
,
1000
0000
0100
0000
0001
0100
1000
0000
,
0001
0010
1000
0000
0001
0000
0100
0000
,
0001
0010
1000
0010
,
0001
0100
1000
0100
,
0001
0000
0100
0000
1000
0100
0001
0000
,
1000
0010
0001
0000
1000
0000
0100
0000
,
1000
0010
0001
0010
,
1000
0100
0001
0100
,
1000
0000
0100
0010
0100
0000
1000
0000
,
0001
0000
0010
0100
0010
0000
0000
0000
,
0001
0000
0100
0010
0100
0000
0001
0000
,
1000
0000
0010
0100
0010
0000
0000
0000
,
0001
0000
0010
0000
1000
0100
0001
0000
,
1000
0000
0010
0000
0001
0100
1000
0000
,
0010
1000
0001
0010
,
0100
0100
0010
0010
,
0001
0000
0100
0000
1000
0100
0001
0000
,
1000
0010
0001
0000
1000
0000
0100
0000
,
1000
0010
0001
0010
,
1000
0100
0001
0100
,
1000
0000
0100
0000
0001
0100
1000
0000
,
0001
0010
1000
0000
0001
0000
0100
0000
,
0001
0010
1000
0010
,
0001
0100
1000
0100
,
0001
0000
0100
0010
0100
0000
0001
0000
,
2000
0010
3001
0000
,
1000
0000
0100
0010
0100
0000
1000
0000
,
0002
0010
1003
0000
,
1000
0000
0010
0000
0001
0100
1000
0000
,
0001
0000
0010
0000
1000
0100
0001
0000
,
0010
0001
1000
0010
,
0100
0100
0010
0010
,
1000
0100
1000
0000
0001
0000
0001
0000
,
1100
0000
1100
0000
0001
1000
0100
0000
,
1010
0000
1010
0000
0001
1000
0010
0000
,
0110
0000
0110
0000
0100
0001
0010
0000
,
0110
0000
0110
0000
0100
1000
0010
1000
,
0000
0001
0100
0000
0010
0100
0001
1000
,
0000
0100
0010
0000
0001
1000
0100
0001
,
0000
0000
0100
0000
1000
0000
0010
1000
,
0000
0001
0000
0010
0000
0001
1000
0000
,
0101
0000
0101
0000
1000
0001
0100
0000
,
0011
0000
0011
0000
1000
0001
0010
0000
,
0110
0000
0110
0000
0100
1000
0010
0000
,
0110
0000
0110
0000
0100
0001
0010
0001
,
0000
1000
0100
0000
0010
0100
1000
0001
,
0000
0100
0010
0000
1000
0001
0100
1000
,
0000
0000
0100
0000
0001
0000
0010
0001
,
0100
0110
0000
0000
,
1010
1010
0011
1010
,
0101
0101
1100
0101
,
1001
1001
1100
1001
,
0101
0101
0110
0101
,
0011
0011
1010
0011
,
1100
1100
0101
1100
,
1001
1001
0101
1001
,
1100
1100
0110
1100
,
1000
0020
0001
0000
1000
0000
0031
0000
,
1000
0000
1000
0000
0001
1000
0100
0000
,
0001
0020
1000
0000
0001
0000
1030
0000
,
0001
0000
0001
0000
1000
0001
0100
0000
,
1000
0200
0001
0000
1000
0000
0301
0000
,
1000
0000
1000
0000
0001
1000
0010
0000
,
0001
0200
1000
0000
0001
0000
1300
0000
,
0001
0000
0001
0000
1000
0001
0010
0000
,
0100
1000
0001
0000
0000
0110
0000
0000
,
1001
0000
0220
0000
,
0000
0000
0000
0000
,
0000
0000
0000
0000
,
0000
0000
0000
0330
,
0000
0000
0000
0000
;
#NOTES:
     dance-single:
     :
     Challenge:
     11:
     :
0000
0000
0000
0000
,
0000
0000
0000
0000
,
0000
0000
0000
0000
,
0000
0000
0000
0000
,
0000
0000
0000
0000
,
0010
0000
0010
0000
0001
0010
0001
0010
,
0100
0000
0100
0000
1000
0001
1000
0001
,
0100
0000
0100
0000
0010
1000
0010
1000
,
0001
0000
0001
0000
1000
0100
1000
0000
,
1000
0020
0001
0000
1030
0000
MMMM
0000
,
1000
0000
1000
0000
0001
1000
0100
0000
,
0001
0020
1000
0000
0031
0000
MMMM
0000
,
0001
0000
0001
0000
1000
0001
0100
0000
,
1000
0200
0001
0000
1300
0000
MMMM
0000
,
1000
0000
1000
0000
0001
1000
0010
0000
,
1000
0001
0010
0100
0000
0010
0100
0010
,
0000
0000
0000
MMMM
,
0001
0000
0100
0000
1000
0100
0001
0000
,
1000
0010
0001
0000
1000
0000
0100
0000
,
MMMM
0010
0001
0010
,
MMMM
0100
0001
0100
,
1000
0000
0100
0000
0001
0100
1000
0000
,
0001
0010
1000
0000
0001
0000
0100
0000
,
MMMM
0010
1000
0010
,
MMMM
0100
1000
0100
,
0001
0000
0100
0010
0100
0000
0001
0000
,
1000
0000
0010
0100
0010
0000
MMMM
0000
,
1000
0000
0100
0010
0100
0000
1000
0000
,
0001
0000
0010
0100
0010
0000
MMMM
0000
,
1000
0000
0010
0000
0001
0100
1000
0000
,
0001
0000
0010
0000
1000
0100
0001
0000
,
0010
0001
1000
MMMM
,
0100
0100
0010
MMMM
,
1000
0000
0100
0000
0001
0100
1000
0000
,
0001
0010
1000
0000
0001
0000
0100
0000
,
MMMM
0010
1000
0010
,
MMMM
0100
1000
0100
,
0001
0000
0100
0000
1000
0100
0001
0000
,
1000
0010
0001
0000
1000
0000
0100
0000
,
MMMM
0010
0001
0010
,
MMMM
0100
0001
0100
,
1000
0000
0100
0010
0100
0000
1000
0000
,
0002
0013
MMMM
0000
,
0001
0000
0100
0010
0100
0000
0001
0000
,
2000
3010
MMMM
0000
,
0001
0000
0010
0000
1000
0100
0001
0000
,
1000
0000
0010
0000
0001
0100
1000
0000
,
0010
1000
0001
MMMM
,
0100
0100
0010
MMMM
,
0001
0100
0001
0000
1000
0000
1000
0000
,
0101
0000
0101
0000
MMMM
0001
0100
0000
,
0011
0000
0011
0000
MMMM
0001
0010
0000
,
0110
0000
0110
0000
MMMM
1000
0010
0000
,
0110
0000
0110
0000
MMMM
0001
0010
0001
,
0000
1000
0100
0000
0010
0100
1000
0001
,
0000
0100
0010
0000
1000
0001
0100
1000
,
0000
0000
0100
0000
0001
0000
0010
0001
,
0000
1000
0000
0010
0000
1000
0001
0000
,
1100
0000
1100
0000
MMMM
1000
0100
0000
,
1010
0000
1010
0000
MMMM
1000
0010
0000
,
0110
0000
0110
0000
MMMM
0001
0010
0000
,
0110
0000
0110
0000
MMMM
1000
0010
1000
,
0000
0001
0100
0000
0010
0100
0001
1000
,
0000
0100
0010
0000
0001
1000
0100
0001
,
0000
0000
0100
0000
1000
0000
0010
1000
,
0100
0110
0000
MMMM
,
0011
0011
MMMM
0011
,
1100
1100
MMMM
1100
,
1001
1001
MMMM
1001
,
1100
1100
MMMM
1100
,
1010
1010
MMMM
1010
,
0101
0101
MMMM
0101
,
1001
1001
MMMM
1001
,
0101
0101
MMMM
0101
,
0001
0020
1000
0000
0031
0000
MMMM
0000
,
0001
0000
0001
0000
1000
0001
0100
0000
,
1000
0020
0001
0000
1030
0000
MMMM
0000
,
1000
0000
1000
0000
0001
1000
0100
0000
,
0001
0200
1000
0000
0301
0000
MMMM
0000
,
0001
0000
0001
0000
1000
0001
0010
0000
,
1000
0200
0001
0000
1300
0000
MMMM
0000
,
1000
0000
1000
0000
0001
1000
0010
0000
,
0100
0001
1000
0000
0000
0110
0000
0000
,
1001
MMMM
0220
0000
,
0000
0000
0000
0000
,
0000
0000
0000
0000
,
0000
0000
0000
0330
,
0000
0000
0000
0000
;
#NOTES:
     dance-double:
     :
     Easy:
     5:
     :
00000000
00000000
00000000
00000000
,
00000000
00000000
00000000
00000000
,
00000000
00000000
00000000
00000000
,
00000000
00000000
00000000
00000000
,
00000000
00000000
00000000
00000000
,
00000001
00000000
00000010
00000000
,
00000001
00000000
00000100
00000000
,
00001000
00000000
00010000
00000000
,
00001000
00000000
00000000
00000000
,
00200000
00000000
00000000
00300000
,
00001000
00010000
00001000
00000000
,
00000020
00000000
00000000
00000030
,
00010000
00001000
00010000
00000000
,
02000000
00000000
00000000
03000000
,
00001000
00010000
00001000
00000000
,
00001000
00000000
00000010
00000000
,
00000001
00000000
00000000
00000000
,
00000001
00000100
00001000
00000000
,
00000010
00000000
00001000
00000000
,
00010000
00001000
00010000
00000000
,
00100000
00000000
10000000
00000000
,
00010000
01000000
00100000
00000000
,
01000000
00000000
00010000
00000000
,
00100000
00001000
00010000
00000000
,
00000010
00000000
00000000
00000000
,
00000001
00000100
00000100
00000000
,
00000010
00000000
00000100
00000000
,
00001000
00010000
00010000
00000000
,
01000000
00000000
00100000
00000000
,
10000000
00000000
00010000
00000000
,
01000000
00000000
00001000
00000000
,
00100000
00000000
00010000
00000000
,
10000000
00010000
10000000
00000000
,
10000000
01000000
00010000
00000000
,
00100000
00000000
00010000
00000000
,
00001000
00010000
00001000
00000000
,
00000010
00000000
00000001
00000000
,
00001000
00000100
00000010
00000000
,
00000100
00000000
00001000
00000000
,
00000010
00010000
00001000
00000000
,
00100000
00000000
00000000
00000000
,
10000000
01000000
01000000
00000000
,
00100000
00000000
01000000
00000000
,
00010000
00001000
00001000
00000000
,
00000100
00000000
00000010
00000000
,
00000001
00000000
00001000
00000000
,
00000100
00000000
00010000
00000000
,
00000010
00000000
00001000
00000000
,
00000001
00001000
00000001
00000000
,
00000100
00000100
00000000
00000000
,
00000001
00000001
00000100
00000100
,
00001000
00001000
00010000
00010000
,
00001000
00001000
00010000
00010000
,
00100000
00100000
10000000
10000000
,
00000000
01000000
00000000
10000000
,
00000000
00010000
00000000
01000000
,
00000000
00100000
00000000
01000000
,
00000000
00000000
00000000
00000000
,
10000000
10000000
01000000
01000000
,
00010000
00010000
00001000
00001000
,
00010000
00010000
00001000
00001000
,
00000010
00000010
00000001
00000001
,
00000000
00000100
00000000
00000001
,
00000000
00001000
00000000
00000100
,
00000000
00010000
00000000
00001000
,
00010000
00011000
00000000
00000000
,
00000010
00000010
00000010
00000010
,
00000001
00000001
00000001
00000001
,
00000100
00000100
00000100
00000100
,
00001000
00001000
00001000
00000000
,
00010000
00010000
00100000
00100000
,
10000000
10000000
01000000
01000000
,
00010000
00010000
00001000
00001000
,
00010000
00010000
00010000
00000000
,
00000020
00000000
00000000
00000030
,
00010000
00001000
00010000
00000000
,
00200000
00000000
00000000
00300000
,
00001000
00010000
00001000
00000000
,
00000200
00000000
00000000
00000300
,
00010000
00001000
00010000
00000000
,
02000000
00000000
00000000
03000000
,
00001000
00010000
00001000
00000000
,
00000010
00000000
00000100
00000000
,
00000110
00000000
00002002
00000000
,
00000000
00000000
00000000
00000000
,
00000000
00000000
00000000
00000000
,
00000000
00000000
00000000
00003003
,
00000000
00000000
00000000
00000000
;
#NOTES:
     dance-double:
     :
     Medium:
     7:
     :
00000000
00000000
00000000
00000000
,
00000000
00000000
00000000
00000000
,
00000000
00000000
00000000
00000000
,
00000000
00000000
00000000
00000000
,
00000000
00000000
00000000
00000000
,
00100000
00100000
10000000
10000000
,
01000000
01000000
00010000
00010000
,
00001000
00001000
00000100
00000100
,
00000001
00000001
00000010
00000000
,
00002100
00000001
00000100
00003001
,
00000010
00010000
00001000
00000000
,
01020000
10000000
01000000
10030000
,
00100000
00001000
00010000
00000000
,
00001020
00010000
00001000
00010030
,
00000100
00001000
00000010
00000000
,
00000100
00000000
00000001
00000010
00000000
00000100
00000000
00000100
,
00000000
00000000
00000000
00011000
,
00100000
01000000
00010000
10000000
,
00100000
00010000
00001000
01000000
,
00010000
00100000
01000000
00010000
,
00001000
00000010
00000001
00000100
,
00001000
00010000
00001000
00000100
,
00000010
00010000
00001000
00000010
,
00000100
00010000
00001000
00100000
,
00010000
01000000
00010000
00000000
,
10000000
00100000
00100000
01000000
,
00010000
00100000
01100000
00000000
,
01000000
00010000
00001000
00000010
,
00000001
00001000
00001001
00000000
,
00000010
00001000
00010000
00001000
,
00000100
00001000
00010000
00001000
,
00010000
01000000
10000000
00100000
,
10000000
01000000
00010000
00000000
,
00000010
00000100
00001000
00000001
,
00000010
00001000
00010000
00000100
,
00001000
00000010
00000100
00001000
,
00010000
00100000
10000000
01000000
,
00010000
00001000
00010000
01000000
,
00100000
00001000
00010000
00100000
,
01000000
00001000
00010000
00000010
,
00001000
00000100
00001000
00000000
,
00000001
00000010
00000010
00000100
,
00001000
00000010
00000110
00000000
,
00000100
00001000
00010000
00100000
,
10000000
00010000
10010000
00000000
,
00100000
00010000
00001000
00010000
,
01000000
00010000
00001000
00010000
,
00001000
00000100
00000001
00000010
,
00000001
00000100
00001000
00000000
,
00010000
00010000
00010000
00000000
00000000
00000000
00000000
00000000
,
00100000
00100000
10010000
10010000
,
01000000
01000000
01100000
01100000
,
00010000
00010000
00011000
00011000
,
00000100
00000100
00000110
00000110
,
00000000
00000001
00000100
00000010
,
00000000
00001000
00000100
00000010
,
00000000
00000000
00000100
00000000
00010000
00000000
00001000
00100000
,
00000000
00010000
00000000
00100000
00000000
00010000
00000000
00000000
,
01000000
01000000
10010000
10010000
,
00100000
00100000
01100000
01100000
,
00010000
00010000
00011000
00011000
,
00000010
00000010
00000110
00000110
,
00000000
00000001
00000010
00000100
,
00000000
00001000
00000010
00000100
,
00001000
00010000
00001000
00100000
,
01000000
01100000
00000000
00000000
,
10000000
01000000
00010000
00000100
,
00000010
00000001
00000010
00000001
,
00000001
00000100
00001000
01000000
,
00100000
10000000
00100000
10000000
,
10000000
00100000
00010000
00000010
,
00000100
00000001
00000100
00000001
,
00000001
00000010
00001000
00100000
,
01000000
10000000
01000000
00000000
,
01020000
10000000
01000000
10030000
,
00100000
00001000
00010000
00000000
,
00002100
00000001
00000100
00003001
,
00000010
00010000
00001000
00000000
,
00210000
00001000
00010000
00301000
,
01000000
00010000
00100000
00000000
,
00001020
00010000
00001000
00010030
,
00000100
00001000
00000010
00000000
,
00000010
00000000
00000100
00000000
00000000
00001000
00000000
00000000
,
00010000
00000000
00022000
00000000
,
00000000
00000000
00000000
00000000
,
00000000
00000000
00000000
00000000
,
00000000
00000000
00000000
00033000
,
00000000
00000000
00000000
00000000
;
#NOTES:
     dance-double:
     :
     Hard:
     11:
     :
00000000
00000000
00000000
00000000
,
00000000
00000000
00000000
00000000
,
00000000
00000000
00000000
00000000
,
00000000
00000000
00000000
00000000
,
00000000
00000000
00000000
00000000
,
00000010
00000000
00000010
00000000
00000001
00001000
00000001
00001000
,
00000010
00000000
00000010
00000000
00010000
00001000
00010000
00001000
,
00000100
00000000
00000100
00000000
00010000
00001000
00010000
00001000
,
00100000
00000000
00100000
00000000
01000000
00010000
01000000
00000000
,
00100000
10000000
02000000
00000000
00100000
00000000
10000000
00000000
,
00010000
00000000
03010000
00000000
00001000
00000010
00000100
00000000
,
00000010
00000001
00000200
00000000
00000010
00000000
00000001
00000000
,
00001000
00000000
00001300
00000000
00010000
00100000
01000000
00000000
,
00100000
10000000
00020000
00000000
00100000
00000000
10000000
00000000
,
01000000
00000000
01030000
00000000
00100000
00010000
00001000
00000000
,
00000010
00000001
00001000
00000010
00000000
00000100
00000010
00000100
,
00000000
00000000
00000000
00000110
,
00000001
00000000
00000100
00000000
00001000
00000100
00000001
00000000
,
00000001
00000010
00001000
00000000
00010000
00000000
00100000
00000000
,
00010000
00000010
00001000
00000010
,
00010000
00100000
01000000
00010000
,
10000000
00000000
01000000
00000000
00010000
01000000
10000000
00000000
,
10000000
00100000
00010000
00000000
00001000
00000000
00000010
00000000
,
00001000
00100000
00010000
00100000
,
00001000
00000010
00000100
00001000
,
00000001
00000000
00000100
00001000
00000100
00000000
00000010
00000000
,
00010000
00000000
00001000
00010000
00001000
00000000
00000000
00000000
,
00100000
00000000
01000000
10000000
01000000
00000000
00100000
00000000
,
00010000
00000000
01000000
00010000
01000000
00000000
00000000
00000000
,
00001000
00000000
00010000
00000000
00000010
00001000
00000100
00000000
,
00010000
00000000
00001000
00000000
00100000
00010000
01000000
00000000
,
00100000
00010000
00001000
00000010
,
00001000
00010000
01000000
10000000
,
10000000
00000000
01000000
00000000
00010000
01000000
10000000
00000000
,
10000000
00100000
00010000
00000000
00001000
00000000
00000010
00000000
,
00001000
00100000
00010000
00100000
,
00001000
00000010
00000100
00001000
,
00000001
00000000
00000100
00000000
00001000
00000100
00000001
00000000
,
00000001
00000010
00001000
00000000
00010000
00000000
00100000
00000000
,
00010000
00000010
00001000
00000010
,
00010000
00100000
01000000
00010000
,
10000000
00000000
01000000
00010000
01000000
00000000
00100000
00000000
,
00001000
00000000
00010000
00001000
00010000
00000000
00000000
00000000
,
00000010
00000000
00000100
00000001
00000100
00000000
00000010
00000000
,
00001000
00000000
00000100
00001000
00000100
00000000
00000000
00000000
,
00010000
00000000
00001000
00000000
00100000
00010000
01000000
00000000
,
00001000
00000000
00010000
00000000
00000010
00001000
00000100
00000000
,
00000010
00001000
00010000
00100000
,
00010000
00001000
00000100
00000001
,
00001000
00000001
00001000
00000000
00000100
00000000
00000100
00000000
,
00010100
00000000
00010100
00000000
00000010
00000100
00010000
00000000
,
01001000
00000000
01001000
00000000
00100000
00001000
01000000
00000000
,
00010010
00000000
00010010
00000000
00000100
00001000
00000010
00000000
,
00101000
00000000
00101000
00000000
01000000
00010000
00100000
01000000
,
00000000
10000000
00010000
00000000
01000000
00100000
10000000
01000000
,
00000000
00010000
00001000
00000000
00000010
00001000
00010000
00000100
,
00000000
00000000
00000010
00000000
00000001
00000000
00001000
00000010
,
00000000
00000100
00000000
00001000
00000000
00010000
00001000
00000000
,
01001000
00000000
01001000
00000000
00100000
01000000
00001000
00000000
,
00010100
00000000
00010100
00000000
00000010
00010000
00000100
00000000
,
00101000
00000000
00101000
00000000
01000000
00010000
00100000
00000000
,
00010010
00000000
00010010
00000000
00000100
00001000
00000010
00000100
,
00000000
00000001
00001000
00000000
00000100
00000010
00000001
00000100
,
00000000
00001000
00010000
00000000
00100000
00010000
00001000
01000000
,
00000000
00000000
00010000
00000000
00100000
00000000
00010000
10000000
,
00100000
01100000
00000000
00000000
,
10100000
10100000
11000000
10100000
,
00110000
00110000
01010000
00110000
,
00011000
00011000
00001010
00011000
,
00001100
00001100
00000101
00001100
,
00000001
00000100
00010000
01000000
,
00100000
00000000
10000000
00000000
00010000
01000000
00010000
00000000
,
10000000
01000000
00001000
00000100
,
00000010
00000000
00000001
00000000
00001000
00000100
00001000
00000000
,
00000010
00000001
00000200
00000000
00000010
00000000
00000001
00000000
,
00001000
00000000
00001300
00000000
00010000
00100000
01000000
00000000
,
00100000
10000000
02000000
00000000
00100000
00000000
10000000
00000000
,
00010000
00000000
03010000
00000000
00001000
00000010
00000100
00000000
,
00000010
00000001
00002000
00000000
00000010
00000000
00000001
00000000
,
00000100
00000000
00003100
00000000
00000010
00001000
00010000
00000000
,
00100000
10000000
00020000
00000000
00100000
00000000
10000000
00000000
,
01000000
00000000
01030000
00000000
00100000
00010000
00001000
00000000
,
00000100
00000001
00001000
00000000
00000000
00000110
00000000
00000000
,
00001001
00000000
00000220
00000000
,
00000000
00000000
00000000
00000000
,
00000000
00000000
00000000
00000000
,
00000000
00000000
00000000
00000330
,
00000000
00000000
00000000
00000000
;
#NOTES:
     dance-double:
     :
     Challenge:
     12:
     :
00000000
00000000
00000000
00000000
,
00000000
00000000
00000000
00000000
,
00000000
00000000
00000000
00000000
,
00000000
00000000
00000000
00000000
,
00000000
00000000
00000000
00000000
,
00100000
00000000
00100000
00000000
10000000
00010000
10000000
00010000
,
00100000
00000000
00100000
00000000
00001000
00010000
00001000
00010000
,
01000000
00000000
01000000
00000000
00001000
00010000
00001000
00010000
,
00000010
00000000
00000010
00000000
00000100
00001000
00000100
00000000
,
00000010
00000001
00000200
00000000
00000010
00000000
00000001
00000000
,
00001300
00000000
MMMMMMMM
00000000
00010000
00100000
01000000
00000000
,
00100000
10000000
02000000
00000000
00100000
00000000
10000000
00000000
,
03010000
00000000
MMMMMMMM
00000000
00001000
00000010
00000100
00000000
,
00000010
00000001
00002000
00000000
00000010
00000000
00000001
00000000
,
00003100
00000000
MMMMMMMM
00000000
00000010
00001000
00010000
00000000
,
00100000
10000000
00010000
00100000
00000000
01000000
00100000
01000000
,
00000000
00000000
00000000
MMMMMMMM
,
10000000
00000000
01000000
00000000
00010000
01000000
10000000
00000000
,
10000000
00100000
00010000
00000000
00001000
00000000
00000010
00000000
,
00001000
00100000
00010000
MMMMMMMM
,
00001000
00000010
00000100
MMMMMMMM
,
00000001
00000000
00000100
00000000
00001000
00000100
00000001
00000000
,
00000001
00000010
00001000
00000000
00010000
00000000
00100000
00000000
,
00010000
00000010
00001000
MMMMMMMM
,
00010000
00100000
01000000
MMMMMMMM
,
10000000
00000000
01000000
00010000
01000000
00000000
00100000
00000000
,
00001000
00000000
00010000
00001000
00010000
00000000
MMMMMMMM
00000000
,
00000010
00000000
00000100
00000001
00000100
00000000
00000010
00000000
,
00001000
00000000
00000100
00001000
00000100
00000000
MMMMMMMM
00000000
,
00010000
00000000
00001000
00000000
00100000
00010000
01000000
00000000
,
00001000
00000000
00010000
00000000
00000010
00001000
00000100
00000000
,
00000010
00001000
00010000
00100000
,
00010000
00001000
00000100
00000001
,
00000001
00000000
00000100
00000000
00001000
00000100
00000001
00000000
,
00000001
00000010
00001000
00000000
00010000
00000000
00100000
00000000
,
00010000
00000010
00001000
MMMMMMMM
,
00010000
00100000
01000000
MMMMMMMM
,
10000000
00000000
01000000
00000000
00010000
01000000
10000000
00000000
,
10000000
00100000
00010000
00000000
00001000
00000000
00000010
00000000
,
00001000
00100000
00010000
MMMMMMMM
,
00001000
00000010
00000100
MMMMMMMM
,
00000001
00000000
00000100
00001000
00000100
00000000
00000010
00000000
,
00010000
00000000
00001000
00010000
00001000
00000000
MMMMMMMM
00000000
,
00100000
00000000
01000000
10000000
01000000
00000000
00100000
00000000
,
00010000
00000000
01000000
00010000
01000000
00000000
MMMMMMMM
00000000
,
00001000
00000000
00010000
00000000
00000010
00001000
00000100
00000000
,
00010000
00000000
00001000
00000000
00100000
00010000
01000000
00000000
,
00100000
00010000
00001000
00000010
,
00001000
00010000
01000000
10000000
,
00010000
10000000
00010000
00000000
01000000
00000000
01000000
00000000
,
01001000
00000000
01001000
00000000
MMMMMMMM
01000000
00001000
00000000
,
00010100
00000000
00010100
00000000
MMMMMMMM
00010000
00000100
00000000
,
00101000
00000000
00101000
00000000
MMMMMMMM
00010000
00100000
00000000
,
00010010
00000000
00010010
00000000
MMMMMMMM
00001000
00000010
00000100
,
00000000
00000001
00001000
00000000
00000100
00000010
00000001
00000100
,
00000000
00001000
00010000
00000000
00100000
00010000
00001000
01000000
,
00000000
00000000
00100000
00000000
10000000
00000000
00010000
00100000
,
00000000
01000000
00000000
00010000
00000000
00001000
00010000
00000000
,
00010100
00000000
00010100
00000000
MMMMMMMM
00000100
00010000
00000000
,
01001000
00000000
01001000
00000000
MMMMMMMM
00001000
01000000
00000000
,
00010010
00000000
00010010
00000000
MMMMMMMM
00001000
00000010
00000000
,
00101000
00000000
00101000
00000000
MMMMMMMM
00010000
00100000
01000000
,
00000000
10000000
00010000
00000000
01000000
00100000
10000000
01000000
,
00000000
00010000
00001000
00000000
00000010
00001000
00010000
00000100
,
00000000
00000000
00001000
00000000
00000010
00000000
00001000
00000001
,
00000010
00000110
00000000
MMMMMMMM
,
00000011
00000011
MMMMMMMM
00000011
,
00001010
00001010
MMMMMMMM
00001010
,
00011000
00011000
MMMMMMMM
00011000
,
01010000
01010000
MMMMMMMM
01010000
,
10000000
01000000
00001000
00000100
,
00000010
00000000
00000001
00000000
MMMMMMMM
00000100
00001000
00000000
,
00000001
00000100
00010000
01000000
,
00100000
00000000
10000000
00000000
MMMMMMMM
01000000
00010000
00000000
,
00100000
10000000
02000000
00000000
00100000
00000000
10000000
00000000
,
03010000
00000000
MMMMMMMM
00000000
00001000
00000010
00000100
00000000
,
00000010
00000001
00000200
00000000
00000010
00000000
00000001
00000000
,
00001300
00000000
MMMMMMMM
00000000
00010000
00100000
01000000
00000000
,
00100000
10000000
00020000
00000000
00100000
00000000
10000000
00000000
,
01030000
00000000
MMMMMMMM
00000000
00100000
00010000
00001000
00000000
,
00000010
00000001
00002000
00000000
00000010
00000000
00000001
00000000
,
00003100
00000000
MMMMMMMM
00000000
00000010
00001000
00010000
00000000
,
01000000
10000000
00010000
00000000
00000000
01100000
00000000
00000000
,
10010000
MMMMMMMM
02200000
00000000
,
00000000
00000000
00000000
00000000
,
00000000
00000000
00000000
00000000
,
00000000
00000000
00000000
03300000
,
00000000
00000000
00000000
00000000
;
