
//----- song ID: lvng -----//
#TITLE:Leaving...;
#ARTIST:seiya-murai meets “eimy”;
#BANNER:Leaving.png;
#BACKGROUND:Leaving-bg.png;
#CDTITLE:./CDTitles/bm IIDX 13 DistorteD.png;
#MUSIC:Leaving.ogg;
#SAMPLESTART:67.06;
#SAMPLELENGTH:15;
#BPMS:0=145;
#NOTES:
     dance-single:
     :
     Beginner:
     2:
     :
0000
0000
0000
0000
,
0000
0000
0000
0000
,
0000
0000
0000
0000
,
0000
0000
0000
0000
,
0000
0000
0000
0000
,
0002
0000
0003
0000
,
0020
0000
0030
0000
,
0200
0000
0300
0000
,
2000
0000
3000
0000
,
1001
0000
0000
0000
,
0000
0000
0000
0000
,
0001
0000
0001
0000
,
1000
0000
0000
0000
,
1000
0000
1000
0000
,
0001
0000
0000
0000
,
0010
0000
0010
0000
,
0001
0000
0000
0000
,
0010
0000
0010
0000
,
1000
0000
0000
0000
,
0001
0000
0000
0000
,
0100
0000
0000
0000
,
1000
0000
0000
0000
,
0010
0000
0000
0000
,
0001
0001
0000
0000
,
1000
1000
0000
0000
,
1000
0000
0000
0000
,
0100
0000
0000
0000
,
0001
0000
0000
0000
,
0010
0000
0000
0000
,
1000
1000
0000
0000
,
0001
0001
0000
0000
,
1000
0000
1000
0000
,
0200
0000
0300
0000
,
0001
0000
0001
0000
,
0200
0000
0300
0000
,
1000
0000
1000
0000
,
0200
0000
0300
0000
,
0001
0000
0000
0000
,
0010
0000
0000
0000
,
1000
0000
0000
0000
,
1001
0000
0000
0000
,
0001
0000
0010
0000
,
0001
0000
0001
0000
,
1000
0000
0010
0000
,
1000
0000
1000
0000
,
0001
0000
0000
0000
,
1000
0000
0000
0000
,
0100
0000
0000
0000
,
0100
0000
0000
0000
,
1000
1000
1000
0000
,
0001
0001
0001
0000
,
0010
0010
0010
0000
,
0100
0100
0100
0000
,
0001
0000
0001
0000
,
1000
0000
1000
0000
,
0002
0000
0003
0000
,
2000
0000
3000
0000
,
2002
0000
0000
0000
,
0000
0000
3003
0000
,
0010
0000
0000
0000
,
0100
0000
0000
0000
,
0000
0000
0000
0000
;
#NOTES:
     dance-single:
     :
     Easy:
     5:
     :
0000
0000
0000
0000
,
0000
0000
0000
0000
,
0000
0000
0000
0000
,
0000
0000
0000
0000
,
0000
0000
0000
0000
,
0010
0010
0010
0010
,
0001
0001
1000
1000
,
0010
0010
0010
0010
,
0100
0100
0100
0100
,
0020
0000
0000
0000
,
0200
0000
0000
0330
,
1001
0000
1100
0000
,
1001
0000
0101
0000
,
1001
0000
1010
0000
,
1001
0000
0011
0000
,
0110
0000
1100
0000
,
0110
0000
0101
0000
,
0110
0000
1010
0000
,
0110
0000
0011
0000
,
1000
0100
0010
0100
,
0010
0001
0100
0001
,
1000
0010
0100
0001
,
1000
0010
0100
0000
,
0002
0000
0100
0103
,
2000
0000
0100
3100
,
0001
0100
0010
0100
,
0010
1000
0100
1000
,
0001
0010
0100
1000
,
0001
0010
0100
0000
,
2000
0000
0100
3100
,
0002
0000
0100
0103
,
0100
0010
0100
0000
,
0001
0010
1000
0010
,
0100
0010
0100
0000
,
1000
0010
0001
0010
,
1000
0001
0100
0000
,
1000
0100
0001
0100
,
0001
0100
1000
0000
,
0001
0100
1000
0000
,
0001
0000
1000
0000
,
0010
0010
0000
1001
,
0001
1000
0001
1000
,
0100
1000
0001
0010
,
0001
1000
0001
1000
,
0100
0010
0001
0100
,
0010
0100
0001
0001
,
0010
0100
1000
1000
,
0100
1000
0001
0010
,
0001
0100
1000
0000
,
1000
0001
1000
0001
,
0100
0001
1000
0010
,
1000
0001
1000
0001
,
0100
0010
1000
0100
,
0010
0100
1000
1000
,
0010
0100
0001
0001
,
0100
0001
1000
0010
,
1000
0100
0001
0000
,
0200
0000
0000
0000
,
0020
0000
0000
0330
,
0001
0001
0001
0001
,
1000
1000
1000
1000
,
0000
0000
0000
0000
;
#NOTES:
     dance-single:
     :
     Medium:
     8:
     :
0000
0000
0000
0000
,
0000
0000
0000
0000
,
0000
0000
0000
0000
,
0000
0000
0000
0000
,
0000
0000
0000
0000
,
0010
0010
0010
0010
,
1000
1000
0001
0001
,
0010
0010
0010
0010
,
0100
0100
0100
0100
,
0020
0000
0000
0000
,
0200
0000
0000
0330
,
0010
0001
0000
0001
0100
0000
0010
1000
,
0000
1000
0100
0000
0010
0000
0100
0000
,
0010
0001
0000
0001
0100
0000
0010
1000
,
0000
1000
0100
0000
0010
0000
0100
0000
,
0010
0001
0000
1000
0001
0000
0100
0001
,
0000
1000
0001
0000
0010
0000
0100
0000
,
0010
1000
0000
0001
1000
0000
0100
1000
,
0000
0001
1000
0000
0010
0000
0100
0000
,
0001
0100
0010
0100
,
0010
1000
0100
0000
0010
0100
1000
0000
,
0001
0010
0100
1000
,
0001
1000
0010
0000
0100
0001
0010
0000
,
2000
0000
0100
3010
,
0002
0000
0100
0013
,
1000
0100
0010
0100
,
0010
0001
0100
0000
0010
0100
0001
0000
,
1000
0010
0100
0001
,
1000
0001
0010
0000
0100
1000
0010
0000
,
0002
0000
0100
0013
,
2000
0000
0100
3010
,
0100
0000
0010
0000
0100
0010
0001
0000
,
1000
0010
0001
0010
,
0100
0000
0010
0000
0100
0010
1000
0000
,
0001
0010
1000
0010
,
0001
0000
1000
0000
0100
0001
0010
0000
,
0001
0100
1000
0100
,
1000
0100
0001
0010
,
1000
0100
0001
0010
,
1000
0000
0001
0000
,
0010
0100
0010
0100
0000
0000
1001
0000
,
1000
0000
0001
0000
1000
0100
0001
0000
,
0100
0000
0001
0000
1000
0100
0010
0000
,
1000
0000
0010
0000
1000
0001
0010
0000
,
0100
0000
0010
0000
1000
0010
0100
0000
,
0010
1000
0100
0100
,
0010
0000
0001
0000
0100
0000
0100
0010
,
0100
0001
1000
0010
,
1000
0100
0001
0010
,
0001
0000
1000
0000
0001
0100
1000
0000
,
0100
0000
1000
0000
0001
0100
0010
0000
,
0001
0000
0010
0000
0001
1000
0010
0000
,
0100
0000
0010
0000
0001
0010
0100
0000
,
0010
0001
0100
0100
,
0010
0000
1000
0000
0100
0000
0100
0010
,
0100
1000
0001
0010
,
0001
0100
1000
0010
,
0200
0000
0000
0000
,
0020
0000
0000
0330
,
1000
0010
0000
0001
0010
0000
1000
0100
,
0000
0001
0100
0000
0010
0100
0000
2002
,
0000
0000
0000
0000
,
0000
0000
0000
0000
,
3003
0000
0000
0000
,
0000
0000
0000
0000
;
#NOTES:
     dance-single:
     :
     Hard:
     11:
     :
0000
0000
0000
0000
,
0000
0000
0000
0000
,
0000
0000
0000
0000
,
0000
0000
0000
0000
,
0000
0000
0000
0000
,
0010
0010
0010
0010
,
0001
0001
1000
1000
,
0010
0010
0010
0010
,
0100
0100
0100
0100
,
0020
0000
0000
0000
,
0200
0000
0000
0330
,
0010
1000
0000
1010
0000
0000
0100
1000
0000
1100
0000
0000
0001
0010
0000
0011
,
0000
0000
0001
0100
0000
0101
0000
0000
0010
0000
1000
0000
0100
0000
0010
0000
,
0001
0010
0000
0011
0000
0000
0100
0010
0000
0110
0000
0000
0001
0100
0000
0101
,
0000
0000
0010
1000
0000
1010
0000
0000
0001
0000
1000
0000
0001
0000
0010
0000
,
0100
1000
0000
1100
0000
0000
0001
0100
0000
0101
0000
0000
0010
0100
0000
0110
,
0000
0000
0001
1000
0000
1001
0000
0000
0010
0000
0100
0000
0001
0000
0010
0000
,
0100
1000
0000
1100
0000
0000
0010
0001
0000
0011
0000
0000
1000
0010
0000
1010
,
0000
0000
0001
0100
0000
0101
0000
0000
0010
0000
1000
0000
0001
0000
0010
0000
,
0100
1000
0100
0000
0010
0001
0100
0000
,
0010
1000
0100
0000
1000
0001
0100
0010
,
0100
1000
0100
0000
0001
0010
0100
0000
,
1000
0001
0010
0000
0100
1000
0010
0000
,
0002
1000
0100
0013
,
2000
0001
0100
3010
,
0100
0001
0100
0000
0010
1000
0100
0000
,
0010
0001
0100
0000
0001
1000
0100
0010
,
0100
0001
0100
0000
1000
0010
0100
0000
,
0001
1000
0010
0000
0100
0001
0010
0000
,
2000
0001
0100
3010
,
0002
1000
0100
0013
,
0100
0000
0000
0000
1000
0000
0000
0001
0100
0000
0010
0000
1000
0000
0000
0000
,
0001
0010
1000
0010
,
0100
0000
0000
0000
0001
0000
0000
1000
0100
0000
0010
0000
0001
0000
0000
0000
,
1000
0010
0001
0010
,
1000
0000
0000
0000
0001
0000
0000
0010
0100
0000
1000
0000
0010
0000
0000
0000
,
1000
0100
0001
0100
,
0001
0100
1000
0010
,
0001
0100
1000
0010
,
0001
0000
1000
0000
,
0010
0001
1000
0100
0000
0000
0010
0000
,
0001
0001
1000
0000
0001
0100
1000
0000
,
0100
0001
1000
0000
0001
0100
0010
1000
,
0001
0001
0010
0000
0001
1000
0010
0000
,
0100
0001
0010
0000
0001
0010
0100
1000
,
0010
0010
0100
0000
0001
0010
0001
0000
,
0100
0010
0100
0000
0010
1000
0001
0100
,
1000
0100
0001
0010
,
0001
0100
1000
0010
,
1000
1000
0001
0000
1000
0100
0001
0000
,
0100
1000
0001
0000
1000
0100
0010
0001
,
1000
1000
0010
0000
1000
0001
0010
0000
,
0100
1000
0010
0000
1000
0010
0100
0001
,
0010
0010
0100
0000
1000
0010
1000
0000
,
0100
0010
0100
0000
0010
0001
1000
0100
,
0001
0100
1000
0010
,
1000
0100
0001
0010
,
0200
0000
0000
0000
,
0020
0000
0000
0330
,
0001
0010
0000
0001
0000
0000
1000
0010
0000
1000
0000
0000
0001
0100
0000
0001
,
0000
0000
1000
0100
0000
1000
0000
0000
0010
0100
0000
0010
0000
0000
2002
0000
,
0000
0000
0000
0000
,
0000
0000
0000
0000
,
3003
0000
0000
0000
,
0000
0000
0000
0000
;
#NOTES:
     dance-single:
     :
     Challenge:
     13:
     :
0000
0000
0000
0000
,
0000
0000
0000
0000
,
0000
0000
0000
0000
,
0000
0000
0000
0000
,
0000
0000
0000
0000
,
0010
0010
0010
0010
,
1000
1000
0001
0001
,
0010
0010
0010
0010
,
0100
0100
0100
0100
,
0020
0000
0000
0000
,
0200
0000
0000
0330
,
0010
0001
0000
0010
0001
0000
0100
0001
0000
0100
0001
0000
1000
0010
0000
1000
,
0010
0000
1000
0100
0000
1000
0100
0000
0010
0000
0001
0000
0100
0000
0010
0000
,
1000
0010
0000
1000
0010
0000
0100
0010
0000
0100
0010
0000
1000
0100
0000
1000
,
0100
0000
0010
0001
0000
0010
0001
0000
1000
0000
0001
0000
1000
0000
0010
0000
,
0100
0001
0000
0100
0010
0000
1000
0100
0000
1000
0010
0000
0100
0001
0000
0100
,
0010
0000
1000
0001
0000
1000
0100
0000
0010
0000
0100
0000
1000
0000
0010
0000
,
0100
0001
0000
0100
0010
0000
1000
0100
0000
1000
0010
0000
0100
0001
0000
0100
,
0010
0000
1000
0001
0000
1000
0100
0000
0010
0000
0001
0000
1000
0000
0010
0000
,
0100
0001
0100
1000
0100
0010
0100
0010
,
0100
0001
0100
1000
0100
0010
0100
0010
,
0100
0001
0100
1000
0100
0010
0100
0010
,
0100
0001
0100
1000
0100
0001
0010
0100
,
1000
0000
0001
0010
0100
1000
0100
0000
,
0001
0000
1000
0010
0100
0001
0010
0000
,
0100
1000
0100
0001
0100
0010
0100
0010
,
0100
1000
0100
0001
0100
0010
0100
0010
,
0100
1000
0100
0001
0100
0010
0100
0010
,
0100
1000
0100
0001
0100
1000
0010
0100
,
0001
0000
1000
0010
0100
0001
0100
0000
,
1000
0000
0001
0010
0100
1000
0010
0000
,
0100
0000
0000
0000
0101
0000
0000
1000
0100
0000
0010
0000
0001
0000
0000
0000
,
2000
0010
0001
3010
,
0100
0000
0000
0000
1100
0000
0000
0001
0100
0000
0010
0000
1000
0000
0000
0000
,
0002
0010
1000
0013
,
0010
0000
0000
0000
1010
0000
0000
0001
0010
0000
0100
0000
1000
0000
0000
0000
,
0002
0100
1000
0103
,
2000
3200
0302
0023
,
2030
3200
0302
0023
,
1030
0000
0001
0000
,
0010
1000
0001
0100
0000
0000
0010
0000
,
1000
0000
1000
0000
0001
0100
0000
0001
1000
0000
1000
0000
0001
0010
0000
0001
,
1000
0000
1000
0000
0010
0100
0000
0010
1000
0000
0100
0000
0010
0000
0001
0000
,
1000
0000
1000
0000
0001
0010
0000
0001
1000
0000
1000
0000
0001
0100
0000
0001
,
1000
0000
1000
0000
0100
0010
0000
0100
1000
0000
0010
0000
0100
0000
0001
0000
,
0010
0000
0010
0000
0100
1000
0000
0001
0010
0000
0010
0000
0001
0100
0000
0001
,
0010
0000
0010
0000
0001
1000
0000
0100
0010
0000
0001
0000
1000
0000
0100
0000
,
0001
0100
1000
0010
,
1000
0100
0001
0010
,
0001
0000
0001
0000
1000
0100
0000
1000
0001
0000
0001
0000
1000
0010
0000
1000
,
0001
0000
0001
0000
0010
0100
0000
0010
0001
0000
0100
0000
0010
0000
1000
0000
,
0001
0000
0001
0000
1000
0010
0000
1000
0001
0000
0001
0000
1000
0100
0000
1000
,
0001
0000
0001
0000
0100
0010
0000
0100
0001
0000
0010
0000
0100
0000
1000
0000
,
0010
0000
0010
0000
0100
0001
0000
1000
0010
0000
0010
0000
1000
0100
0000
1000
,
0010
0000
0010
0000
1000
0001
0000
0100
0010
0000
1000
0000
0001
0000
0100
0000
,
1000
0100
0001
0010
,
0001
0100
1000
0010
,
0200
0000
0000
0000
,
0020
0000
0000
0330
,
1000
0010
0000
0010
1000
0000
0001
0010
0000
0010
0001
0000
1000
0100
0000
0100
,
1000
0000
0001
0100
0000
0100
0001
0000
0010
0100
0000
0100
0010
0000
2002
0000
,
0000
0000
0000
0000
,
0000
0000
0000
0000
,
3003
0000
0000
0000
,
0000
0000
0000
0000
;
#NOTES:
     dance-double:
     :
     Easy:
     5:
     :
00000000
00000000
00000000
00000000
,
00000000
00000000
00000000
00000000
,
00000000
00000000
00000000
00000000
,
00000000
00000000
00000000
00000000
,
00000000
00000000
00000000
00000000
,
00100000
00100000
00100000
00100000
,
00010000
00010000
10000000
10000000
,
00100000
00100000
00100000
00100000
,
01000000
01000000
01000000
01000000
,
00002000
00000000
00000000
00000000
,
00020000
00000000
00000000
00033000
,
00001000
00000010
00000100
00000000
,
00000010
00000001
00000100
00000000
,
00001000
00010000
00001000
00000000
,
00010000
01000000
10000000
00000000
,
00010000
10000000
01000000
00000000
,
10000000
00100000
01000000
00000000
,
00100000
00010000
00001000
00000000
,
00000100
00000001
00001000
00000000
,
00000010
00001000
00000100
00001000
,
00000010
00010000
00001000
00000000
,
00100000
00010000
01000000
10000000
,
00010000
00100000
01000000
00000000
,
20000000
00000000
00100000
30100000
,
00020000
00000000
00100000
00130000
,
00100000
00010000
01000000
00010000
,
00100000
00001000
00010000
00000000
,
00000010
00001000
00000100
00000001
,
00001000
00000010
00000100
00000000
,
00000002
00000000
00000010
00000013
,
00002000
00000000
00000010
00003010
,
00000100
00000010
00000100
00000000
,
00000100
00001000
00010000
01000000
,
01000000
00100000
01000000
00000000
,
01000000
00010000
00001000
00000100
,
00000010
00000100
00000010
00000000
,
00000010
00001000
00010000
00100000
,
10000000
01000000
00010000
00000000
,
00010000
01000000
10000000
00000000
,
00010000
00000000
10000000
00000000
,
00100000
00100000
00000000
10010000
,
10000000
00010000
10000000
00010000
,
01000000
00001000
00010000
00000010
,
00001000
00000001
00001000
00000001
,
00000010
00000100
00010000
00001000
,
00100000
00010000
01000000
00000000
,
00100000
10000000
01000000
00000000
,
00010000
00001000
00000010
00000001
,
00001000
00000001
00001000
00000000
,
00000001
00001000
00000001
00001000
,
00000100
00010000
00001000
00100000
,
00010000
10000000
00010000
10000000
,
00100000
01000000
00001000
00010000
,
00000010
00001000
00000100
00000000
,
00000010
00000001
00000100
00000000
,
00001000
00010000
00100000
10000000
,
00010000
10000000
00010000
00000000
,
00200000
00000000
00000000
00000000
,
02000000
00000000
00000000
03300000
,
10000000
10000000
10000000
10000000
,
00010000
00010000
00010000
00010000
,
00000000
00000000
00000000
00000000
;
#NOTES:
     dance-double:
     :
     Medium:
     8:
     :
00000000
00000000
00000000
00000000
,
00000000
00000000
00000000
00000000
,
00000000
00000000
00000000
00000000
,
00000000
00000000
00000000
00000000
,
00000000
00000000
00000000
00000000
,
00000010
00000010
00000010
00000010
,
00000001
00000001
00001000
00001000
,
00000010
00000010
00000010
00000010
,
00000100
00000100
00000100
00000100
,
00002000
00000000
00000000
00000000
,
00020000
00000000
00000000
00033000
,
00100000
10000000
00000000
10000000
01000000
00000000
01000000
00010000
,
00000000
00010000
00001000
00000000
00000010
00000000
00000100
00000000
,
00000010
00000001
00000000
00000001
00000100
00000000
00000100
00001000
,
00000000
00001000
00010000
00000000
00100000
00000000
01000000
00000000
,
00100000
10000000
00000000
00010000
00100000
00000000
00001000
00010000
,
00000000
00000100
00001000
00000000
00000100
00000000
00000100
00000000
,
00000010
00000001
00000000
00001000
00000010
00000000
00010000
00001000
,
00000000
01000000
00010000
00000000
01000000
00000000
01000000
00000000
,
00100000
01000000
00010000
00100000
,
00001000
00100000
00010000
00000000
00100000
00001000
00010000
00000000
,
00100000
10000000
01000000
00100000
,
00001000
01000000
00010000
00000000
01000000
00001000
00010000
00000000
,
00000020
00000000
00000100
00000130
,
00000001
00001000
00000100
00000000
,
00000010
00000100
00001000
00000010
,
00010000
00000010
00001000
00000000
00000010
00010000
00001000
00000000
,
00000010
00000001
00000100
00000010
,
00010000
00000100
00001000
00000000
00000100
00010000
00001000
00000000
,
00200000
00000000
01000000
01300000
,
10000000
00010000
01000000
00000000
,
10000000
00000000
01000000
00000000
00010000
00001000
00010000
00000000
,
00100000
00010000
00000010
00001000
,
00000100
00000000
00000010
00000000
00000001
00001000
00000100
00000000
,
00010000
00001000
00000010
00000001
,
00000001
00000000
00000100
00000000
00001000
00010000
00001000
00000000
,
00000010
00001000
00100000
00010000
,
10000000
00100000
01000000
00010000
,
00001000
00000010
00000100
00000001
,
00001000
00000000
00000001
00000000
,
00000010
00000100
00000010
00000100
00000000
00000000
00001001
00000000
,
00000001
00000000
00001000
00000000
00000001
00000100
00001000
00000000
,
00010000
00000000
00001000
00000000
00100000
00010000
01000000
00000000
,
00100000
00000000
10000000
00000000
00010000
00100000
01000000
00000000
,
00010000
00000000
00001000
00000000
01000000
00010000
00100000
00000000
,
00010000
00001000
00000100
00000010
,
00000001
00000000
00000100
00000000
00000010
00000000
00010000
00000010
,
00000100
00000010
00001000
00010000
,
01000000
00000000
00100000
00100000
,
10000000
00000000
00010000
00000000
10000000
01000000
00010000
00000000
,
00001000
00000000
00010000
00000000
00000010
00001000
00000100
00000000
,
00000010
00000000
00000001
00000000
00001000
00000010
00000100
00000000
,
00001000
00000000
00010000
00000000
00000100
00001000
00000010
00000000
,
00001000
00010000
01000000
00100000
,
10000000
00000000
01000000
00000000
00100000
00000000
00001000
00100000
,
01000000
00100000
00010000
00001000
,
00000100
00000000
00000010
00000010
,
00000200
00000000
00000000
00000000
,
00000020
00000000
00000000
00000330
,
00000001
00000010
00000000
00000100
00010000
00000000
00001000
00100000
,
00000000
01000000
10000000
00000000
00100000
01000000
00000000
20020000
,
00000000
00000000
00000000
00000000
,
00000000
00000000
00000000
00000000
,
30030000
00000000
00000000
00000000
,
00000000
00000000
00000000
00000000
;
#NOTES:
     dance-double:
     :
     Hard:
     11:
     :
00000000
00000000
00000000
00000000
,
00000000
00000000
00000000
00000000
,
00000000
00000000
00000000
00000000
,
00000000
00000000
00000000
00000000
,
00000000
00000000
00000000
00000000
,
00100000
00100000
00100000
00100000
,
10000000
10000000
00010000
00010000
,
00100000
00100000
00100000
00100000
,
01000000
01000000
01000000
01000000
,
00020000
00000000
00000000
00000000
,
00002000
00000000
00000000
00033000
,
00000010
00000001
00000000
00000011
00000000
00000000
00000100
00000001
00000000
00000101
00000000
00000000
00001000
00000010
00000000
00001010
,
00000000
00000000
00001000
00000100
00000000
00001100
00000000
00000000
00010000
00000000
00001000
00000000
00100000
00000000
00010000
00000000
,
10000000
00100000
00000000
10100000
00000000
00000000
01000000
00100000
00000000
01100000
00000000
00000000
10000000
01000000
00000000
11000000
,
00000000
00000000
00010000
01000000
00000000
01010000
00000000
00000000
00100000
00000000
00010000
00000000
00001000
00000000
00000000
00000000
,
00000100
00000001
00000000
00000101
00000000
00000000
00001000
00000100
00000000
00001100
00000000
00000000
00000010
00000100
00000000
00000110
,
00000000
00000000
00001000
00000001
00000000
00001001
00000000
00000000
00000100
00000000
00000010
00000000
00010000
00000000
00001000
00000000
,
01000000
00010000
00000000
01010000
00000000
00000000
10000000
00100000
00000000
10100000
00000000
00000000
00010000
00100000
00000000
00110000
,
00000000
00000000
10000000
01000000
00000000
11000000
00000000
00000000
00100000
00000000
00010000
00000000
10000000
00000000
00000000
00000000
,
00010000
01000000
00100000
00000000
10000000
01000000
00010000
00000000
,
00001000
00100000
00010000
00000000
00001000
00000100
00000010
00000100
,
00001000
00000001
00000100
00000000
00000010
00010000
00000100
00000000
,
00000010
00000001
00001000
00000000
00000010
00000100
00001000
00000000
,
00020000
00000000
00100000
00130000
,
00001000
00000010
00000001
00000000
,
00001000
00000100
00000010
00000000
00000001
00000100
00001000
00000000
,
00010000
00000010
00001000
00000000
00010000
01000000
00100000
01000000
,
00010000
10000000
01000000
00000000
00100000
00001000
01000000
00000000
,
00100000
10000000
00010000
00000000
00100000
01000000
00010000
00000000
,
00002000
00000000
00000010
00003010
,
00010000
00100000
10000000
00000000
,
00010000
00000000
00000000
00000000
01000000
00000000
00000000
00100000
10000000
00000000
01000000
00000000
00100000
00000000
00000000
00000000
,
00001000
00000010
00000100
00000010
,
00001000
00000000
00000000
00000000
00000100
00000000
00000000
00000010
00000001
00000000
00000100
00000000
00000010
00000000
00000000
00000000
,
00010000
00100000
01000000
00100000
,
10000000
00000000
00000000
00000000
01000000
00000000
00000000
00100000
01000000
00000000
10000000
00000000
00010000
00000000
00000000
00000000
,
00100000
00001000
00000010
00000001
,
00001000
00000010
00000100
00000001
,
00000001
00000010
00000100
00001000
,
00010000
00000000
00001000
00000000
,
00100000
00010000
10000000
00100000
00000000
00000000
01000000
00000000
,
00010000
01000000
00100000
00000000
10000000
01000000
00100000
00000000
,
01000000
10000000
00010000
00000000
10000000
00100000
00010000
00001000
,
00000100
00000001
00001000
00000000
00000100
00000010
00000001
00000000
,
00001000
00000001
00000100
00000000
00000010
00010000
00001000
00010000
,
00000010
00001000
00000100
00000000
00010000
00001000
01000000
00000000
,
00001000
00100000
01000000
00000000
00100000
00010000
10000000
01000000
,
00100000
01000000
10000000
00100000
,
00010000
00001000
00000010
00000001
,
00001000
00000100
00000010
00000000
00000001
00000100
00000010
00000000
,
00000100
00000001
00001000
00000000
00000001
00000010
00001000
00010000
,
01000000
10000000
00010000
00000000
01000000
00100000
10000000
00000000
,
00010000
10000000
01000000
00000000
00100000
00001000
00010000
00001000
,
00100000
00010000
01000000
00000000
00001000
00010000
00000100
00000000
,
00010000
00000010
00000100
00000000
00000010
00001000
00000001
00000100
,
00000010
00000100
00000001
00000010
,
00001000
00010000
00100000
10000000
,
02000000
00000000
00000000
00000000
,
00200000
00000000
00000000
03300000
,
10000000
00100000
00000000
10000000
00000000
00000000
00010000
01000000
00000000
00010000
00000000
00000000
00100000
00001000
00000000
00100000
,
00000000
00000000
00001000
00010000
00000000
00001000
00000000
00000000
00000010
00000100
00000000
00000010
00000000
00000000
00002002
00000000
,
00000000
00000000
00000000
00000000
,
00000000
00000000
00000000
00000000
,
00003003
00000000
00000000
00000000
,
00000000
00000000
00000000
00000000
;
#NOTES:
     dance-double:
     :
     Challenge:
     13:
     :
00000000
00000000
00000000
00000000
,
00000000
00000000
00000000
00000000
,
00000000
00000000
00000000
00000000
,
00000000
00000000
00000000
00000000
,
00000000
00000000
00000000
00000000
,
00000010
00000010
00000010
00000010
,
00001000
00001000
00000001
00000001
,
00000010
00000010
00000010
00000010
,
00000100
00000100
00000100
00000100
,
00020000
00000000
00000000
00000000
,
00002000
00000000
00000000
00033000
,
00100000
10000000
00000000
00100000
10000000
00000000
01000000
10000000
00000000
01000000
10000000
00000000
00010000
00100000
00000000
00010000
,
00100000
00000000
00010000
01000000
00000000
00010000
01000000
00000000
00100000
00000000
00010000
00000000
00001000
00000000
00000010
00000000
,
00000001
00000010
00000000
00000001
00000010
00000000
00000100
00000010
00000000
00000100
00000010
00000000
00000001
00000100
00000000
00000001
,
00000100
00000000
00000010
00001000
00000000
00000010
00001000
00000000
00000001
00000000
00000100
00000000
00001000
00000000
00010000
00000000
,
01000000
10000000
00000000
01000000
00100000
00000000
00010000
01000000
00000000
00010000
00100000
00000000
01000000
10000000
00000000
01000000
,
00100000
00000000
00010000
10000000
00000000
00010000
01000000
00000000
00100000
00000000
00010000
00000000
00001000
00000000
00000010
00000000
,
00000100
00001000
00000000
00000100
00000010
00000000
00000001
00000100
00000000
00000001
00000010
00000000
00000100
00001000
00000000
00000010
,
00000100
00000000
00000001
00001000
00000000
00000001
00000100
00000000
00000010
00000000
00000100
00000000
00001000
00000000
00010000
00000000
,
00100000
10000000
01000000
10000000
00010000
10000000
00010000
10000000
,
01000000
00100000
01000000
00100000
00010000
00001000
00010000
00001000
,
00000100
00001000
00000100
00001000
00000001
00000010
00000001
00000010
,
00000100
00001000
00000010
00000100
00000001
00001000
00000100
00000000
,
00000010
00000000
00001000
00010000
01000000
10000000
01000000
00000000
,
00100000
00010000
00000010
00000100
,
00000010
00000001
00000100
00000001
00001000
00000001
00001000
00000001
,
00000100
00000010
00000100
00000010
00001000
00010000
00001000
00010000
,
01000000
00010000
01000000
00010000
10000000
00100000
10000000
00100000
,
01000000
00010000
00100000
01000000
10000000
00010000
01000000
00000000
,
00100000
00000000
00010000
00001000
00000100
00000001
00000100
00000000
,
00000010
00001000
00100000
01000000
,
00100000
00000000
00000000
00000000
10010000
00000000
00000000
00100000
10000000
00000000
01000000
00000000
00010000
00000000
00000000
00000000
,
00002000
00100000
00010000
00103000
,
00000010
00000000
00000000
00000000
00001001
00000000
00000000
00000010
00000001
00000000
00000100
00000000
00001000
00000000
00000000
00000000
,
00020000
00000010
00001000
00030010
,
00001000
00000000
00000000
00000000
01010000
00000000
00000000
00100000
01000000
00000000
00010000
00000000
10000000
00000000
00000000
00000000
,
02000000
00010000
00100000
13000000
,
00020000
01000000
10000000
00130000
,
00002000
00000100
00000001
00003010
,
00000100
00000000
00000010
00000000
,
00001000
00000100
00000010
00000001
00000000
00000000
00001001
00000000
,
00000001
00000000
00001000
00000000
00000100
00010000
00000000
00001000
00100000
00000000
00010000
00000000
10000000
00100000
00000000
01000000
,
00010000
00000000
10000000
00000000
01000000
00100000
00000000
00010000
01000000
00000000
00100000
00000000
00010000
00000000
00001000
00000000
,
00000100
00000000
00000001
00000000
00000010
00000100
00000000
00000010
00000001
00000000
00001000
00000000
00000010
00010000
00000000
00001000
,
01000000
00000000
00010000
00000000
10000000
01000000
00000000
00100000
01000000
00000000
00010000
00000000
00001000
00000000
00000000
00000000
,
01000000
00001000
00000100
00001000
01000000
00001000
00000100
00001000
,
00100000
00010000
00000010
00010000
00100000
00010000
00000010
00010000
,
00001000
00000000
00000100
00000000
00000010
00000001
00000100
00000000
,
00010000
00000000
01000000
00000000
00100000
10000000
01000000
00000000
,
10000000
00000000
00010000
00000000
01000000
00001000
00000000
00010000
00000010
00000000
00001000
00000000
00000001
00000010
00000000
00000100
,
00001000
00000000
00000001
00000000
00000100
00000010
00000000
00001000
00000100
00000000
00000010
00000000
00001000
00000000
00010000
00000000
,
01000000
00000000
10000000
00000000
00100000
01000000
00000000
00100000
10000000
00000000
00010000
00000000
00100000
00001000
00000000
00010000
,
00000100
00000000
00001000
00000000
00000001
00000100
00000000
00000010
00000100
00000000
00001000
00000000
00010000
00000000
00000000
00000000
,
00000100
00010000
01000000
00010000
00000100
00010000
01000000
00010000
,
00000010
00001000
00100000
00001000
00000010
00001000
00100000
00001000
,
00010000
00000000
01000000
00000000
00100000
10000000
01000000
00000000
,
00001000
00000000
00000100
00000000
00000010
00000001
00000100
00000000
,
00000020
00000000
00000000
00000000
,
00000200
00000000
00000000
00000330
,
00000010
00010000
00000000
00001000
00100000
00000000
00001000
00010000
00000000
00000010
00001000
00000000
00000100
00010000
00000000
00001000
,
01000000
00000000
00100000
10000000
00000000
00010000
00100000
00000000
01000000
10000000
00000000
00100000
01000000
00000000
20020000
00000000
,
00000000
00000000
00000000
00000000
,
00000000
00000000
00000000
00000000
,
30030000
00000000
00000000
00000000
,
00000000
00000000
00000000
00000000
;
