#TITLE:Dance Dance Revolution(X-Special);
#ARTIST:DDR ALL STARS;
#BANNER:Dance Dance Revolution(X-Special).png;
#BACKGROUND:Dance Dance Revolution(X-Special)-bg.png;
#CDTITLE:./CDTitles/DDR X.png;
#MUSIC:Dance Dance Revolution(X-Special).ogg;
#SAMPLESTART:28.8;
#SAMPLELENGTH:15;
#BPMS:0=150;

//---------------dance-single - ----------------
#NOTES:
     dance-single:
     :
     Challenge:
     13:
     :
0000
0000
0000
0000
,
0000
0000
0000
0000
,
2000
0000
0000
3200
0000
0000
0320
0000
0000
0032
0000
0000
0203
0000
0000
0000
,
0320
0000
0000
2030
0000
0000
3200
0000
0000
0320
0000
0000
0032
0000
0000
0000
,
0023
0000
0000
0230
0000
0000
2300
0000
0000
3020
0000
0000
0230
0000
0000
0000
,
0302
0000
0000
2003
0000
0000
3001
0100
0001
0100
0001
0000
0000
0000
0000
0000
,
1000
0000
0000
0100
0000
0000
0101
0000
0000
0000
0010
0000
1000
0000
0100
0000
,
0000
0000
0100
0000
0101
0000
0000
0000
0001
0000
0000
0100
0000
0000
1100
0000
,
0000
0000
0100
0000
1001
0000
0000
0000
0001
0000
0000
0001
0000
0000
0110
0000
,
0000
0000
0100
0000
1100
0000
0000
0000
0001
0000
0010
0100
1000
0001
0010
0100
,
1000
1001
1001
0110
,
0001
0000
1000
0000
0001
0000
0001
0100
0000
0100
0001
0000
0010
0000
0000
0000
,
0100
0000
1000
0000
0100
0000
0110
0000
0000
0001
0000
0001
0100
0000
0100
0000
,
0010
0000
0010
0000
0010
0000
1000
0100
0010
0000
0000
0000
0010
0000
0000
0000
,
0001
0010
0100
0000
0010
0100
1000
0000
,
1000
0010
0001
1000
0100
0010
0001
0000
,
0100
0001
0010
0000
0001
0010
1000
0000
,
0010
1000
0100
0000
0010
0001
0100
0020
,
1000
1000
0100
0230
,
0001
0000
0010
0000
0301
0000
0001
0100
,
1000
0100
0001
0000
0020
0000
0230
0000
,
2300
3020
0230
0302
,
0023
0130
0012
0103
,
2010
3100
0012
0103
,
2001
3100
1002
0103
,
2010
3001
0012
1003
,
0100
0000
0000
0100
0000
0000
0110
0000
0000
0000
1000
0000
1000
0000
2000
0000
,
0100
0000
0000
0100
3100
0100
0001
0010
,
0100
0000
0000
1000
0000
0000
1100
0000
0000
0000
1100
0000
0000
1001
0000
0000
,
0101
0000
0000
0101
0000
0000
0000
0000
0000
0000
0000
0000
0000
0000
0000
0000
,
0011
0011
0101
0101
,
1010
1010
1100
1100
,
0101
0010
0100
1010
,
0100
0010
0001
0100
,
0100
0000
0010
0000
1000
0000
0100
0010
0100
0000
1000
0000
1000
0000
0010
0000
,
1000
0000
0100
0000
0010
0000
0001
1000
0001
1000
0001
0000
0100
0000
0000
0000
,
0010
0000
0100
0000
0001
0000
0100
0010
0100
0010
1000
0000
0100
0000
0010
0000
,
0001
0000
0100
0000
0010
0000
0010
0100
0010
0000
0000
0000
1100
0000
0000
0000
,
1000
0000
0001
0000
0100
0000
0010
0100
0000
0001
0000
0100
0010
0000
1000
0000
,
0001
0000
1000
0000
0100
0000
0010
0100
0000
1000
0000
0100
0010
0000
0001
0000
,
1000
0000
0010
0000
0100
0000
0001
0100
0000
0010
0000
0100
0001
0000
0010
0000
,
0100
0000
1000
0000
0010
0000
0100
0001
0100
0000
0000
0000
1100
0000
0000
0000
,
1000
0000
1000
0000
0001
0000
0100
0010
0100
0000
0000
0001
0000
0000
1001
0000
,
0000
0000
0100
0000
0001
0000
0010
0000
0100
0000
0000
1000
0000
0000
1010
0000
,
0000
0010
0001
0200
1000
0000
1000
0000
,
0010
0010
0001
0301
,
0100
0000
1000
0000
0010
0000
0100
0000
0001
0000
0000
0010
0000
0000
0200
0000
,
0000
1000
0000
0010
0000
1000
0000
0010
,
0000
0000
1000
0000
0000
0000
0001
0000
0000
0000
1000
0000
0300
0000
0000
0100
,
0001
0000
0001
0000
0001
0000
0010
0100
0000
0100
0000
0100
1000
0000
1000
0000
,
1100
0000
0001
0000
1000
0010
0100
0001
,
0010
0010
1000
0100
1000
0001
0100
0010
,
1000
0100
1000
0010
0010
0001
1000
0010
,
0001
0010
0100
1000
0100
0010
0001
0010
,
0001
0010
0100
0001
0010
0010
1000
0100
,
0100
0001
0010
0010
1000
0100
0010
0100
,
1001
0000
0000
0100
1001
0000
0000
0100
,
1001
0000
0000
0110
0000
0000
0010
0000
0001
0100
0000
0100
1000
0000
0000
0000
,
1000
0100
0000
0100
0001
0000
0001
0010
0000
0010
0100
0000
1000
0010
0100
0000
,
0000
0000
0000
0000
;

//---------------dance-double - ----------------
#NOTES:
     dance-double:
     :
     Challenge:
     13:
     :
00000000
00000000
00000000
00000000
,
00000000
00000000
00000000
00000000
,
00000002
00000000
00000000
00000023
00000000
00000000
00000230
00000000
00000000
00002300
00000000
00000000
00023000
00000000
00000000
00000000
,
02030000
00000000
00000000
23000000
00000000
00000000
30200000
00000000
00000000
00320000
00000000
00000000
00032000
00000000
00000000
00000000
,
00003200
00000000
00000000
00000302
00000000
00000000
00000023
00000000
00000000
00002030
00000000
00000000
00023000
00000000
00000000
00000000
,
00230000
00000000
00000000
01300000
00000000
00000000
00010000
01000000
00010000
01000000
00010000
00000000
00000000
00000000
00000000
00000000
,
00100000
00000000
00000000
00010000
00000000
00000000
00011000
00000000
00000000
00000000
00001000
00000000
00000100
00000000
00000010
00000000
,
00000000
00000000
00001000
00000000
00001100
00000000
00000000
00000000
00000100
00000000
00000000
00001000
00000000
00000000
00011000
00000000
,
00000000
00000000
00100000
00000000
00110000
00000000
00000000
00000000
01000000
00000000
00000000
01000000
00000000
00000000
10010000
00000000
,
00000000
00000000
01000000
00000000
01100000
00000000
00000000
00000000
00010000
00000000
00100000
01000000
10000000
00010000
00100000
01000000
,
10000000
00110000
00110000
00001100
,
00000010
00000000
00001000
00000000
00010000
00000000
00010000
00100000
00000000
00100000
10000000
00000000
01000000
00000000
00000000
00000000
,
00100000
00000000
00010000
00000000
00100000
00000000
00110000
00000000
00000000
00001000
00000000
00001000
00000010
00000000
00000010
00000000
,
00000001
00000000
00000001
00000000
00000001
00000000
00000010
00000100
00001000
00000000
00000000
00000000
00000010
00000000
00000000
00000000
,
00000100
00001000
00010000
00000000
01000000
00100000
00010000
00000000
,
00100000
00010000
00001000
00010000
01000000
10000000
00100000
00000000
,
00010000
00001000
00000100
00000000
00001000
00010000
01000000
00000000
,
00010000
00001000
00000010
00000000
00001000
00010000
01000000
00200000
,
00010000
01000000
00010000
02300000
,
10000000
00000000
00010000
00000000
13000000
00000000
00010000
00001000
,
00010000
00100000
10000000
00000000
20000000
00000000
32000000
00000000
,
03020000
02030000
23000000
30200000
,
02300000
03010000
00120000
01030000
,
00002010
00003100
00000012
00000103
,
00002010
00013000
02010000
03100000
,
01200000
00310000
00021000
00030010
,
00000100
00000000
00000000
00000001
00000000
00000000
00000101
00000000
00000000
00000000
00000010
00000000
00000010
00000000
00000020
00000000
,
00000100
00000000
00000000
00000100
00000130
00000100
00001000
00000010
,
00000100
00000000
00000000
00000100
00000000
00000000
00001010
00000000
00000000
00000000
01001000
00000000
00000000
01100000
00000000
00000000
,
01100000
00000000
00000000
01010000
00000000
00000000
00000000
00000000
00000000
00000000
00000000
00000000
00000000
00000000
00000000
00000000
,
10100000
10100000
11000000
11000000
,
00110000
00110000
00011000
00011000
,
00001001
00000010
00000100
00001001
,
00000010
00000100
00001000
00010000
,
00000100
00000000
00001000
00000000
00000100
00000000
00010000
00001000
00010000
00000000
00001000
00000000
00001000
00000000
00100000
00000000
,
00010000
00000000
01000000
00000000
00100000
00000000
01000000
00010000
01000000
00010000
01000000
00000000
00100000
00000000
00000000
00000000
,
00100000
00000000
00010000
00000000
00001000
00000000
00010000
00001000
00010000
00001000
00000010
00000000
00000100
00000000
00010000
00000000
,
00001000
00000000
00000100
00000000
00000010
00000000
00000010
00000100
00000010
00000000
00000000
00000000
00001100
00000000
00000000
00000000
,
00000001
00000000
00001000
00000000
00000100
00000000
00001000
00000100
00000000
00000010
00000000
00000100
00001000
00000000
00000010
00000000
,
00000100
00000000
00000010
00000000
00000100
00000000
00001000
00010000
00000000
00010000
00000000
00100000
10000000
00000000
01000000
00000000
,
01000000
00000000
00100000
00000000
10000000
00000000
01000000
00010000
00000000
00001000
00000000
00000010
00000001
00000000
00000100
00000000
,
00000010
00000000
00000100
00000000
00000001
00000000
00000010
00000100
00000010
00000000
00000000
00000000
00001001
00000000
00000000
00000000
,
00000001
00000000
00000001
00000000
00000100
00000000
00000010
00001000
00000010
00000000
00000000
00001000
00000000
00000000
00011000
00000000
,
00000000
00000000
00001000
00000000
00010000
00000000
00100000
00000000
01000000
00000000
00000000
10000000
00000000
00000000
10100000
00000000
,
00000000
10000000
00100000
00020000
00001000
00000000
00001000
00000000
,
01000000
01000000
00001000
00031000
,
00010000
00000000
10000000
00000000
00100000
00000000
00010000
00000000
00001000
00000000
00000000
00100000
00000000
00000000
00020000
00000000
,
00000000
10000000
00000000
00100000
00000000
10000000
00000000
00100000
,
00000000
00000000
01000000
00000000
00000000
00000000
00100000
00000000
00000000
00000000
01000000
00000000
00030000
00000000
00000000
00010000
,
00001000
00000000
00001000
00000000
00001000
00000000
00000010
00000100
00000000
00000100
00000000
00000100
00001000
00000000
00001000
00000000
,
00001100
00000000
00010000
00000000
00100000
00010000
00001000
00010000
,
01000000
00100000
00010000
00001000
00010000
00100000
00001000
00010000
,
00001000
00000100
00000001
00000010
00000100
00001000
00010000
00100000
,
01000000
10000000
00100000
00010000
00100000
01000000
00010000
00100000
,
01000000
10000000
00100000
10000000
01000000
00010000
00001000
00001000
,
00000001
00001000
00001000
00010000
00010000
10000000
00100000
01000000
,
10010000
00000000
00000000
00001000
00011000
00000000
00000000
00000100
,
00001100
00000000
00000000
00011000
00000000
00000000
01000000
00000000
10000000
01000000
00000000
01000000
00010000
00000000
00000000
00000000
,
00010000
00001000
00000000
00001000
00000100
00000000
00000100
00000001
00000000
00000001
00000100
00000000
00001000
00010000
00100000
00000000
,
00000000
00000000
00000000
00000000
;
