#TITLE:DYNAMITE RAVE ("AIR" Special);
#ARTIST:NAOKI;
#BANNER:DYNAMITE RAVE (AIR Special).png;
#BACKGROUND:DYNAMITE RAVE(AIR Special)-bg.png;
#CDTITLE:./CDTitles/DDR SuperNOVA2.png;
#MUSIC:DYNAMITE RAVE (AIR Special).ogg;
#SAMPLESTART:40.79;
#SAMPLELENGTH:15;
#DISPLAYBPM:150;
#BPMS:0=150.5,4=150;

//---------------dance-single - ----------------
#NOTES:
     dance-single:
     :
     Challenge:
     8:
     :
0000
0000
0000
0000
,
0000
0000
0000
0000
,
0000
0000
0000
0000
,
0000
0000
0000
0000
,
0000
0000
0000
0000
,
1000
0001
1000
0001
,
1000
0100
1000
0100
,
0001
0100
0001
0100
,
1000
0001
1000
0001
,
1001
0000
0000
0000
,
1001
1001
1100
1100
,
1001
1001
1100
1100
,
1001
1001
0101
0101
,
1001
1001
0101
0101
,
1010
1010
1100
1100
,
1010
1010
1100
1100
,
0011
0011
0101
0101
,
0011
0011
0101
0101
,
1001
1001
1100
1100
,
1001
1100
1001
1100
,
1001
1001
0101
0101
,
1001
0101
1001
0101
,
1010
1010
1100
1100
,
1010
1100
1010
1100
,
0011
0011
0101
0101
,
0011
0101
0011
0101
,
1001
1001
1100
1100
,
1001
1001
0101
0101
,
1001
1100
1001
0101
,
1001
0110
1001
0110
,
1001
1010
1100
0101
,
0011
1001
0110
1001
,
1001
0011
0101
1100
,
1010
1001
0110
1001
,
1001
0001
1000
0001
,
1000
0100
1000
0100
,
0001
0100
0001
0100
,
1000
0001
1000
0001
,
1001
1001
1001
0000
1000
0000
0001
0000
,
1000
0010
1000
0010
,
0001
0010
0001
0010
,
1000
0001
1000
0100
,
0011
0011
1010
1010
,
0011
1010
0011
1010
,
0101
0101
1100
1100
,
0101
1100
0101
1100
,
1100
1100
0101
0101
,
1100
0101
1100
0101
,
1010
1010
0011
0011
,
1010
0011
1010
0011
,
1001
1001
1100
1100
,
1001
1001
0101
0101
,
1001
1100
1001
0101
,
1001
0110
1001
0110
,
1001
1010
1100
0101
,
0011
1001
0110
1001
,
1001
0011
0101
1100
,
1010
1001
0110
1001
,
1001
0000
0000
0001
0000
0000
0100
0000
0000
0000
0010
0000
1000
0000
0001
0000
,
1001
0000
0000
0000
,
0000
0000
0000
0000
;

//---------------dance-double - ----------------
#NOTES:
     dance-double:
     :
     Challenge:
     9:
     :
00000000
00000000
00000000
00000000
,
00000000
00000000
00000000
00000000
,
00000000
00000000
00000000
00000000
,
00000000
00000000
00000000
00000000
,
00000000
00000000
00000000
00000000
,
00010000
00001000
00010000
00001000
,
00010000
00000100
00010000
00000100
,
00001000
00100000
00001000
00100000
,
00000010
00100000
00000010
00100000
,
00100010
00000000
00000000
00000000
,
00001010
00001010
00001100
00001100
,
00001010
00001010
00001100
00001100
,
00010100
00010100
00011000
00011000
,
00010100
00010100
00011000
00011000
,
00110000
00110000
01010000
01010000
,
00110000
00110000
01010000
01010000
,
01001000
01001000
00011000
00011000
,
01001000
01001000
00011000
00010100
,
00000011
00000011
00000101
00000101
,
00000011
00000101
00000011
00000101
,
00001001
00001001
00001100
00001100
,
00001001
00001100
00001001
00010100
,
10100000
10100000
11000000
11000000
,
10100000
11000000
10100000
11000000
,
10010000
10010000
01010000
01010000
,
10010000
01010000
10010000
01001000
,
00010010
00010010
00011000
00011000
,
00101000
00101000
00011000
00011000
,
00010100
00011000
01001000
00011000
,
00001001
00000110
00001001
00001100
,
00101000
00101000
00011000
00011000
,
00010010
00010010
00011000
00011000
,
01001000
00011000
00010100
00011000
,
10010000
01100000
10010000
01010000
,
00011000
00001000
00010000
00001000
,
00010000
00000100
00010000
00000100
,
00001000
01000000
00001000
01000000
,
00001000
00010000
00001000
00010000
,
00101000
00011000
00010010
00000000
00001000
00000000
00010000
00000000
,
00000010
00010000
00000010
00010000
,
00100000
00001000
00100000
00001000
,
00100000
00000010
00100000
00000010
,
00001010
00001010
00000011
00000011
,
00001010
00000011
00001010
00000011
,
00000110
00000110
00001001
00001001
,
00000110
00001001
00001100
00011000
,
00110000
00110000
10100000
10100000
,
00110000
10100000
00110000
10100000
,
01100000
01100000
10010000
10010000
,
01100000
10010000
01010000
00011000
,
00010010
00011000
00010010
00011000
,
00101000
00011000
00101000
00011000
,
00010100
00011000
01001000
00011000
,
00001001
00011000
10010000
00011000
,
00101000
00011000
00101000
00011000
,
00010010
00011000
00010010
00011000
,
10010000
00011000
00001001
00011000
,
00110000
10100000
11000000
01010000
,
00011000
00000000
00000000
00000100
00000000
00000000
00001000
00000000
00000000
00000000
01000000
00000000
00001000
00000000
00010000
00000000
,
00011000
00000000
00000000
00000000
,
00000000
00000000
00000000
00000000
;
