#TITLE:CANDY☆(X-Special);
#ARTIST:Luv UNLIMITED;
#TITLETRANSLIT:CANDY(X-Special);
#BANNER:CANDY(X-Special).png;
#BACKGROUND:CANDY(X-Special)-bg.png;
#CDTITLE:./CDTitles/DDR X.png;
#MUSIC:CANDY(X-Special).ogg;
#SAMPLESTART:33.75;
#SAMPLELENGTH:15;
#BPMS:0=192;
#STAGE:3;

//---------------dance-single - ----------------
#NOTES:
     dance-single:
     :
     Challenge:
     12:
     :
0000
0000
0000
0000
,
0000
0000
0000
0000
,
0000
0000
0000
0000
,
0000
0000
0000
0000
,
0000
0000
0000
0000
,
0021
0001
0031
0000
,
1200
1000
1300
0000
,
0002
0000
2003
0000
3001
0100
0010
1000
,
0010
0100
0000
0220
0000
0000
0330
0000
,
2000
0000
3000
2000
0000
3000
1001
0000
,
0002
0000
0003
0002
0000
0013
0100
0010
,
1001
0000
1100
0000
0020
0000
0130
0010
,
0000
0001
1000
0000
0100
0010
0010
0000
,
1001
0000
0011
0000
0200
0000
0310
0100
,
0000
1000
0001
0000
0010
0100
0100
0000
,
0001
0000
1100
0000
0001
0010
1000
0100
,
0000
0010
0001
0000
0200
1000
1300
0000
,
1000
0000
0011
0000
1000
0100
0001
0010
,
0000
0100
1000
0100
0020
0001
0031
0000
,
1020
0000
0001
0000
1030
0010
0100
0001
,
0000
1000
0100
0010
0001
0000
1001
0000
,
0201
0000
1000
0000
0301
0100
0010
1000
,
0000
0001
0010
0100
1000
0000
1001
0000
,
1000
0010
0100
0010
0001
0000
0001
0010
,
0000
0010
0001
1000
0100
0000
0110
0000
,
0001
0100
0010
0100
1000
0000
1000
0100
,
0000
0100
0001
2000
0002
0000
3003
0000
,
1100
0000
0101
0000
1000
0100
0001
0000
,
0101
0000
1100
0000
0001
0100
1000
0000
,
1010
0000
0011
0000
1000
0010
0001
0010
,
0000
0100
1000
0000
0202
0000
0303
0000
,
1010
1100
1010
1100
,
0011
0101
0011
0101
,
0001
0010
0100
1000
0100
0000
0010
0002
,
0000
1003
0200
0000
0301
0000
1100
0000
,
0011
0000
1010
0000
0001
0010
1000
0000
,
1010
0000
0011
0000
1000
0010
0001
0000
,
0101
0000
1100
0000
0001
0100
1000
0100
,
0000
0010
0001
0000
2020
0000
3030
0000
,
0101
0011
0101
0011
,
1100
1010
1100
1010
,
1000
0100
0010
0001
0010
0000
0100
2000
,
0000
3001
0020
0000
1030
0000
0011
0000
,
0020
0000
0031
2000
0000
3100
0020
0000
,
0031
2000
0000
3001
0100
0000
0110
0000
,
0200
0000
0301
2000
0000
3010
0200
0000
,
0301
2000
0000
3001
0010
0000
0110
0000
,
0020
0000
1030
0002
0000
0103
0020
0000
,
1030
0002
0000
1003
0100
0100
0100
0000
,
2000
0000
3010
0002
0000
0013
0200
0000
,
0310
0002
0000
1003
0000
0100
1001
0000
,
0001
0010
0010
1000
0100
0000
0101
0000
,
1000
0100
0100
0001
0010
0000
1100
0000
,
0001
0010
0100
0000
1000
0010
0010
0001
,
0000
0100
0010
0000
2002
0000
3003
0000
,
1000
0010
0010
0001
0100
0000
1100
0000
,
0001
0100
0100
1000
0010
0000
0101
0000
,
1000
0010
0100
0000
0001
0010
0010
1000
,
0000
0100
0010
0000
2000
0000
3001
0000
,
0010
0001
0100
1000
1100
0000
1000
0100
,
0000
0001
0010
0100
1000
0000
1001
0000
,
0100
1000
0010
0001
0011
0000
0001
0010
,
0000
1000
0100
0010
0001
1000
1001
0000
,
0002
0000
0000
1003
0020
0000
0000
0000
,
0000
1030
0100
0001
,
1000
1100
0001
0011
,
0010
1001
0100
1001
,
1000
0100
0100
0010
0010
0001
0010
1000
,
0001
0100
0100
0010
0010
1000
0100
0001
,
1000
0001
0100
1000
0001
1000
0100
0001
,
0110
0000
0000
0000
,
0000
0000
0000
0000
;

//---------------dance-double - ----------------
#NOTES:
     dance-double:
     :
     Challenge:
     13:
     :
00000000
00000000
00000000
00000000
,
00000000
00000000
00000000
00000000
,
00000000
00000000
00000000
00000000
,
00000000
00000000
00000000
00000000
,
00000000
00000000
00000000
00000000
,
00210000
00010000
00310000
00000000
,
00001200
00001000
00001300
00000000
,
00020000
00000000
20030000
00000000
30010000
01000000
00100000
10000000
,
00100000
01000000
00000000
02200000
00000000
00000000
03300000
00000000
,
20000000
00000000
30000000
20000000
00000000
30000000
10010000
00000000
,
10000000
00100000
01000000
00010000
00001000
00000010
00000100
00000001
,
00001001
00000000
00000011
00000000
00000002
00000000
00000013
00000100
,
00000000
00001000
00010000
00000000
00001000
00010000
00010000
00000000
,
10010000
00000000
11000000
00000000
20000000
00000000
30100000
01000000
,
00000000
00010000
00001000
00000000
00010000
00001000
00001000
00000000
,
00001000
00000000
01010000
00000000
00001000
00010000
00001000
00000100
,
00000000
00010000
00100000
00000000
00001000
00010000
00001000
00000000
,
00011000
00000000
00001100
00000000
00000100
00000001
00000010
00001000
,
00000000
00010000
01000000
10000000
00200000
01000000
01300000
00000000
,
10200000
00000000
00010000
00000000
00310000
00001000
00000100
00000001
,
00000000
00000100
00001000
00100000
00010000
00000000
10010000
00000000
,
02010000
00000000
10000000
00000000
03010000
00100000
01000000
00010000
,
00000000
00001000
00010000
00001000
00000100
00000000
00001001
00000000
,
00000001
00000010
00001000
00100000
00010000
00000000
00000010
00001000
,
00000000
00010000
00001000
01000000
00010000
00000000
00011000
00000000
,
00010000
01000000
00100000
01000000
10000000
00000000
10000000
01000000
,
00000000
00010000
00001000
00020000
00002000
00000000
00033000
00000000
,
00110000
00000000
01010000
00000000
00100000
00010000
00001000
00000000
,
00011000
00000000
00001100
00000000
00001000
00000100
00000001
00000000
,
00000011
00000000
00001010
00000000
00010000
00100000
10000000
00100000
,
00000000
01000000
00010000
00000000
02020000
00000000
03030000
00000000
,
00110000
00101000
00110000
00101000
,
00001010
00010010
00001010
00010010
,
00000010
00000100
00001000
00010000
00100000
00000000
00100000
00020000
,
00000000
00031000
00000200
00000000
00000301
00000000
00000011
00000000
,
00001010
00000000
00011000
00000000
00010000
00100000
10000000
00000000
,
10100000
00000000
00110000
00000000
00100000
00001000
00000100
00000000
,
00001010
00000000
00000011
00000000
00001000
00010000
00100000
00010000
,
00000000
00010000
00001000
00000000
00022000
00000000
00033000
00000000
,
00110000
00011000
00001010
00011000
,
01010000
00011000
00001100
00011000
,
00001000
00000010
00000001
00000100
00010000
01000000
00100000
20000000
,
00000000
30010000
00200000
00000000
10300000
00000000
00110000
00000000
,
00020000
00000000
00130000
00020000
00000000
01030000
00002000
00000000
,
00003100
00000002
00000000
00001003
00000100
00000000
00000110
00000000
,
00000200
00000000
00010300
00002000
00000000
00103000
02000000
00000000
,
13000000
00200000
00000000
00310000
00100000
00000000
01100000
00000000
,
00200000
00000000
01300000
00002000
00000000
00003100
00020000
00000000
,
01030000
00002000
00000000
00013000
00001000
00001000
00001000
00000000
,
00020000
00000000
00030100
00002000
00000000
00003010
00000200
00000000
,
00000310
00002000
00000000
00003001
00000000
00000001
00000011
00000000
,
00000001
00000100
00000100
00001000
00010000
00000000
00110000
00000000
,
10000000
01000000
01000000
00010000
00100000
00000000
10010000
00000000
,
00010000
00001000
00000100
00000000
00000001
00000010
00000010
00000100
,
00000000
00001000
00010000
00000000
00022000
00000000
00033000
00000000
,
00001000
00010000
00010000
00001000
00100000
00000000
00110000
00000000
,
00010000
00001000
00001000
00010000
00000010
00000000
00001010
00000000
,
00000001
00000010
00000100
00000000
00001000
00010000
00010000
00100000
,
00000000
01000000
10000000
00000000
20000000
00000000
30010000
00000000
,
00100000
00010000
01000000
00100000
00110000
00000000
00010000
00001000
,
00000000
00000100
00000010
00001000
00000001
00000000
00001001
00000000
,
00000010
00001000
00000100
00000010
00001010
00000000
00001000
00010000
,
00000000
00010000
00001000
00100000
00001000
00010000
00011000
00000000
,
00020000
00000000
00000000
00030010
00002000
00000000
00000000
00000000
,
00000000
00003001
00001010
00001100
,
00010000
00001100
00010000
01010000
,
00001000
01010000
00001000
10010000
,
10000000
01000000
01000000
00100000
00100000
00010000
00001000
00000100
,
00010000
01000000
01000000
00100000
00100000
10000000
01000000
00010000
,
00001000
00000100
00000001
00000010
00001000
00010000
01000000
10000000
,
01100000
00000000
00000000
00000000
,
00000000
00000000
00000000
00000000
;
