#TITLE:High School Love;
#SUBTITLE:;
#ARTIST:DJ YOSHITAKA feat.DWP;
#TITLETRANSLIT:;
#SUBTITLETRANSLIT:;
#ARTISTTRANSLIT:;
#CREDIT:;
#BANNER:High School Love.png;
#BACKGROUND:High School Love-bg.png;
#LYRICSPATH:;
#CDTITLE:./CDTITLES/beatmaniaIIDX.png;
#MUSIC:High School Love.mp3;
#OFFSET:1.269;
#SAMPLESTART:44.601;
#SAMPLELENGTH:15.660;
#SELECTABLE:YES;
#BPMS:0.000=180.000;
#STOPS:;
#BGCHANGES:;

//---------------dance-single - ----------------
#NOTES:
     dance-single:
     :
     Beginner:
     2:
     0.108,0.187,0.053,0.000,0.000:
0000
0000
0000
0000
,
0000
0000
0000
0000
,
0000
0000
0000
0000
,
0000
0000
0000
0000
,
0000
0000
0000
0000
,
0000
0000
0000
0000
,
0000
0000
0000
0000
,
0000
0000
0000
0000
,
0000
0000
0000
0000
,
0001
0000
0000
0000
,
0000
0000
1000
0000
,
1000
0000
0000
0000
,
0000
0000
0001
0000
,
0001
0000
0000
0000
,
0000
0000
1000
0000
,
1000
0000
0001
0000
,
1001
0000
0000
0000
,
0000
0000
0010
0000
,
0000
0000
1000
0000
,
0100
0000
0000
0000
,
0001
0000
0000
0000
,
0010
0000
0000
0000
,
0100
0000
0000
0000
,
0000
0000
0000
0000
,
1001
0000
0000
0000
,
0000
1000
0000
0000
,
0000
0001
0001
0000
,
0000
0001
0000
0000
,
0000
1000
1000
0000
,
0000
0000
0000
0100
,
0000
0000
0000
0010
,
0000
0000
0000
1000
,
0000
0000
0000
0001
,
0000
0000
0000
0000
,
1001
0000
0000
0000
,
0000
0001
0000
0000
,
0000
1000
0000
0000
,
1000
0000
0000
0000
,
0010
0000
0000
0000
,
0100
0000
0000
0000
,
0001
0000
0100
0000
,
0001
0000
0000
0000
,
1000
0000
0000
0000
,
0000
1000
0000
0000
,
0000
0001
0000
0000
,
0001
0000
0000
0000
,
0100
0000
0000
0000
,
0010
0000
0000
0000
,
0000
0000
0100
0000
,
0100
0000
0000
0000
,
0000
0000
0010
0000
,
0010
0000
0000
0000
,
0000
0000
0100
0000
,
0100
0000
0010
0000
,
1001
0000
0000
0000
,
1000
0000
0000
0000
,
0000
0000
0000
0000
,
0001
0000
0000
0000
,
0000
0000
0000
0000
,
0010
0000
0000
0000
,
0000
0000
0000
0000
,
0100
0000
0000
0000
,
0000
0000
0000
0000
,
0010
0000
0000
0000
,
1001
0000
0000
0000
,
0000
0100
0000
0000
,
0000
0000
0000
0000
,
0001
0000
0000
0000
,
1000
0000
0000
0000
,
0100
0000
0000
0000
,
0010
0000
0000
0000
,
0001
0000
0001
0000
,
1000
1000
1000
0000
,
0000
1000
0000
0000
,
0000
0001
0000
0000
,
0001
0000
0000
0000
,
0010
0000
0000
0000
,
0100
0000
0000
0000
,
0000
0000
0010
0000
,
0010
0000
0000
0000
,
0000
0000
0100
0000
,
0100
0000
0000
0000
,
0000
0000
0010
0000
,
0010
0000
0100
0000
,
0010
0000
1001
0000
;

//---------------dance-single - ----------------
#NOTES:
     dance-single:
     :
     Easy:
     3:
     0.171,0.263,0.071,0.151,0.000:
0000
0000
0000
0000
,
0000
0000
0000
0000
,
0000
0000
0000
0000
,
0000
0000
0000
0000
,
0000
0000
0000
0000
,
0000
0000
0000
0000
,
0000
0000
0000
0000
,
0000
0000
0000
0000
,
0000
0000
0000
0000
,
2000
0000
0000
0000
0000
0000
0000
3010
,
0000
0000
0001
0000
,
0002
0000
0000
0000
0000
0000
0000
0103
,
0000
0000
1000
0000
,
2000
0000
0000
0000
0000
0000
0000
3100
,
0000
0000
0001
0000
,
0001
0000
0100
0000
,
1001
0000
0000
0000
,
0000
0000
0001
0000
,
1000
0000
0001
0000
,
0100
0000
0000
0000
,
1000
0000
1000
0000
,
0001
0000
0000
0000
,
0100
0000
0000
0000
,
0010
0000
1000
0000
,
0000
0000
1001
0000
,
0000
1000
0001
0000
,
0000
0100
0000
0000
,
0000
0001
1000
0000
,
0000
0010
0000
0000
,
0000
1000
0000
0100
,
0000
0001
0000
0100
,
0000
1000
0000
1000
,
0000
0001
0000
0001
,
0200
0000
0000
0300
,
1001
0000
0000
0000
,
0000
0110
0000
0000
,
1000
0000
0100
0000
,
0010
0000
0100
0000
,
1000
0000
0000
0001
,
0001
0000
0000
0100
,
0100
0000
0000
1000
,
0001
0000
0100
0000
,
0100
0000
0000
0000
,
0000
0110
0000
0000
,
0001
0000
0010
0000
,
0100
0000
0010
0000
,
0001
0000
0000
0000
,
2000
0000
0000
0000
0000
0000
0000
3001
,
0000
0000
0100
0000
,
0002
0000
0000
0000
0000
0000
0000
1003
,
0000
0000
0100
0000
,
2000
0000
0000
0000
0000
0000
0000
3001
,
0000
0000
0010
0000
,
0100
0000
0100
0000
,
1001
0000
0000
0000
,
2000
0000
3000
0000
,
0200
0000
0300
0000
,
0002
0000
0003
0000
,
0020
0000
0030
0000
,
0200
0000
0000
0000
,
0000
0000
0000
0300
,
2000
0000
0000
0000
,
0000
0000
0000
3000
,
0020
0000
0000
0030
,
1001
0000
0000
0000
,
0000
0100
0000
0000
,
0000
0000
0000
0000
,
0000
0000
0001
0000
,
0000
0000
1000
0000
,
0001
0000
0000
0000
,
0100
0000
0000
0000
,
1000
0000
0001
0000
,
1000
0001
1000
0001
,
0000
0110
0000
0000
,
0001
0000
0010
0000
,
0100
0000
0010
0000
,
0001
0000
0000
0000
,
2000
0000
0000
0000
0000
0000
0000
3001
,
0000
0000
0100
0000
,
0002
0000
0000
0000
0000
0000
0000
1003
,
0000
0000
0100
0000
,
2000
0000
0000
0000
0000
0000
0000
3001
,
0000
0000
0010
0000
,
0100
0000
0100
0000
,
0010
0000
1000
0001
;

//---------------dance-single - ----------------
#NOTES:
     dance-single:
     :
     Medium:
     6:
     0.224,0.301,0.098,0.098,0.000:
0000
0000
0000
0000
,
0000
0000
0000
0000
,
0000
0000
0000
0000
,
0000
0000
0000
0000
,
0000
0000
0000
0000
,
0000
0000
0000
0000
,
0000
0000
0000
0000
,
0000
0000
0000
0000
,
0000
0000
0000
0000
,
0001
0000
0000
0100
0000
0000
0000
0010
,
0000
0000
1000
0000
,
1000
0000
0000
0100
0000
0000
0000
0010
,
0000
0000
0001
0000
,
0001
0000
0000
0010
0000
0000
0000
0100
,
0000
0000
1000
0000
,
0001
0000
1100
0000
,
0001
1000
1001
0000
,
0000
0000
0100
0000
,
0010
0000
1000
0000
,
0100
0000
0100
0000
,
0001
1000
1000
0000
,
0001
0000
0100
0000
,
1000
0000
0100
0000
,
0020
0030
0200
0300
,
1001
0000
1001
0000
,
0000
1000
0100
0001
,
0000
0001
0010
0100
,
0000
1000
0010
0001
,
0000
0001
0100
0010
,
0000
0010
1000
0000
,
0000
0100
0001
0000
,
0010
0010
0001
0001
,
0100
0100
1000
1000
,
0020
0000
0000
0030
,
0100
1001
0000
0000
,
0000
0101
0000
0010
,
0000
0000
0100
0100
,
0010
0000
1000
0000
,
0100
0000
0001
0010
,
0010
0000
0001
0000
,
0001
0000
1000
1000
,
0100
0000
0010
0000
,
0100
0000
0000
0000
,
0000
1010
0000
0100
,
0000
0000
0010
0010
,
0100
0000
0001
0000
,
0010
0000
1000
0100
,
0100
0000
0000
0010
0000
0000
0000
0001
,
0000
0000
0001
0000
,
0100
0000
0000
0010
0000
0000
0000
1000
,
0000
0000
1000
0000
,
0010
0000
0000
0100
0000
0000
0000
0001
,
0000
0000
0001
0000
,
0010
0000
0100
0000
,
0000
1000
0001
0000
,
2000
0000
0100
3000
,
0002
0000
0100
0003
,
2000
0000
0010
3000
,
0002
0000
0010
0003
,
2000
0000
0000
0000
,
0000
0000
0000
0000
,
3200
0000
0000
0000
,
0320
0000
0000
0000
,
0032
0000
0000
0000
,
0103
1001
0000
0000
,
0000
0010
0000
0000
,
0000
0000
1000
0000
,
0000
0000
0001
0000
,
0000
0000
0100
0000
,
0110
0000
0000
0000
,
1001
0000
0000
0000
,
0001
0000
1000
0000
,
0010
0100
0010
0100
,
0000
0101
0000
0010
,
0000
0000
0100
0100
,
0010
0000
1000
0000
,
0100
0000
0001
0010
,
0010
0000
0000
0100
0000
0000
0000
1000
,
0000
0000
1000
0000
,
0010
0000
0000
0100
0000
0000
0000
0001
,
0000
0000
0001
0000
,
0100
0000
0000
0010
0000
0000
0000
1000
,
0000
0000
1000
0000
,
0100
0000
0010
0000
,
1000
0100
0010
0001
;

//---------------dance-single - ----------------
#NOTES:
     dance-single:
     :
     Hard:
     8:
     0.284,0.376,0.133,0.115,0.000: // measure 1
0000
0000
0000
0000
,  // measure 2
0000
0000
0000
0000
,  // measure 3
0000
0000
0000
0000
,  // measure 4
0000
0000
0000
0000
,  // measure 5
0000
0000
0000
0000
,  // measure 6
0000
0000
0000
0000
,  // measure 7
0000
0000
0000
0000
,  // measure 8
0000
0000
0000
0000
,  // measure 9
0000
0000
0000
0000
,  // measure 10
0010
0000
0000
1000
0000
0010
0000
0001
,  // measure 11
0000
0000
0010
0000
,  // measure 12
0010
0000
0000
0001
0000
0010
0000
1000
,  // measure 13
0000
0000
0010
0000
,  // measure 14
0100
0000
0000
0001
0000
0100
0000
1000
,  // measure 15
0000
0000
0100
0000
,  // measure 16
0011
0000
1010
0000
,  // measure 17
0010
0100
0110
0000
,  // measure 18
0001
0000
1000
0000
,  // measure 19
0001
0100
0010
0000
,  // measure 20
1000
0000
0100
0000
,  // measure 21
0010
0001
0010
0000
,  // measure 22
0100
0000
1000
0000
,  // measure 23
1000
0010
0100
0000
,  // measure 24
0100
0000
0110
0000
,  // measure 25
1001
0000
0110
0000
1001
0000
0000
0010
,  // measure 26
0000
0000
0100
0000
0100
0000
0000
0100
,  // measure 27
0000
0000
0001
0000
0001
0000
0000
0010
,  // measure 28
0000
0000
0100
0000
0100
0000
0000
0100
,  // measure 29
0000
0000
1000
0000
1000
0000
0000
0010
,  // measure 30
0000
1000
0001
0100
,  // measure 31
0010
1000
0001
0000
,  // measure 32
0010
0001
0100
1000
,  // measure 33
0010
0001
0100
1000
,  // measure 34
0001
1000
0001
1000
,  // measure 35
0100
0100
0000
0000
,  // measure 36
0000
1100
0000
0010
,  // measure 37
0000
0001
0100
0001
,  // measure 38
2000
0000
3100
0100
,  // measure 39
1000
0001
0010
0100
,  // measure 40
1000
0000
0010
0100
,  // measure 41
0010
0000
1000
0100
,  // measure 42
0001
0000
1000
0100
,  // measure 43
0010
0000
0100
0100
,  // measure 44
0000
0101
0000
0010
,  // measure 45
0000
1000
0100
1000
,  // measure 46
0002
0000
0103
0100
,  // measure 47
0001
1000
0010
0100
,  // measure 48
0001
0000
0000
0010
0000
0100
0000
1000
,  // measure 49
0000
0000
0010
0000
,  // measure 50
0001
0000
0000
0100
0000
0010
0000
1000
,  // measure 51
0000
0000
0100
0000
,  // measure 52
1000
0000
0000
0010
0000
0100
0000
0001
,  // measure 53
0000
0000
0010
0000
,  // measure 54
0010
0000
0100
0000
,  // measure 55
1001
0000
0100
0000
0010
0000
0000
0200
,  // measure 56
0000
0000
0000
0000
0001
0000
0300
2000
,  // measure 57
0000
0000
0000
0000
0001
0000
3000
0200
,  // measure 58
0000
0000
0000
0000
0010
0000
0300
2000
,  // measure 59
0000
0000
0100
3000
,  // measure 60
0002
0000
0010
0000
,  // measure 61
0100
0000
1000
0000
,  // measure 62
0203
0000
0000
0000
,  // measure 63
0302
0000
0023
0000
,  // measure 64
0230
0000
2300
0000
,  // measure 65
3001
1001
0000
0000
,  // measure 66
0000
0001
0000
0000
,  // measure 67
0000
0000
0100
0000
,  // measure 68
0000
0000
0010
0000
,  // measure 69
0000
0000
1000
0100
,  // measure 70
1100
0000
0000
0000
,  // measure 71
0101
0000
0000
0000
,  // measure 72
1001
0000
0100
0000
,  // measure 73
0001
1000
0001
1000
0001
0000
0000
0000
,  // measure 74
0000
0101
0000
0010
,  // measure 75
0000
1000
0100
1000
,  // measure 76
0002
0000
0103
0100
,  // measure 77
0001
1000
0010
0100
,  // measure 78
0001
0000
0000
0010
0000
0100
0000
1000
,  // measure 79
0000
0000
0010
0000
,  // measure 80
0001
0000
0000
0100
0000
0010
0000
1000
,  // measure 81
0000
0000
0100
0000
,  // measure 82
1000
0000
0000
0010
0000
0100
0000
0001
,  // measure 83
0000
0000
0010
0000
,  // measure 84
0010
0000
0100
0000
,  // measure 85
0001
0000
0100
0000
1000
0100
0010
0000
;
