#TITLE:Say Love Me;
#ARTIST:ι—œζ™Ίζ–Œ;
#ARTISTTRANSLIT:KWAN KENNY;
#BANNER:SAY LOVE ME.png;
#BACKGROUND:Say Love Me-bg.png;
#CDTITLE:./CDTITLES/DanceDanceRevolution UNIVERSE3 Chinese Special Edition.png;
#MUSIC:Say Love Me.ogg;
#SAMPLESTART:8.759;
#SAMPLELENGTH:15;
#BPMS:0=137;

//---------------dance-single - ----------------
#NOTES:
     dance-single:
     :
     Beginner:
     1:
     :
0000
0000
0000
0000
,
0000
0000
0000
0000
,
0000
0000
0000
0000
,
0000
0000
0000
0000
,
0000
0000
0000
0000
,
1000
0000
0001
0000
,
1000
0000
0000
0000
,
0001
0000
0100
0000
,
0001
0000
0000
0000
,
0100
0000
0010
0000
,
0100
0000
0000
0000
,
0220
0000
0000
0330
,
0000
0000
0000
0000
,
1000
0000
0000
0000
,
0100
0000
0100
0000
,
0010
0000
0000
0000
,
0001
0000
0000
0000
,
1000
0000
0000
0000
,
0001
0000
0001
0000
,
0100
0000
0000
0000
,
0010
0000
0010
0000
,
1000
0000
0000
0000
,
0001
0000
1000
0000
,
0001
0000
0000
0000
,
1000
0000
0100
0000
,
1000
0000
0000
0000
,
0100
0000
0010
0000
,
0100
0000
0000
0000
,
0020
0000
0000
0030
,
0010
0000
0000
0000
,
0001
0000
0000
0000
,
1000
0000
0000
0000
,
0001
0000
0000
0000
,
1000
0000
0000
0000
,
0100
0000
0000
0000
,
0010
0000
0000
0000
,
0001
0000
0000
0000
,
1000
0000
1000
0000
,
0001
0000
0001
0000
,
0200
0000
0000
0300
,
0100
0000
0000
0000
,
0010
0000
0010
0000
,
0010
0000
0000
0000
,
1000
0000
0000
0000
,
0001
0000
0000
0000
,
1000
0000
0000
0000
,
0100
0000
0000
0000
,
0010
0000
0000
0000
,
0001
0000
0000
0000
,
1000
0000
1000
0000
,
1000
0000
0000
0000
,
0001
0000
0000
0000
,
0100
0000
0000
0000
,
0001
0000
0000
0000
,
0100
0000
0000
0000
,
0010
0000
0000
0000
,
1000
0000
0000
0000
,
0001
0000
0001
0000
,
0001
0000
0000
0000
,
1000
0000
1000
0000
,
1000
0000
0000
0000
,
0010
0000
0010
0000
,
0010
0000
0000
0000
,
0220
0000
0000
0330
,
0110
0000
0100
0000
,
0000
0010
0000
0000
;

//---------------dance-single - ----------------
#NOTES:
     dance-single:
     :
     Easy:
     3:
     :
0000
0000
0000
0000
,
0000
0000
0000
0000
,
0000
0000
0000
0000
,
0000
0000
0000
0000
,
0000
0000
0000
0000
,
1000
0000
0001
0000
,
1000
0000
0100
0010
,
0001
0000
1000
0000
,
0001
0000
0100
0010
,
1000
0000
0001
0000
,
1000
0000
0001
0100
,
0010
0000
0100
0000
,
0010
0010
1000
0001
,
1000
0000
0100
0000
,
0010
0001
0010
0001
,
1000
0000
0001
0000
,
2002
0000
0000
3003
,
0001
0000
1000
0000
,
0100
0010
0100
0010
,
0001
0000
1000
0000
,
0001
0100
0010
1000
,
0001
0000
1000
0000
,
0001
0100
0001
0100
,
0010
0000
1000
0000
,
0220
0000
0000
0330
,
1000
0000
0001
0000
,
0100
0010
0100
0010
,
1000
0000
0001
0000
,
2002
0000
0000
3003
,
0220
0000
0000
0330
,
0100
0000
0010
1000
,
0100
0000
0010
0000
,
0100
0000
0010
0000
,
0001
0100
0001
0100
,
0010
1000
0010
0000
,
1000
0000
0001
0000
,
1001
0000
0001
0000
,
1000
0100
1000
0100
,
0010
0001
0010
0001
,
2000
0000
0000
3000
,
0002
0000
0000
0003
,
0100
0000
0010
0000
,
1000
0000
1001
0000
,
1000
1000
0100
0100
,
0010
0010
0001
0001
,
1000
0000
0001
0000
,
0100
0000
0110
0000
,
0001
0001
0100
0100
,
0010
0010
1000
1000
,
0001
0000
1000
0000
,
0100
0000
1001
0000
,
0001
0001
0100
0100
,
1000
1000
0100
0100
,
0001
0000
1000
0000
,
0010
0000
0110
0000
,
1000
1000
0100
0100
,
0001
0001
0100
0100
,
1000
0000
0001
0000
,
1001
0000
0000
0000
,
0100
0000
0010
0000
,
0110
0000
0000
0000
,
0001
0000
1000
0000
,
1001
0000
0000
0000
,
0100
0000
0010
0000
,
0001
0001
1000
1000
,
0000
1001
0000
0000
;

//---------------dance-single - ----------------
#NOTES:
     dance-single:
     :
     Medium:
     5:
     :
0000
0000
0000
0000
,
0000
0000
0000
0000
,
0000
0000
0000
0000
,
0000
0000
0000
0000
,
0000
0000
0000
0000
,
1000
0000
0000
0000
0001
0000
0000
1000
,
0000
0000
0000
0000
0001
0100
0010
0000
,
0100
0000
0000
0000
0010
0000
0000
0100
,
0000
0000
0010
1000
,
0001
0000
0000
0000
1000
0000
0000
0001
,
0000
0000
0000
0000
1000
0100
0010
0000
,
0020
0000
0000
0000
0030
0000
0001
0001
,
0000
1000
0000
0001
0000
1000
1000
0000
,
0001
0000
0100
0000
0010
0000
0010
1000
,
0002
0000
0000
0003
,
1000
0100
0010
0010
,
0002
0000
0000
0003
,
1000
0000
0001
0000
0100
0000
0100
0010
,
2000
0000
0000
3000
,
0001
0000
1000
0000
0100
0000
0100
0010
,
0001
1000
0001
0001
,
0100
0000
0010
0000
1000
0000
0001
0001
,
1000
0001
2000
3000
,
1000
0100
0001
0100
,
0100
0010
0001
0000
0020
0000
0030
0000
,
0001
0100
1000
0100
,
0100
0010
1000
0000
0020
0000
0030
0000
,
1000
0100
0100
0010
,
0002
0000
0000
0003
,
0200
0000
0000
0000
,
0000
0000
0010
0310
,
1010
0000
0101
0000
,
1001
0000
0100
0000
0010
0000
1000
0001
,
1000
0000
0001
0000
0100
0000
0010
0010
,
1000
0100
2000
3000
,
0011
0000
1100
0000
,
1001
0000
0100
0000
0010
0000
0001
0100
,
0001
1000
0100
0010
,
0010
0001
0100
0000
0001
1000
0100
0000
,
1000
0020
0000
0030
,
0011
1010
0000
0000
,
1000
0000
0000
0000
0001
0000
0000
1001
,
0000
0000
0000
1000
0100
0001
0100
0000
,
0010
0000
0001
0000
1000
0000
0001
1000
,
1000
0000
0100
1000
0001
0000
0100
0000
,
0001
0000
0000
0000
0100
0001
0010
0001
,
1000
0000
0100
0000
0010
0000
0001
0010
,
0100
0000
1000
0000
0001
0000
1000
1000
,
0001
0100
0002
0003
,
0100
0000
0000
0000
0010
0000
0000
0110
,
0000
0000
0000
0010
1000
0001
0010
0000
,
0001
0000
1000
0000
0001
0000
0100
0100
,
0010
0000
1000
0010
1000
0000
1000
0000
,
0101
0000
0000
0000
1000
0100
0001
0100
,
0010
0000
0001
0000
1000
0000
0010
1000
,
0100
0000
0010
0000
0001
0000
1000
1000
,
0001
0100
0002
0003
,
1100
0000
0000
0000
0101
0000
0000
1001
,
0000
0000
0000
0000
1000
0001
1000
0000
,
1010
0000
0000
0000
0011
0000
0000
1001
,
0000
0000
0000
0000
0001
0100
0001
0000
,
1010
0000
0000
0000
0110
0000
0000
0101
,
0000
0000
0000
0000
1000
0100
1000
0000
,
0001
0000
0100
0000
0010
0000
1000
1000
,
0001
0000
1000
0100
0010
0000
0010
0000
,
0000
1001
0000
0000
;

//---------------dance-single - ----------------
#NOTES:
     dance-single:
     :
     Hard:
     7:
     :
0000
0000
0000
0000
,
0000
0000
0000
0000
,
0000
0000
0000
0000
,
0000
0000
0000
0000
,
0000
0000
0000
0000
,
0100
0000
0010
0001
0010
0000
0001
1000
,
0000
1000
0001
0000
1000
0100
0010
0001
,
1000
0000
0001
0100
0001
0000
0100
0010
,
0000
0010
0100
0000
0001
0100
0010
1000
,
0001
0000
1000
0001
1000
0000
1000
0100
,
0000
0100
0010
0000
0001
0010
0001
0000
,
2000
0000
0001
0000
3100
0000
1001
0100
,
0000
0010
0000
1000
0000
0001
0100
0000
,
0001
0000
0100
0000
0010
0010
0000
1000
,
0000
0001
0000
0001
0000
0000
1000
0100
,
1000
0000
0100
0000
0010
0010
0000
0001
,
0000
2000
0000
3000
0000
0000
0001
0100
,
0001
0000
1000
0000
0101
0000
1000
1000
,
0000
0010
0000
1000
0000
0100
0010
0100
,
0000
0000
0000
0010
0001
1000
0001
1000
,
0000
0001
0000
0100
0000
0010
0010
0000
,
1000
0000
0001
0000
1000
0100
0000
0010
,
0000
0001
0000
0000
0000
0000
1000
0001
,
1000
0000
0001
0000
0110
0000
0010
0010
,
0000
1000
0000
0000
0000
0000
0001
0100
,
0001
0000
1000
0000
0100
0000
0010
0010
,
0000
0001
0000
1000
0000
0001
0100
0001
,
0010
0000
0100
0100
0000
1000
0000
0002
,
0000
0000
0000
0003
,
2000
0000
0000
0000
3001
0000
0100
0010
,
0000
0010
0100
0000
0001
0000
0100
0000
,
1001
0000
0000
0000
1000
0000
0100
0100
,
0000
0010
0000
0011
0000
0000
0001
0100
,
1000
0000
0100
0000
0010
0010
0000
1000
,
0000
0101
0000
0000
1000
0000
0100
0000
,
1001
0000
0000
0000
1000
0100
0000
0100
,
0010
0000
0010
0001
0000
0000
1000
0100
,
0010
0001
0100
0001
0000
1000
0100
1000
,
0000
0001
0010
0001
0000
1000
0010
1000
,
0000
0002
0000
0000
0000
0000
0003
0000
,
1010
1100
0000
0000
,
0001
0000
0000
0000
1000
0000
0000
1001
,
0000
0000
0000
1000
0100
0010
0001
0000
,
1000
0000
0001
0000
0100
0100
0000
0010
,
0000
1000
0000
0001
0000
1001
0000
0100
,
0100
0000
0000
0000
0010
0010
0000
1000
,
0000
0100
0000
0010
0000
0000
0001
0010
,
0001
1000
0001
0100
0000
0010
0000
1000
,
0000
0001
0000
1000
0001
0000
0100
0000
,
0010
0000
0000
0000
0100
0000
0000
0110
,
0000
0000
0000
0010
1000
0001
0100
0000
,
0001
0000
1000
0000
0100
0100
0000
0010
,
0000
0001
0000
1000
0000
0001
0000
1000
,
1000
0000
0000
0000
0001
0001
0000
0100
,
0000
0010
0000
1001
0000
0000
1000
0001
,
1000
0100
1000
0010
0000
1000
0000
0100
,
0000
0010
0000
0001
0001
0000
1000
0000
,
0101
0000
0000
0000
1100
0000
0000
1001
,
0000
0000
0000
0000
1000
0100
0001
0100
,
1000
0000
0000
0000
0001
0000
0000
1000
,
0001
0000
0001
0100
0000
0010
0000
1000
,
1001
0000
0000
0000
0011
0000
0000
1010
,
0000
0000
0000
0000
1000
0010
0001
0010
,
1000
0000
0001
0000
,
0100
0000
0001
0100
0000
0010
0000
0000
,
0000
2002
0000
0000
,
0000
0000
0000
3003
;

//---------------dance-double - ----------------
#NOTES:
     dance-double:
     :
     Beginner:
     1:
     :
00000000
00000000
00000000
00000000
,
00000000
00000000
00000000
00000000
,
00000000
00000000
00000000
00000000
,
00000000
00000000
00000000
00000000
,
00000000
00000000
00000000
00000000
,
10000000
00000000
00010000
00000000
,
10000000
00000000
00000000
00000000
,
01000000
00000000
00001000
00000000
,
01000000
00000000
00000000
00000000
,
00001000
00000000
00010000
00000000
,
00001000
00000000
00000000
00000000
,
00022000
00000000
00000000
00033000
,
00000000
00000000
00000000
00000000
,
00010000
00000000
00000000
00000000
,
00000100
00000000
00000100
00000000
,
00000010
00000000
00000000
00000000
,
00000001
00000000
00000000
00000000
,
00001000
00000000
00000000
00000000
,
00000001
00000000
00000001
00000000
,
00000100
00000000
00000000
00000000
,
00000010
00000000
00000010
00000000
,
00010000
00000000
00000000
00000000
,
00001000
00000000
01000000
00000000
,
00001000
00000000
00000000
00000000
,
01000000
00000000
00100000
00000000
,
01000000
00000000
00000000
00000000
,
00100000
00000000
10000000
00000000
,
00100000
00000000
00000000
00000000
,
20000000
00000000
00000000
30000000
,
10000000
00000000
00000000
00000000
,
01000000
00000000
00000000
00000000
,
00100000
00000000
00000000
00000000
,
00001000
00000000
00000000
00000000
,
00010000
00000000
00000000
00000000
,
00000100
00000000
00000000
00000000
,
00000010
00000000
00000000
00000000
,
00000001
00000000
00000000
00000000
,
00001000
00000000
00001000
00000000
,
00000010
00000000
00000010
00000000
,
00020000
00000000
00000000
00030000
,
00010000
00000000
00000000
00000000
,
00001000
00000000
00001000
00000000
,
00001000
00000000
00000000
00000000
,
01000000
00000000
00000000
00000000
,
00100000
00000000
00000000
00000000
,
10000000
00000000
00000000
00000000
,
01000000
00000000
00000000
00000000
,
00010000
00000000
00000000
00000000
,
00001000
00000000
00000000
00000000
,
00000100
00000000
00000100
00000000
,
00000100
00000000
00000000
00000000
,
00000001
00000000
00000000
00000000
,
00000010
00000000
00000000
00000000
,
00000001
00000000
00000000
00000000
,
00000100
00000000
00000000
00000000
,
00000010
00000000
00000000
00000000
,
00010000
00000000
00000000
00000000
,
00001000
00000000
00001000
00000000
,
00001000
00000000
00000000
00000000
,
01000000
00000000
01000000
00000000
,
01000000
00000000
00000000
00000000
,
00010000
00000000
00010000
00000000
,
00010000
00000000
00000000
00000000
,
20020000
00000000
00000000
30030000
,
10010000
00000000
10000000
00000000
,
00000000
00100000
00000000
00000000
;

//---------------dance-double - ----------------
#NOTES:
     dance-double:
     :
     Easy:
     4:
     :
00000000
00000000
00000000
00000000
,
00000000
00000000
00000000
00000000
,
00000000
00000000
00000000
00000000
,
00000000
00000000
00000000
00000000
,
00000000
00000000
00000000
00000000
,
10000000
00000000
00010000
00000000
,
10000000
00000000
01000000
00010000
,
00001000
00000000
00010000
00000000
,
00001000
00000000
00010000
00000100
,
00001000
00000000
00000001
00000000
,
00001000
00000000
00000001
00000100
,
00000010
00000000
00000100
00000000
,
00000010
00000010
00010000
00001000
,
00010000
00000000
00001000
00000000
,
01000000
00010000
01000000
00010000
,
10000000
00000000
00010000
00000000
,
20020000
00000000
00000000
30030000
,
10000000
00000000
01000000
00000000
,
00100000
00001000
00100000
00001000
,
00010000
00000000
00001000
00000000
,
00010000
00000100
00001000
00000010
,
00000100
00000000
00000001
00000000
,
00001000
00000001
00001000
00000001
,
00000100
00000000
00000010
00000000
,
00000220
00000000
00000000
00000330
,
00000100
00000000
00000010
00000000
,
00010000
00001000
00010000
00001000
,
01000000
00000000
00010000
00000000
,
20020000
00000000
00000000
30030000
,
02200000
00000000
00000000
03300000
,
10000000
00000000
00010000
10000000
,
00010000
00000000
00100000
00000000
,
00001000
00000000
00010000
00000000
,
00000010
00001000
00000010
00001000
,
00000001
00000100
00000001
00000000
,
00001000
00000000
00000001
00000000
,
00001001
00000000
00000100
00000000
,
00010000
00001000
00010000
00001000
,
01000000
00100000
10000000
00010000
,
20000000
00000000
00000000
30000000
,
02000000
00000000
00000000
03000000
,
00100000
00000000
00001000
00000000
,
00010000
00000000
00011000
00000000
,
00001000
00001000
00000100
00000100
,
00000001
00000001
00000010
00000010
,
00000001
00000000
00001000
00000000
,
00000001
00000000
00001001
00000000
,
00000001
00000001
00000100
00000100
,
00001000
00001000
00010000
00010000
,
01000000
00000000
00100000
00000000
,
00010000
00000000
10010000
00000000
,
10000000
10000000
01000000
01000000
,
00100000
00100000
00001000
00001000
,
00010000
00000000
00000100
00000000
,
00000010
00000000
00000110
00000000
,
00000001
00000001
00000100
00000100
,
00000010
00000010
00010000
00010000
,
00001000
00000000
00010000
00000000
,
00011000
00000000
00000000
00000000
,
00100000
00000000
01000000
00000000
,
01100000
00000000
00000000
00000000
,
10000000
00000000
00010000
00000000
,
10010000
00000000
00000000
00000000
,
10000000
00000000
01000000
00000000
,
00010000
00001000
00000100
00000001
,
00000000
00001001
00000000
00000000
;

//---------------dance-double - ----------------
#NOTES:
     dance-double:
     :
     Medium:
     5:
     :
00000000
00000000
00000000
00000000
,
00000000
00000000
00000000
00000000
,
00000000
00000000
00000000
00000000
,
00000000
00000000
00000000
00000000
,
00000000
00000000
00000000
00000000
,
10000000
00000000
00000000
00000000
00010000
00000000
00000000
10000000
,
00000000
00000000
00000000
00000000
00010000
00100000
00010000
00000000
,
00100000
00000000
00000000
00000000
00001000
00000000
00000000
00010000
,
00000000
00000000
00000100
00001000
,
00000010
00000000
00000000
00000000
00001000
00000000
00000000
00000001
,
00000000
00000000
00000000
00000000
00001000
00000100
00001000
00000000
,
00000020
00000000
00000000
00000000
00000030
00000000
00001000
00001000
,
00000000
00000100
00000000
00010000
00000000
00001000
00001000
00000000
,
00100000
00000000
00010000
00000000
01000000
00000000
00100000
10000000
,
00200000
00000000
00000000
00300000
,
10000000
01000000
00100000
00001000
,
00020000
00000000
00000000
00030000
,
00001000
00000000
00000100
00000000
00000010
00000000
00001000
00000001
,
00002000
00000000
00000000
00003000
,
00000001
00000000
00000100
00000000
00000010
00000000
00001000
00000001
,
00001000
00000100
00010000
00001000
,
01000000
00000000
00100000
00000000
10000000
00000000
00010000
00010000
,
10000000
01000000
00200000
00300000
,
00001000
00010000
00001000
00000100
,
00000010
00001000
00000010
00000000
00002000
00000000
00003000
00000000
,
00000001
00000100
00001000
00010000
,
00001000
00010000
00001000
00000000
00020000
00000000
00030000
00000000
,
00001000
00010000
01000000
10000000
,
00200000
00000000
00000000
00300000
,
20000000
00000000
00000000
00000000
,
00000000
00000000
00010000
30010000
,
01100000
00000000
10010000
00000000
,
11000000
00000000
00100000
00000000
00010000
00000000
01000000
00001000
,
01000000
00000000
00001000
00000000
00010000
00000000
00000100
00000100
,
00000010
00000001
00002000
00003000
,
00000101
00000000
00001010
00000000
,
00010100
00000000
00010000
00000000
00001000
00000000
00100000
00010000
,
00100000
00010000
01000000
00100000
,
10000000
01000000
00010000
00000000
01000000
00010000
00001000
00000000
,
00010000
00002000
00000000
00003000
,
00011000
00011000
00000000
00000000
,
00001000
00000000
00000000
00000000
00000100
00000000
00000000
00001001
,
00000000
00000000
00000000
00000001
00000100
00001000
00010000
00000000
,
00001000
00000000
00010000
00000000
01000000
00000000
00100000
00010000
,
00010000
00000000
00100000
01000000
10000000
00000000
00010000
00000000
,
10000000
00000000
00000000
00000000
01000000
00100000
00010000
01000000
,
00001000
00000000
00010000
00000000
00001000
00000000
00000100
00000010
,
00001000
00000000
00000001
00000000
00000100
00000000
00000010
00000010
,
00001000
00000100
00020000
00030000
,
00001000
00000000
00000000
00000000
00010000
00000000
00000000
00011000
,
00000000
00000000
00000000
00001000
00010000
00100000
10000000
00000000
,
00010000
00000000
10000000
00000000
01000000
00000000
00100000
00100000
,
00010000
00000000
00100000
00001000
00010000
00000000
00001000
00000000
,
00011000
00000000
00000000
00000000
00010000
00001000
00000100
00000001
,
00000100
00000000
00000010
00000000
00001000
00000000
00000001
00000100
,
00000010
00000000
00001000
00000000
00000100
00000000
00010000
00010000
,
00001000
01000000
00020000
00030000
,
11000000
00000000
00000000
00000000
01010000
00000000
00000000
00011000
,
00000000
00000000
00000000
00000000
00000100
00001000
00000100
00000000
,
00001100
00000000
00000000
00000000
00000101
00000000
00000000
00000011
,
00000000
00000000
00000000
00000000
00000010
00001000
00000010
00000000
,
00001010
00000000
00000000
00000000
00011000
00000000
00000000
00110000
,
00000000
00000000
00000000
00000000
00100000
10000000
00100000
00000000
,
10000000
00000000
01000000
00000000
00100000
00000000
00001000
00001000
,
00010000
00000000
00001000
00000100
00000010
00000000
00001000
00000000
,
00000000
00000110
00000000
00000000
;

//---------------dance-double - ----------------
#NOTES:
     dance-double:
     :
     Hard:
     7:
     :
00000000
00000000
00000000
00000000
,
00000000
00000000
00000000
00000000
,
00000000
00000000
00000000
00000000
,
00000000
00000000
00000000
00000000
,
00000000
00000000
00000000
00000000
,
01000000
00000000
10000000
00010000
10000000
00000000
00010000
01000000
,
00000000
01000000
00001000
00000000
00010000
00000100
00000010
00000001
,
00001000
00000000
00000001
00001000
00000001
00000000
00000100
00000010
,
00000000
00000010
00010000
00000000
00001000
01000000
00100000
10000000
,
00010000
00000000
10000000
01000000
10000000
00000000
01000000
00100000
,
00000000
00100000
00010000
00000000
00100000
00001000
00010000
00000000
,
00002000
00000000
00010000
00000000
00013000
00000000
00000100
00001000
,
00000000
00000010
00000000
00001000
00000000
00000001
00000100
00000000
,
00000001
00000000
00000001
00000000
00000001
00000100
00000000
00000010
,
00000000
00000010
00000000
00000010
00000000
00000000
00001000
00000001
,
00001000
00000000
00000100
00000000
00010000
00010000
00000000
00002000
,
00000000
00020000
00000000
00033000
00000000
00000000
00001000
01000000
,
00010000
00000000
00100000
00000000
10010000
00000000
01000000
01000000
,
00000000
00100000
00000000
00010000
00000000
01000000
00001000
01000000
,
00000000
00000000
00000000
00010000
00000100
00001000
00000010
00000100
,
00000000
00000001
00000000
00001000
00000000
00000100
00000100
00000000
,
00000010
00000000
00000010
00000000
00000010
00000001
00000000
00000001
,
00000000
00000001
00000000
00000000
00000000
00000000
00001000
00000001
,
00001000
00000000
00000100
00000000
00001010
00000000
00010000
00010000
,
00000000
00001000
00000000
00000000
00000000
00000000
01000000
00010000
,
01000000
00000000
00010000
00000000
10000000
00000000
01000000
01000000
,
00000000
00100000
00000000
00010000
00000000
10000000
01000000
00010000
,
00001000
00000000
00010000
00010000
00000000
00001000
00000000
00000200
,
00000000
00000000
00000000
00000300
,
00000020
00000000
00000000
00000000
00001030
00000000
00000001
00001000
,
00000000
00001000
00000001
00000000
00000100
00000000
00000010
00000000
,
00001100
00000000
00000000
00000000
00010000
00000000
00001000
00001000
,
00000000
01000000
00000000
00110000
00000000
00000000
00100000
01000000
,
10000000
00000000
00010000
00000000
10000000
10000000
00000000
00100000
,
00000000
01010000
00000000
00000000
00100000
00000000
00001000
00000000
,
00011000
00000000
00000000
00000000
00010000
00001000
00000000
00001000
,
00000100
00000000
00000100
00000001
00000000
00000000
00001000
00000100
,
00000010
00000001
00000100
00001000
00000000
00010000
00001000
00010000
,
00000000
00001000
00100000
00001000
00000000
00100000
00010000
00100000
,
00000000
00020000
00000000
00000000
00000000
00000000
00030000
00000000
,
10010000
01100000
00000000
00000000
,
10000000
00000000
00000000
00000000
01000000
00000000
00000000
00010000
,
00000000
00000000
00000000
00001000
00010000
00001000
00000010
00000000
,
00000001
00000000
00001000
00000000
00000010
00000010
00000000
00000100
,
00000000
00000001
00000000
00001000
00000000
00001001
00000000
00000001
,
00000001
00000000
00000000
00000000
00000100
00000100
00000000
00001000
,
00000000
00010000
00000000
01000000
00000000
00000000
00100000
00010000
,
01000000
00100000
10000000
01000000
00000000
10000000
00000000
01000000
,
00000000
00100000
00000000
00010000
01000000
00000000
00001000
00000000
,
00010000
00000000
00000000
00000000
00001000
00000000
00000000
00000100
,
00000000
00000000
00000000
00000001
00000100
00000010
00001000
00000000
,
00000001
00000000
00000100
00000000
00000010
00000010
00000000
00010000
,
00000000
00001000
00000000
01000000
00000000
00010000
00000000
10000000
,
10000000
00000000
00000000
00000000
01000000
01000000
00000000
00100000
,
00000000
00010000
00000000
00011000
00000000
00000000
00010000
00001000
,
00010000
00000010
00010000
00000100
00000000
00000010
00000000
00000001
,
00000000
00001000
00000000
00000001
00000001
00000000
00000100
00000000
,
00001001
00000000
00000000
00000000
00001100
00000000
00000000
00001010
,
00000000
00000000
00000000
00000000
00010000
00001000
00010000
01000000
,
10000000
00000000
00000000
00000000
00010000
00000000
00000000
10000000
,
01000000
00000000
01000000
00100000
00000000
00001000
00000000
00010000
,
00011000
00000000
00000000
00000000
00001100
00000000
00000000
00000110
,
00000000
00000000
00000000
00000000
00000010
00000001
00000100
00001000
,
00010000
00000000
00001000
00000000
,
01000000
00000000
00100000
10000000
00000000
00010000
00000000
00000000
,
00000000
20020000
00000000
00000000
,
00000000
00000000
00000000
30030000
;
