
//----- song ID: wait -----
#TITLE:Waiting For You;
#ARTIST:C-14;
#BANNER:Waiting For You.png;
#BACKGROUND:Waiting For You-bg.png;
#CDTITLE:./CDTitles/DDR UNIVERSE3.png;
#MUSIC:Waiting For You.ogg;
#OFFSET:-0.001;
#SAMPLESTART:54.085;
#SAMPLELENGTH:15;
#BPMS:0=141.98;
#NOTES:
     dance-single:
     :
     Beginner:
     1:
     :
0000
0000
0000
0000
,
0000
0000
0000
0000
,
0000
0000
0000
0000
,
0000
0000
0000
0000
,
0010
0000
0010
0000
,
0100
0000
0100
0000
,
0010
0000
0010
0000
,
0100
0000
0100
0000
,
0001
0000
0001
0000
,
1000
0000
1000
0000
,
0001
0000
0001
0000
,
1000
0000
1000
0000
,
0001
0000
0001
0000
,
0010
0000
0010
0000
,
0100
0000
0100
0000
,
1000
0000
1000
0000
,
0010
0000
0000
0000
,
1000
0000
0000
0000
,
0100
0000
0000
0000
,
0001
0000
0000
0000
,
0010
0000
0000
0000
,
0001
0000
0000
0000
,
0100
0000
0000
0000
,
1000
0000
0000
0000
,
0010
0000
0000
0000
,
1000
0000
0000
0000
,
0001
0000
0000
0000
,
0010
0000
0000
0000
,
0100
0000
0000
0000
,
1000
0000
0000
0000
,
0001
0000
0000
0000
,
0100
0000
0000
0000
,
0020
0000
0000
0030
,
0010
0000
0010
0000
,
1000
0000
0000
0000
,
0001
0000
0000
0000
,
0020
0000
0000
0030
,
0010
0000
0010
0000
,
0001
0000
0000
0000
,
1000
0000
0000
0000
,
0200
0000
0000
0300
,
0100
0000
0100
0000
,
1000
0000
0000
0000
,
0001
0000
0000
0000
,
0200
0000
0000
0300
,
0100
0000
0100
0000
,
0001
0000
0000
0000
,
1000
0000
0000
0000
,
0100
0000
0100
0000
,
0010
0000
0010
0000
,
0100
0000
0100
0000
,
0010
0000
0010
0000
,
0001
0000
0001
0000
,
1000
0000
1000
0000
,
0001
0000
0001
0000
,
1000
0000
1000
0000
,
1001
0000
0000
0000
;
#NOTES:
     dance-single:
     :
     Easy:
     3:
     :
0000
0000
0000
0000
,
0000
0000
0000
0000
,
0000
0000
0000
0000
,
0000
0000
0000
0000
,
0001
0000
0010
0000
,
0001
0000
0100
0000
,
1000
0000
0010
0000
,
1000
0000
0100
0000
,
0001
0100
0010
1000
,
0001
0000
0100
0000
,
1000
0100
0010
0001
,
1000
0000
0100
0000
,
0001
0100
0010
1000
,
0001
0000
0010
0000
,
1000
0100
0010
0001
,
1000
0000
0010
0000
,
1000
0000
0100
0000
,
1000
0000
0010
0000
,
0001
0000
0100
0000
,
0001
0000
0010
0000
,
1000
0000
0010
0000
,
1000
0000
0100
0000
,
0001
0000
0010
0000
,
0001
0000
0100
0000
,
1000
0100
0010
0000
,
0001
0100
0010
0000
,
0100
0001
0010
0000
,
0100
1000
0010
0000
,
0001
0010
0100
0000
,
1000
0010
0100
0000
,
0010
1000
0100
0000
,
0010
0001
0100
0000
,
0010
1000
0001
0010
,
0200
0000
1300
0001
,
0010
0001
1000
0010
,
0200
0000
0301
1000
,
0100
0010
0100
0010
,
0200
0000
1300
0001
,
2000
0000
0000
3000
,
0002
0000
0000
0003
,
1000
0100
0010
0001
,
0200
0000
0310
1000
,
0001
0100
0010
1000
,
0200
0000
0310
0001
,
0100
0010
0100
0010
,
0200
0000
0301
1000
,
0002
0000
0000
0003
,
2000
0000
0000
3000
,
0001
0010
0100
1000
,
0001
0000
0100
0000
,
1000
0010
0100
0001
,
1000
0000
0100
0000
,
0001
0010
0100
1000
,
0001
0000
0010
0000
,
1000
0010
0100
0001
,
1000
0000
0010
0000
,
1001
0000
0000
0000
;
#NOTES:
     dance-single:
     :
     Medium:
     4:
     :
0000
0000
0000
0000
,
0000
0000
0000
0000
,
0000
0000
0000
0000
,
0000
0000
0000
0000
,
0000
0001
0001
0000
1000
1000
0000
0100
,
0000
1000
1000
0000
0001
0001
0000
0100
,
0000
0010
0010
0000
1000
1000
0000
0001
,
0000
0010
0010
0000
0001
0001
0000
1000
,
0000
0100
0010
0000
0100
0010
0000
0001
,
0000
0100
0010
0000
0100
0010
0000
1000
,
0000
0010
0100
0000
0010
0100
0000
0001
,
0000
0010
0100
0000
0010
0100
0000
1000
,
0000
0001
0100
0000
0010
0100
0000
0001
,
0000
1000
0100
0000
0010
0100
0000
1000
,
0000
0001
0010
0000
0100
1000
0000
0001
,
0000
1000
0010
0000
0100
0001
0000
1000
,
0000
0001
0000
0100
0000
0001
0000
1000
,
0000
0100
0000
1000
0000
0001
0000
0010
,
0000
0001
0000
1000
0000
0010
0000
1000
,
0000
0100
0000
0010
0000
0100
0000
1000
,
0001
1000
0000
0100
0000
1000
0000
0001
,
0000
0100
0000
0001
0000
1000
0000
0010
,
0000
1000
0000
0001
0000
0010
0000
0001
,
0000
0100
0000
0010
0000
0100
0000
0001
,
1000
0001
0000
0010
0000
0100
1000
0010
,
0000
0100
0000
0001
0000
0010
0001
1000
,
0000
0100
0000
0010
0000
0001
1000
0010
,
0000
1000
0000
1000
0000
0001
0000
0001
,
0000
0010
0000
0001
0000
0100
0010
1000
,
0000
0100
0000
1000
0000
0001
1000
0010
,
0000
0100
0000
0010
0000
1000
0100
0010
,
0000
0000
0000
0000
0001
0100
0000
0000
,
0010
0000
1000
0001
0000
0010
0000
0100
,
0000
1000
0000
0010
0000
1000
0100
0010
,
0001
0000
1000
0001
0000
0010
0000
0001
,
0000
0100
0000
0000
0001
1000
0000
0000
,
0010
0000
1000
0100
0000
0010
0000
0001
,
0000
0100
0000
0010
0000
1000
0010
0100
,
0002
0000
0000
0000
0000
0000
1000
2003
,
0000
3010
0000
0000
1000
0100
0000
0000
,
0010
0000
0001
1000
0000
0010
0000
0100
,
0000
0001
0000
0010
0000
0001
0100
0010
,
1000
0000
0001
0100
0000
0001
0000
0010
,
0000
0100
0000
0000
1000
0001
0000
0000
,
0010
0000
0001
0100
0000
0010
0000
1000
,
0000
0100
0000
0010
0000
0001
1000
0010
,
0200
0000
0000
0000
0000
0000
0010
0320
,
0000
1030
0000
0000
0000
0000
0000
0000
,
0000
0001
0010
0000
0100
1000
0000
0001
,
0000
1000
0010
0000
0100
0001
0000
1000
,
0000
0010
1000
0000
0001
0010
0000
0100
,
0000
0010
0001
0000
1000
0010
0000
0100
,
0000
0001
0100
0000
1000
0100
0000
0001
,
0000
1000
0100
0000
0001
0100
0000
1000
,
0000
0010
1000
0000
0100
0010
0000
0100
,
0000
0010
0001
0000
0100
0010
0000
0100
;
#NOTES:
     dance-single:
     :
     Hard:
     7:
     :
0000
0000
0000
0000
,
0000
0000
0000
0000
,
0000
0000
0000
0000
,
0000
0000
0000
0000
,
0000
0100
0010
0000
0100
0010
0000
0001
,
0000
0100
0010
0000
0100
0010
0000
1000
,
0000
0100
1000
0000
0001
0100
0000
0010
,
0000
0100
0001
0000
1000
0100
0000
0010
,
0000
0100
1000
0010
1000
0001
0100
0010
,
1000
0100
1000
0001
0100
0001
0000
1001
,
0000
1000
0010
0100
0010
1000
0100
0010
,
0001
0100
0010
1000
0001
0010
0000
0110
,
0000
0100
1000
0001
0100
0010
0100
0001
,
0010
0100
0010
0001
1000
0010
0000
0110
,
0000
0100
0001
0010
0001
1000
0010
1000
,
0100
0010
0001
0100
0010
1000
0000
1001
,
0000
0000
0001
0010
0000
0000
0010
0100
0000
0000
0100
1000
0000
0000
1000
0001
,
0000
0000
0001
0100
0000
0000
0100
0001
0000
0000
0001
0010
0000
0000
0010
0100
,
0000
0000
0100
1000
0000
0000
1000
0001
0000
0000
0001
1000
0000
0000
1000
0010
,
0000
0000
0010
0100
0000
0000
0100
0001
0000
0000
0001
0010
0000
0000
0010
0001
,
0000
0000
0001
1000
0000
0000
1000
0100
0000
0000
0100
0010
0000
0000
0010
0001
,
0000
0000
0001
0100
0000
0000
0100
0010
0000
0000
0010
1000
0000
0000
1000
0001
,
0000
0000
0001
0100
0000
0000
0100
0001
0000
0000
0001
0010
0000
0000
0010
0001
,
0000
0000
0001
1000
0000
0000
1000
0010
0000
0000
0010
0100
0000
0000
0100
0001
,
0000
0000
1000
0010
0000
0100
0001
0010
,
0000
0001
1000
0010
0000
0100
1000
0100
,
0000
0001
0010
0001
0000
1000
0100
0001
,
0000
0100
1000
0010
0000
0100
0010
1000
,
0100
0010
0001
0100
0000
0010
0100
0001
,
0000
0010
0100
1000
0000
0001
0100
1000
,
0000
0100
0001
0100
0000
0010
1000
0100
,
0000
1000
0001
0100
0000
0010
1000
0100
,
0010
0000
0001
1000
0000
0102
0000
0010
,
0000
0100
0000
0010
0000
1000
1003
0001
,
0100
0010
1000
0100
0010
0001
1000
0100
,
1000
0010
0100
0001
0010
0001
0100
0010
,
1000
0000
0001
1000
0000
0201
0000
1000
,
0000
0001
0000
1000
0000
0001
0301
0100
,
0020
1000
1000
1030
0200
0001
0001
0301
,
0100
1000
0000
0001
0000
1000
0001
0010
,
0100
0000
1000
0001
0000
2010
0000
0100
,
0000
0010
0000
0100
0000
0001
3001
1000
,
0010
0100
0010
0001
0010
1000
0001
0010
,
1000
0010
0100
1000
0010
0100
0001
0010
,
0100
0000
1000
0001
0000
1020
0000
0001
,
0000
1000
0000
0001
0000
1000
1030
0010
,
0002
0010
0010
0013
2000
0100
0100
3100
,
0010
0001
0000
1000
0000
0001
0100
0000
,
0000
0010
1000
0001
0010
0001
1000
0010
,
1000
0100
0010
0001
0100
0010
0000
1010
,
0000
1000
0001
0010
0001
0100
0010
0001
,
0010
0100
0001
1000
0010
0100
0000
0101
,
0000
0001
0010
0100
1000
0010
0100
1000
,
0001
0010
1000
0100
0010
0100
0000
1100
,
0000
1000
0001
0100
0010
0100
0001
1000
,
0001
0010
0100
1000
0100
0010
0000
0011
;
#NOTES:
     dance-double:
     :
     Beginner:
     1:
     :
00000000
00000000
00000000
00000000
,
00000000
00000000
00000000
00000000
,
00000000
00000000
00000000
00000000
,
00000000
00000000
00000000
00000000
,
01000000
00000000
00000000
00000000
,
10000000
00000000
00000000
00000000
,
00100000
00000000
00000000
00000000
,
00010000
00000000
00000000
00000000
,
00001000
00000000
00001000
00000000
,
00010000
00000000
00010000
00000000
,
00001000
00000000
00001000
00000000
,
00010000
00000000
00010000
00000000
,
00000100
00000000
00000100
00000000
,
00000010
00000000
00000010
00000000
,
00000100
00000000
00000100
00000000
,
00000010
00000000
00000010
00000000
,
00000001
00000000
00000000
00000000
,
00000100
00000000
00000000
00000000
,
00000010
00000000
00000000
00000000
,
00010000
00000000
00000000
00000000
,
00001000
00000000
00000000
00000000
,
00100000
00000000
00000000
00000000
,
01000000
00000000
00000000
00000000
,
10000000
00000000
00000000
00000000
,
00100000
00000000
00000000
00000000
,
10000000
00000000
00000000
00000000
,
01000000
00000000
00000000
00000000
,
00010000
00000000
00000000
00000000
,
00001000
00000000
00000000
00000000
,
00000100
00000000
00000000
00000000
,
00000001
00000000
00000000
00000000
,
00000010
00000000
00000000
00000000
,
00000200
00000000
00000000
00000300
,
00000100
00000000
00000100
00000000
,
00000010
00000000
00000000
00000000
,
00000001
00000000
00000000
00000000
,
00000200
00000000
00000000
00000300
,
00000100
00000000
00000100
00000000
,
00001000
00000000
00000000
00000000
,
00010000
00000000
00000000
00000000
,
02000000
00000000
00000000
03000000
,
01000000
00000000
01000000
00000000
,
10000000
00000000
00000000
00000000
,
00100000
00000000
00000000
00000000
,
02000000
00000000
00000000
03000000
,
01000000
00000000
01000000
00000000
,
00100000
00000000
00000000
00000000
,
10000000
00000000
00000000
00000000
,
01000000
00000000
01000000
00000000
,
00100000
00000000
00100000
00000000
,
01000000
00000000
01000000
00000000
,
00100000
00000000
00100000
00000000
,
00001000
00000000
00001000
00000000
,
00010000
00000000
00010000
00000000
,
00001000
00000000
00001000
00000000
,
00010000
00000000
00010000
00000000
,
00011000
00000000
00000000
00000000
;
#NOTES:
     dance-double:
     :
     Easy:
     3:
     :
00000000
00000000
00000000
00000000
,
00000000
00000000
00000000
00000000
,
00000000
00000000
00000000
00000000
,
00000000
00000000
00000000
00000000
,
00000100
00000000
00000001
00000000
,
00000010
00000000
00001000
00000000
,
00000010
00000000
00000001
00000000
,
00000100
00000000
00001000
00000000
,
00010000
00001000
00010000
00001000
,
01000000
00000000
00010000
00000000
,
00100000
01000000
00100000
01000000
,
10000000
00000000
00100000
00000000
,
01000000
00010000
01000000
00010000
,
00100000
00000000
00001000
00000000
,
00010000
00001000
00010000
00001000
,
00000010
00000000
00000100
00000000
,
00001000
00000000
00000100
00000000
,
00000010
00000000
00000001
00000000
,
00000100
00000000
00000010
00000000
,
00010000
00000000
00001000
00000000
,
01000000
00000000
00100000
00000000
,
10000000
00000000
01000000
00000000
,
00100000
00000000
00001000
00000000
,
00010000
00000000
00100000
00000000
,
10000000
01000000
00010000
00000000
,
01000000
00010000
00001000
00000000
,
00010000
00001000
00000100
00000000
,
00001000
00000100
00000001
00000000
,
00000001
00000010
00001000
00000000
,
00000010
00001000
00010000
00000000
,
00001000
00010000
00100000
00000000
,
00010000
00100000
10000000
00000000
,
01000000
00000000
10000000
00100000
,
02000000
00000000
03010000
10000000
,
00100000
00000000
01000000
00001000
,
00020000
00000000
00031000
00010000
,
00000100
00000000
00000010
00000001
,
00000200
00000000
00000301
00001000
,
00000020
00000000
00000000
00000030
,
00000200
00000000
00000000
00000300
,
00000001
00000000
00000010
00000100
,
00002000
00000000
00003010
00010000
,
00001000
00000000
00100000
00010000
,
02000000
00000000
03100000
10000000
,
01000000
00000000
00100000
00010000
,
02000000
00000000
03001000
00010000
,
00002000
00000000
00000000
00003000
,
00020000
00000000
00000000
00030000
,
00000010
00001000
00000010
00001000
,
00000001
00000000
00000010
00000000
,
00000100
00010000
00000100
00010000
,
00001000
00000000
01000000
00000000
,
00100000
10000000
00100000
10000000
,
01000000
00000000
00100000
00000000
,
00001000
00010000
00001000
00010000
,
00000100
00000000
00000010
00000000
,
00001001
00000000
00000000
00000000
;
#NOTES:
     dance-double:
     :
     Medium:
     5:
     :
00000000
00000000
00000000
00000000
,
00000000
00000000
00000000
00000000
,
00000000
00000000
00000000
00000000
,
00000000
00000000
00000000
00000000
,
00000000
00001000
00001000
00000000
00010000
00010000
00000000
00001000
,
00000000
01000000
01000000
00000000
00100000
00100000
00000000
01000000
,
00000000
00010000
00010000
00000000
10000000
10000000
00000000
00010000
,
00000000
00100000
00100000
00000000
00001000
00001000
00000000
00100000
,
00000000
01000000
10000000
00000000
10000000
01000000
00000000
00010000
,
00000000
00001000
01000000
00000000
01000000
00001000
00000000
00100000
,
00000000
00001000
00010000
00000000
00010000
00001000
00000000
00010000
,
00000000
00000100
00000010
00000000
00000010
00000100
00000000
00000001
,
00000000
00001000
00000100
00000000
00000100
00001000
00000000
00000001
,
00000000
00000100
00000010
00000000
00000010
00000100
00000000
00000010
,
00000000
00010000
00001000
00000000
00001000
00010000
00000000
00001000
,
00000000
01000000
00100000
00000000
00100000
01000000
00000000
00010000
,
00000000
00100000
00000000
01000000
00000000
10000000
00000000
00100000
,
00000000
01000000
00000000
00001000
00000000
00100000
00000000
00010000
,
00000000
01000000
00000000
00001000
00000000
00010000
00000000
00000010
,
00000000
00001000
00000000
00000001
00000000
00000010
00000000
00000100
,
00000000
00001000
00000000
00000001
00000000
00000100
00000000
00001000
,
00000000
00010000
00000000
00001000
00000000
01000000
00000000
00001000
,
00000000
00010000
00000000
01000000
00000000
10000000
00000000
00010000
,
00000000
00100000
00000000
01000000
00000000
00100000
00000000
00010000
,
00000000
10000000
00000000
00100000
00000000
01000000
00001000
00010000
,
00000000
01000000
00000000
10000000
00000000
00100000
01000000
00001000
,
00000000
00010000
00000000
00000100
00000000
00000010
00000001
00000100
,
00000000
00000010
00000000
00000010
00000000
00000100
00000000
00000100
,
00000000
00000001
00000000
00000010
00000000
00000001
00000100
00000010
,
00000000
00010000
00000000
00001000
00000000
00000100
00000001
00000010
,
00000000
00000100
00000000
00010000
00000000
00001000
00100000
01000000
,
00000000
00000000
00000000
00000000
10000000
00010000
00000000
00000000
,
00100000
00000000
00001000
00010000
00000000
00001000
00000000
01000000
,
00000000
00100000
00000000
10000000
00000000
00010000
01000000
00100000
,
10000000
00000000
01000000
00100000
00000000
00001000
00000000
00010000
,
00000000
00000010
00000000
00000000
00001000
00000001
00000000
00000000
,
00000010
00000000
00000001
00000100
00000000
00000001
00000000
00000010
,
00000000
00001000
00000000
00010000
00000000
00000100
00000010
00000001
,
00002000
00000000
00000000
00000000
00000000
00000000
00000100
00003200
,
00000000
00001300
00000000
00000000
00000001
00000100
00000000
00000000
,
00000010
00000000
00001000
00000001
00000000
00000010
00000000
00001000
,
00000000
00010000
00000000
00100000
00000000
10000000
01000000
00100000
,
00001000
00000000
01000000
00100000
00000000
10000000
00000000
00010000
,
00000000
01000000
00000000
00000000
00001000
00010000
00000000
00000000
,
00000100
00000000
00010000
00001000
00000000
01000000
00000000
00100000
,
00000000
10000000
00000000
01000000
00000000
00010000
00001000
00100000
,
02000000
00000000
00000000
00000000
00000000
00000000
00100000
03200000
,
00000000
01300000
00000000
00000000
00000000
00000000
00000000
00000000
,
00000000
00100000
00001000
00000000
00010000
00001000
00000000
01000000
,
00000000
00100000
10000000
00000000
00010000
10000000
00000000
01000000
,
00000000
00100000
00010000
00000000
10000000
00010000
00000000
01000000
,
00000000
00001000
00010000
00000000
00000010
00010000
00000000
00000100
,
00000000
00000010
00000001
00000000
00001000
00000001
00000000
00000100
,
00000000
00001000
00010000
00000000
00000010
00010000
00000000
00001000
,
00000000
00100000
01000000
00000000
10000000
01000000
00000000
00010000
,
00000000
00001000
00100000
00000000
01000000
00100000
00000000
00010000
;
#NOTES:
     dance-double:
     :
     Hard:
     8:
     :
00000000
00000000
00000000
00000000
,
00000000
00000000
00000000
00000000
,
00000000
00000000
00000000
00000000
,
00000000
00000000
00000000
00000000
,
00000000
00000100
00001000
00000000
00001000
00000010
00000000
00000100
,
00000000
00000001
00000010
00000000
00000010
00000100
00000000
00010000
,
00000000
00001000
00100000
00000000
00100000
00010000
00000000
10000000
,
00000000
00100000
01000000
00000000
01000000
00001000
00000000
00100000
,
00000000
01000000
00010000
10000000
00100000
00010000
01000000
00100000
,
01000000
00001000
00100000
00001000
00010000
00000010
00000100
00000001
,
00000000
00001000
00000010
00010000
00100000
00010000
00000010
00001000
,
00000100
00010000
00001000
01000000
00100000
10000000
00010000
00100000
,
00000000
01000000
10000000
00010000
01000000
00001000
00100000
00001000
,
00010000
00000010
00010000
00001000
01000000
00100000
10000000
01000000
,
00000000
00010000
00001000
00100000
00001000
01000000
00010000
00100000
,
00001000
00010000
00000010
00001000
00000100
00000010
00000001
00000100
,
00000000
00000000
00000001
00000010
00000000
00000000
00000010
00000100
00000000
00000000
00000100
00010000
00000000
00000000
00010000
00000010
,
00000000
00000000
00000010
00001000
00000000
00000000
00001000
00000001
00000000
00000000
00000001
00000010
00000000
00000000
00000010
00001000
,
00000000
00000000
00001000
00010000
00000000
00000000
00010000
00100000
00000000
00000000
00100000
10000000
00000000
00000000
10000000
01000000
,
00000000
00000000
01000000
00100000
00000000
00000000
00100000
00001000
00000000
00000000
00001000
00010000
00000000
00000000
00010000
00000010
,
00000000
00000000
00000010
00010000
00000000
00000000
00010000
00001000
00000000
00000000
00001000
01000000
00000000
00000000
01000000
00100000
,
00000000
00000000
00100000
10000000
00000000
00000000
10000000
01000000
00000000
00000000
01000000
00010000
00000000
00000000
00010000
00001000
,
00000000
00000000
00001000
01000000
00000000
00000000
01000000
00100000
00000000
00000000
00100000
00010000
00000000
00000000
00010000
00001000
,
00000000
00000000
00001000
00000010
00000000
00000000
00000010
00000001
00000000
00000000
00000001
00001000
00000000
00000000
00001000
00000100
,
00000000
00000000
00000010
00000001
00000100
00000010
00000100
00000001
,
00000010
00000100
00010000
00001000
00100000
00010000
01000000
00100000
,
10000000
00010000
00100000
01000000
10000000
00100000
00000000
00010000
,
00000000
00001000
00000000
00000010
00000000
00000001
00000000
00001000
,
00000000
00000000
00000001
00000010
00000100
00010000
00000010
00001000
,
00000001
00000010
00000001
00000100
00001000
00010000
01000000
10000000
,
00100000
01000000
00010000
00100000
01000000
00100000
00000000
00001000
,
00000000
00010000
00000000
00000010
00000000
00001000
00000100
00000010
,
00000001
00000000
00000100
00000010
00000000
00001010
00000000
00000101
,
00000000
00000011
00000000
00010100
00000000
00010000
01000000
10000000
,
00100000
01000000
00100000
10000000
00010000
00100000
00001000
01000000
,
00100000
10000000
01000000
00010000
00001000
00100000
00010000
01000000
,
00001000
00000000
00010000
01000000
00000000
11000000
00000000
00110000
,
00000000
01001000
00000000
10100000
00000000
10000000
01000000
00100000
,
00002000
00010000
00013000
00000000
00020000
00000100
00030100
00000000
,
00000010
00000001
00000100
00000010
00010000
00000100
00000010
00000001
,
00001000
00000000
00000001
00000100
00000000
00000110
00000000
00010010
,
00000000
00011000
00000000
00101000
00000000
00001000
00010000
00001000
,
00100000
01000000
00100000
00010000
01000000
00100000
10000000
01000000
,
00100000
00001000
01000000
00100000
00010000
00001000
00000010
00000001
,
00000100
00000000
00000001
00001000
00000000
00001100
00000000
00010100
,
00000000
01001000
00000000
01010000
00000000
00010000
00100000
01000000
,
20000000
00100000
30100000
00000000
00200000
01000000
01300000
00000000
,
00001000
00010000
00000100
00000010
00001000
00000010
00000001
00000100
,
00000010
00010000
00001000
00000100
00001000
00010000
01000000
10000000
,
00010000
01000000
10000000
01000000
00100000
10000000
01000000
00100000
,
00000000
00001000
00010000
00100000
00010000
00001000
00100000
00001000
,
00010000
00000010
00001000
00000100
00010000
00001000
00000100
00000001
,
00000000
00000010
00000100
00000010
00000001
00000100
00000010
00010000
,
00001000
01000000
00100000
01000000
10000000
01000000
00010000
10000000
,
00000000
00010000
00100000
10000000
00100000
00001000
01000000
00100000
,
10000000
00010000
00100000
00001000
00010000
00000010
00000100
00000001
;
