
//----- song ID: deca -----
#TITLE:Out of Decaf;
#ARTIST:NEKOJIRA;
#BANNER:Out of Decaf.png;
#BACKGROUND:Out of Decaf-bg.png;
#CDTITLE:./CDTitles/DDR UNIVERSE3.png;
#MUSIC:Out of Decaf.ogg;
#OFFSET:-0.001;
#SAMPLESTART:64;
#SAMPLELENGTH:15;
#BPMS:0=150;
#NOTES:
     dance-single:
     :
     Beginner:
     1:
     :
0000
0000
0000
0000
,
0000
0000
0000
0000
,
0000
0000
0000
0000
,
0000
0000
0000
0000
,
0001
0000
0000
0000
,
1000
0000
0000
0000
,
0001
0000
0000
0000
,
1000
0000
0000
0000
,
0010
0000
0000
0000
,
0010
0000
0000
0000
,
0100
0000
0000
0000
,
0001
0000
0000
0000
,
0010
0000
0000
0000
,
0010
0000
0000
0000
,
0100
0000
0000
0000
,
1000
0000
0000
0000
,
0001
0000
0000
0000
,
1000
0000
0000
0000
,
0001
0000
0000
0000
,
1000
0000
0000
0000
,
0010
0000
0000
0000
,
0100
0000
0000
0000
,
0010
0000
0000
0000
,
0100
0000
0000
0000
,
0001
0000
0000
0000
,
0000
0000
0000
0000
,
0010
0000
0000
0000
,
0000
0000
0000
0000
,
0100
0000
0000
0000
,
0000
0000
0000
0000
,
1000
0000
0000
0000
,
0000
0000
0000
0000
,
0001
0000
0000
0000
,
0001
0000
0000
0000
,
0100
0000
0000
0000
,
0100
0000
0000
0000
,
0010
0000
0000
0000
,
0010
0000
0000
0000
,
1000
0000
0000
0000
,
1000
0000
0000
0000
,
0001
0000
0000
0000
,
0100
0000
0000
0000
,
0001
0000
0000
0000
,
0001
0000
0000
0000
,
1000
0000
0000
0000
,
0100
0000
0000
0000
,
0010
0000
0000
0000
,
0010
0000
0000
0000
,
0001
0000
0000
0000
,
1000
0000
0000
0000
,
0010
0000
0000
0000
,
0010
0000
0000
0000
,
0100
0000
0000
0000
,
0001
0000
0000
0000
,
1000
0000
0000
0000
,
1000
0000
0000
0000
,
0100
0000
0000
0000
,
0010
0000
0000
0000
,
0100
0000
0000
0000
,
0010
0000
0000
0000
,
0001
0000
0000
0000
,
1000
0000
0000
0000
,
0001
0000
0000
0000
,
1000
0000
0000
0000
,
0010
0000
0000
0000
,
0100
0000
0000
0000
,
0001
0000
0000
0000
,
0001
0000
0000
0000
,
1000
0000
0000
0000
,
1000
0000
0000
0000
,
0100
0000
0000
0000
,
0010
0000
0000
0000
,
0110
0000
0000
0000
;
#NOTES:
     dance-single:
     :
     Easy:
     3:
     :
0000
0000
0000
0000
,
0000
0000
0000
0000
,
0000
0000
0000
0000
,
0000
0000
0000
0000
,
1000
0000
1000
0000
,
0010
0000
0010
0000
,
0100
0000
0100
0000
,
0001
1000
1001
0000
,
0001
0000
0010
0000
,
0100
0000
1000
0001
,
1000
0000
0010
0000
,
0100
0000
0001
1000
,
0001
0000
0010
0000
,
0100
0000
1000
0100
,
1000
0000
0010
0000
,
0100
0000
0001
1000
,
0001
0000
0010
0000
,
0100
0000
1000
1000
,
0010
0000
0100
0000
,
0001
0000
0010
0010
,
0100
0000
1000
0000
,
0001
0000
0100
0100
,
0010
0000
0010
0000
,
1000
0001
1000
0001
,
1000
0000
1000
0000
,
0100
0000
0010
0000
,
0001
0000
0001
0000
,
0010
0000
0100
0000
,
1000
0000
1000
0000
,
0001
0000
0100
0000
,
0010
0000
0010
0000
,
1000
0000
0100
0000
,
0010
0000
0010
0000
,
0001
0000
0010
0000
,
0100
0000
0100
0000
,
1000
0000
0001
0000
,
0100
0000
0100
0000
,
0010
0000
1000
0000
,
0001
0000
0001
0000
,
0010
0000
0100
0000
,
1000
0000
1000
0000
,
0001
0000
0001
0000
,
0100
0000
0010
0000
,
1000
0000
1000
0000
,
0100
0000
0100
0000
,
0010
0000
0010
0000
,
0001
0000
0010
0000
,
0100
0000
1000
0000
,
0001
0000
0001
0000
,
0100
0000
0100
0000
,
0010
0000
1000
0000
,
0001
0000
0001
0000
,
0010
0000
0010
0000
,
0100
0000
0100
0000
,
1000
0000
0001
0000
,
0100
0000
0010
0000
,
1000
0001
1000
0000
,
0100
0000
0010
0000
,
0001
1000
0001
0000
,
0100
0000
0010
0000
,
1000
0010
1000
0000
,
0001
0000
0100
0000
,
0001
0010
0001
0000
,
0010
0000
0100
0000
,
1000
0100
0010
0000
,
0001
0000
0010
0000
,
0001
0100
0010
0000
,
1000
0000
0001
0000
,
0100
0010
1000
0000
,
0100
0000
0010
0000
,
0001
0010
0100
0000
,
1000
0000
0001
0000
,
1001
0000
0000
0000
;
#NOTES:
     dance-single:
     :
     Medium:
     5:
     :
0000
0000
0000
0000
,
0000
0000
0000
0000
,
0000
0000
0000
0000
,
0000
0000
0000
0000
,
1000
0010
0100
0001
,
1000
0100
1000
0100
,
0010
0001
0010
0100
,
1000
0001
1000
0000
,
0010
0100
0010
0000
1000
0100
1000
0000
,
0001
0100
0001
0000
0010
0000
0100
0000
,
1000
0100
1000
0000
0001
0010
0001
0000
,
0100
0010
0100
0000
0010
0000
1000
0000
,
0001
0010
0001
0000
0010
0100
0010
0000
,
0100
1000
0100
0000
1000
0000
0001
0000
,
0100
0010
0100
0000
0010
1000
0010
0000
,
1000
0001
1001
0000
,
0001
0000
0010
0000
0100
1000
0100
0000
,
0010
0001
0100
0000
,
0010
0000
1000
0000
0001
0100
0001
0000
,
0010
0000
0100
0000
1000
0100
1000
0000
,
0001
0000
0100
0000
0010
1000
0010
0000
,
0100
0001
0010
0000
,
0100
0000
0010
0000
0001
0010
0001
0000
,
0010
0000
0100
0000
0010
0100
0010
0100
,
0010
0000
0000
0000
0001
0000
0000
1000
,
0000
1000
0000
0010
0100
0000
0001
1000
,
0001
0000
0000
0000
0010
0000
0000
0100
,
0000
0100
0000
1000
0010
0000
0100
0001
,
0010
0000
0000
0000
0100
0000
0000
1000
,
0000
1000
0000
0001
0010
0000
0100
0010
,
0100
0000
0000
0000
1000
0000
0000
0001
,
0000
0001
0000
0100
0010
0000
1000
0001
,
0010
0100
1000
0100
,
0010
0000
0001
0000
0100
0000
0010
1000
,
0010
0100
0001
0010
,
0100
0000
1000
0000
0100
0000
0010
0100
,
0010
0001
0010
0100
,
1000
0000
0001
0000
0100
0000
0010
1000
,
0010
0100
0001
1000
,
0100
0010
0110
0000
,
0001
0010
0100
1000
,
0001
0000
0100
0000
0010
0000
1000
0010
,
0100
0001
0010
0100
,
0010
0000
0001
0100
0001
0000
1000
0010
,
1000
0100
0010
0001
,
0010
0000
0100
0000
1000
0000
0001
1000
,
0001
0100
0010
1000
,
0001
0000
0100
0001
0100
0000
0010
1000
,
0010
0000
1000
0100
1000
0000
0100
0000
,
0010
0000
0001
0000
0010
0000
0100
1000
,
0100
0000
1000
0001
1000
0000
0010
0000
,
0100
0000
0001
0000
1000
0000
0100
1000
,
0100
0010
0100
1000
,
0001
0000
0100
0001
0100
0000
0010
1000
,
0010
0100
0001
0010
,
0100
1000
0100
0000
1000
0001
1000
0001
,
0100
0000
0010
1000
0010
0000
0100
0001
,
0100
0000
0001
0010
0001
0000
0010
0000
,
0100
0000
1000
0100
1000
0000
0001
0100
,
0001
0000
1000
0010
1000
0000
0010
0000
,
0100
0000
0001
0100
0001
0000
0010
0001
,
0010
0000
0100
0010
0100
0000
1000
0000
,
0001
0000
0100
0010
0100
0000
0010
1000
,
0010
0000
1000
0001
1000
0000
0100
0000
,
0010
0000
0100
0010
0100
0000
0010
0001
,
0010
0000
0001
0100
0001
0000
0100
0010
,
1000
0000
0010
0100
0010
0000
0100
0001
,
0010
0000
0100
1000
0100
0000
1000
0001
,
0100
0000
0010
1000
0001
0000
0010
0001
,
0100
0000
0010
1000
0100
0000
0010
0001
,
0010
0000
0001
0100
0001
0000
1000
0010
,
0100
0000
0001
0010
0100
0000
1000
0000
,
1001
0000
0000
0000
;
#NOTES:
     dance-single:
     :
     Hard:
     8:
     :
0000
0000
0000
0000
,
0000
0000
0000
0000
,
0000
0000
0000
0000
,
0000
0000
0000
0000
,
0001
0100
0010
1000
,
0001
0010
0100
1000
,
0100
0010
0001
1000
,
0010
0100
0010
0100
0001
0000
0000
0000
,
1000
0001
0100
0010
0000
0010
0100
0001
,
0000
1000
0100
0010
0001
0010
0100
0010
,
0000
0100
1000
0010
0000
0010
1000
0100
,
0000
0010
0001
0100
0010
1000
0001
0100
,
0000
0010
1000
0100
0000
0100
1000
0010
,
0000
0100
0001
0010
0100
1000
0010
1000
,
0000
0001
0100
1000
0000
1000
0100
0001
,
0000
0000
0010
0000
0100
0000
1000
0000
0001
0000
1000
0010
0000
0010
0100
0000
,
0001
1000
0100
0010
0000
0010
0100
1000
,
0000
0000
0001
0000
0100
0000
0010
0000
1000
0000
0001
0100
0000
0100
0001
0000
,
0010
0100
1000
0001
0000
0001
1000
0100
,
0000
0000
0010
0000
0001
0000
0100
0000
0010
0000
1000
0001
0000
0001
1000
0000
,
0010
0100
0001
0010
0000
0010
0001
0100
,
0000
0000
0010
0000
1000
0000
0001
0000
0010
0000
0100
1000
0000
1000
0001
0000
,
0100
0010
1000
0001
0100
0001
1000
0010
,
1000
0100
0010
0001
1000
0001
0010
0100
,
1000
0001
0000
0000
0001
0000
0000
0100
,
0000
0000
0100
0000
0000
0000
0100
0000
0010
0000
0000
0010
0000
0000
1000
0000
,
0001
0010
0000
0000
0010
0000
0000
0100
,
0000
0000
0100
0000
0000
0000
0100
0000
1000
0000
0000
1000
0000
0000
0010
0000
,
0100
0001
0000
0000
0001
0000
0000
0010
,
0000
0000
0010
0000
0000
0000
0010
0000
0100
0000
0000
0100
0000
0000
1000
0000
,
0001
0100
0000
0000
0100
0000
0000
0010
,
0000
0000
0010
0000
0000
0000
0010
0000
1000
0000
0000
0100
0000
0000
0010
0000
,
0001
0100
0010
0000
1000
0000
0001
0100
,
0010
0000
0100
0000
0001
0000
0100
0000
0010
0000
0000
1000
0100
0000
0010
0000
,
0001
0010
0100
0000
1000
0000
0100
0010
,
0001
0000
0010
0000
0100
0000
1000
0000
0010
0000
0000
0100
0001
0000
0100
0000
,
0010
1000
0001
0000
0010
0000
0100
1000
,
0010
0000
1000
0000
0001
0000
1000
0000
0010
0000
0000
0100
0001
0000
1000
0000
,
0010
0100
0001
0000
1000
0000
0001
0100
,
0010
0000
0100
0000
1000
0000
0100
0000
0010
0000
0000
1000
0001
0000
0010
0000
,
0100
1000
0100
0000
0010
0001
0010
0100
,
0000
0000
1000
0000
0010
0000
0100
0000
0001
0000
0000
0010
0000
0000
0100
0000
,
1000
0010
1000
0000
0010
0100
0001
1000
,
0000
0000
0100
0000
0010
0000
0001
0000
1000
0000
0000
0010
0000
0000
0100
0000
,
0001
1000
0001
0000
0100
0010
1000
0100
,
0000
0000
0010
0000
0100
0000
1000
0000
0001
0000
0000
0100
0000
0000
0001
0000
,
0010
0100
0010
0000
0100
1000
0001
0100
,
0000
0000
0010
0000
1000
0000
0001
0000
0010
0000
0100
1000
0000
1000
0001
0000
,
0100
0010
0000
1000
0010
0000
1000
0100
,
0000
0000
0010
0000
0001
0000
1000
0000
0100
0000
1000
0001
0000
1000
0001
0000
,
0100
0010
0000
1000
0001
0000
0100
0001
,
0010
0000
0100
0000
1000
0000
0100
0000
0010
0000
0001
0100
0000
0001
0100
0000
,
0010
1000
0000
0100
0010
0000
0100
1000
,
0010
0000
0100
0000
0001
0000
1000
0000
0100
0000
0010
0001
0000
1000
0001
0000
,
0100
0010
0000
1000
0001
0000
0010
0001
,
0100
0010
1000
0001
0010
0100
0010
0100
,
1000
0001
0100
0010
1000
0010
0100
0001
,
0010
0000
0100
0000
1000
0000
0100
0000
0010
0000
0100
1000
0000
1000
0001
0000
,
0100
0010
1000
0010
0100
0001
0010
0001
,
0100
0000
0010
0000
1000
0000
0100
0000
0010
0000
0100
1000
0000
0001
1000
0000
,
0010
0100
0001
0010
0100
0010
0001
1000
,
0010
0000
0100
0000
0001
0000
0010
0000
0100
0000
0010
0100
0000
0100
1000
0000
,
0010
0100
0001
1000
0010
0100
0001
0010
,
0100
0000
1000
0000
0100
0000
0010
0000
0100
0000
1000
0100
0000
0010
0001
0000
,
1000
0010
0100
0010
0001
0010
0100
0001
,
1000
0000
0001
0000
0010
0000
0100
0000
0010
0000
0001
0100
0000
0100
0010
0000
,
1000
0100
0010
0100
0001
0100
0010
0001
,
1000
0000
0010
0000
1000
0000
0001
0000
0010
0000
0100
1000
0000
0001
1000
0000
,
0010
0100
0001
0100
0010
0100
1000
0100
,
0010
0000
1000
0000
0001
0000
0010
0000
0100
0000
1000
0100
0000
0100
0010
0000
,
0001
0010
0100
0010
1000
0010
0001
1000
,
0010
0000
0100
0000
0001
0000
0010
0000
0100
0000
0010
0001
0000
1000
0010
0000
,
0100
0000
0000
0000
;
#NOTES:
     dance-single:
     :
     Challenge:
     9:
     :
0000
0000
0000
0000
,
0000
0000
0000
0000
,
0000
0000
0000
0000
,
0000
0000
0000
0000
,
1000
1010
0001
0011
,
1000
1100
0001
0101
,
0010
0110
1000
1001
,
0010
0100
1000
0001
0100
0000
0000
0000
,
1001
1000
0001
0100
0000
0010
1000
0100
,
0000
0010
0001
0010
0100
1000
0001
0100
,
0000
0010
1000
0001
0000
0010
0100
1000
,
0000
0100
0001
0100
0010
0001
0100
0010
,
0000
1000
0010
0100
0000
0001
0100
1000
,
0000
0100
0001
0010
0001
1000
0010
0100
,
0000
0010
0100
0001
0000
0010
0100
1000
,
0000
0000
0001
0000
0100
0000
0010
0000
0001
0000
0010
1000
0000
1000
0100
0010
,
0001
0100
0010
1000
0000
0010
0100
0001
,
0000
0000
0010
0000
0100
0000
1000
0000
0100
0000
0001
0100
0000
0010
0100
0000
,
1000
0001
0100
0010
0000
1000
0010
0100
,
0000
0000
0001
0000
0010
0000
0100
0000
1000
0000
0100
0001
0000
0100
1000
0000
,
0010
0100
0001
0010
0000
0001
0100
0010
,
0000
0000
1000
0000
0010
0000
0100
0000
0010
0000
0001
0010
0000
1000
0010
0000
,
0100
0001
1000
0001
0100
0010
1000
0010
,
0100
0000
0001
0000
0010
0000
0100
0000
1000
0100
1000
0100
1000
0100
1000
0100
,
0010
0000
0020
0000
0030
0000
0000
0000
0020
0000
0000
0030
0000
0000
0020
0000
,
0030
0000
0020
0000
0030
0000
0020
0000
0032
0000
0003
0002
0000
0000
0203
0000
,
0310
0000
0020
0000
0030
0000
0000
0000
0020
0000
0000
0030
0000
0000
0020
0000
,
0030
0000
0020
0000
0030
0000
0020
0000
2030
0000
3000
2000
0000
3000
0002
0000
,
0013
0000
0020
0000
0030
0000
0000
0000
0020
0000
0000
0030
0000
0000
0020
0000
,
0030
0000
0020
0000
0030
0000
0020
0000
0032
0000
0003
0002
0000
0000
0203
0000
,
0310
0000
0020
0000
0030
0000
0000
0000
0020
0000
0000
0030
0000
0000
0020
0000
,
0030
0000
0000
0000
0000
0000
0000
0000
0020
0000
0000
0000
0000
0000
0000
0000
0030
0000
0000
0000
0000
0000
0000
0000
0020
0000
0000
0000
0000
0000
0000
0000
2030
0000
0000
0000
0000
0000
0000
0000
3000
0000
0000
0000
0002
0000
0000
0000
0000
0000
0000
0000
0003
0000
0000
0000
0020
0000
0000
0000
0000
0000
0000
0030
,
0100
0000
0200
0000
1300
0000
0000
0000
1200
0000
0000
0300
0010
0000
0200
0000
,
1300
0000
0200
0000
0301
0000
0200
0000
2300
0000
3000
2000
0010
3000
2000
0000
,
3001
0000
0002
0000
0103
0000
0000
0000
1002
0000
0000
0003
0010
0000
0002
0000
,
0103
0000
0002
0000
0013
0000
0002
0000
0203
0000
0300
0200
1000
0300
0200
0000
,
0310
0000
0020
0000
1030
0000
0000
0000
0120
0000
0000
0030
0100
0000
0020
0000
,
1030
0000
0020
0000
0031
0000
0020
0000
2030
0000
3000
2000
0001
0000
3020
0000
,
0130
0000
0200
0000
1300
0000
0000
0000
1200
0000
0000
0300
0010
0000
0200
0000
,
0301
0000
0000
0000
0000
0000
0000
0000
0200
0000
0000
0000
0000
0000
0000
0000
0310
0000
0000
0000
0000
0000
0000
0000
0200
0000
0000
0000
0000
0000
0000
0000
2300
0000
0000
0000
0000
0000
0000
0000
3000
0000
0000
0000
0200
0000
0000
0000
0010
0000
0000
0000
0300
0000
0000
0000
0002
0000
0000
0000
0000
0000
0000
0003
,
2000
0000
3020
0000
0130
0000
0001
0000
0020
0000
0000
0030
0001
0000
0020
0000
,
0130
0000
0020
0000
1030
0000
0020
0000
0032
0000
0103
0002
0000
1003
0200
0000
,
2300
0000
3020
0000
1030
0000
0001
0000
0020
0000
0000
0030
1000
0000
0020
0000
,
0130
0000
0020
0000
0031
0000
0020
0000
0032
0000
0103
0002
0000
0103
0020
0000
,
2030
0000
3002
0000
0013
0000
0100
0000
2000
0000
0000
3000
0100
0000
2000
0000
,
3010
0000
2000
0000
3001
0000
2000
0000
3020
0000
0130
0002
0000
0013
0200
0000
,
0320
0000
0032
0000
1003
0000
0100
0000
0020
0000
0000
0030
0001
0000
2000
0000
,
3100
0000
0000
0000
0000
0000
0000
0000
2000
0000
0000
0000
0000
0000
0000
0000
3001
0000
0000
0000
0000
0000
0000
0000
2000
0000
0000
0000
0000
0000
0000
0000
3020
0000
0000
0000
0000
0000
0000
0000
0130
0000
0000
0000
0001
0000
0000
0000
0000
0000
0000
0000
0001
0000
0000
0000
0020
0000
0000
0000
0000
0000
0000
0030
,
0200
0000
2300
0000
3010
0000
1000
0000
0200
0000
0000
0300
1000
0000
0200
0000
,
0310
0000
0200
0000
0301
0000
0200
0000
2300
0000
3010
2000
0000
3001
0020
0000
,
0032
0000
0203
0000
0301
0000
1000
0000
0200
0000
0000
0300
0001
0000
0200
0000
,
0310
0000
0200
0000
1300
0000
0200
0000
2300
0000
3010
2000
0000
3010
0200
0000
,
0302
0000
2003
0000
3100
0000
0010
0000
0002
0000
0000
0003
0010
0000
0002
0000
,
0103
0000
0002
0000
1003
0000
0002
0000
0203
0000
0310
2000
0000
3100
0020
0000
,
0230
0000
2300
0000
3001
0000
0010
0000
0200
0000
0000
0300
1000
0000
0002
0000
,
0013
0000
0002
0000
1003
0000
0002
0000
0103
0010
0100
0002
0100
0013
2000
0010
,
3200
0000
0302
0000
0013
0000
0100
0000
2000
0000
0100
3000
0010
0000
0200
0000
,
0301
0000
0200
0000
0310
0000
0200
0000
2300
0000
3010
2000
0000
3001
0020
0000
,
0032
0000
0203
0000
0301
0000
1000
0000
0200
0000
0010
0300
0001
0000
0200
0000
,
0310
0000
0200
0000
1300
0000
0200
0000
0320
0000
1030
0020
0000
0130
0002
0000
,
0023
0000
0230
0000
1300
0000
0001
0000
0200
0000
0010
0300
1000
0000
0002
0000
,
0103
0000
0002
0000
1003
0000
0002
0000
0023
0000
0130
2000
0000
3100
0020
0000
,
0032
0000
2003
0000
3001
0000
0010
0000
0200
0000
1000
0300
0001
0000
0020
0000
,
0130
0000
0020
0000
1030
0000
0020
0000
0230
0000
0310
0001
0000
0001
0200
0000
,
0320
0000
2030
0000
3100
0000
0010
0000
0002
0000
0010
0003
0100
0000
0020
0000
,
1030
0000
0020
0000
0130
0000
0020
0000
0032
0000
0103
0002
0000
1003
0200
0000
,
2300
0000
3020
0000
1030
0000
0001
0000
0020
0000
0100
0030
1000
0000
0020
0000
,
0130
0000
0020
0000
0031
0000
0020
0000
0230
0000
0301
0200
0000
0310
2000
0000
,
3200
0000
0320
0000
0031
0000
1000
0000
0020
0000
0100
0030
0001
0000
2000
0000
,
3010
0000
2000
0000
3001
0000
2000
0000
3200
0000
0310
0002
0000
0013
0200
0000
,
2300
0000
3002
0000
1003
0000
0100
0000
0020
0000
0001
0030
1000
0000
0200
0000
,
0310
0000
0200
0000
0301
0000
0200
0000
0320
0000
0130
2000
0000
3001
0200
0000
,
0310
0000
0000
0000
;
#NOTES:
     dance-double:
     :
     Beginner:
     1:
     :
00000000
00000000
00000000
00000000
,
00000000
00000000
00000000
00000000
,
00000000
00000000
00000000
00000000
,
00000000
00000000
00000000
00000000
,
10000000
00000000
00000000
00000000
,
00010000
00000000
00000000
00000000
,
10000000
00000000
00000000
00000000
,
00010000
00000000
00000000
00000000
,
00100000
00000000
00000000
00000000
,
00100000
00000000
00000000
00000000
,
00001000
00000000
00000000
00000000
,
00010000
00000000
00000000
00000000
,
00001000
00000000
00000000
00000000
,
00001000
00000000
00000000
00000000
,
00010000
00000000
00000000
00000000
,
00000010
00000000
00000000
00000000
,
00001000
00000000
00000000
00000000
,
00000001
00000000
00000000
00000000
,
00001000
00000000
00000000
00000000
,
00000100
00000000
00000000
00000000
,
00010000
00000000
00000000
00000000
,
00001000
00000000
00000000
00000000
,
01000000
00000000
00000000
00000000
,
00100000
00000000
00000000
00000000
,
10000000
00000000
00000000
00000000
,
00000000
00000000
00000000
00000000
,
01000000
00000000
00000000
00000000
,
00000000
00000000
00000000
00000000
,
00010000
00000000
00000000
00000000
,
00000000
00000000
00000000
00000000
,
00001000
00000000
00000000
00000000
,
00000000
00000000
00000000
00000000
,
00000100
00000000
00000000
00000000
,
00000000
00000000
00000000
00000000
,
00000001
00000000
00000000
00000000
,
00000010
00000000
00000000
00000000
,
00000100
00000000
00000000
00000000
,
00010000
00000000
00000000
00000000
,
00001000
00000000
00000000
00000000
,
01000000
00000000
00000000
00000000
,
00100000
00000000
00000000
00000000
,
10000000
00000000
00000000
00000000
,
00010000
00000000
00000000
00000000
,
00100000
00000000
00000000
00000000
,
00001000
00000000
00000000
00000000
,
00010000
00000000
00000000
00000000
,
00000010
00000000
00000000
00000000
,
00001000
00000000
00000000
00000000
,
00000001
00000000
00000000
00000000
,
00000010
00000000
00000000
00000000
,
00000100
00000000
00000000
00000000
,
00010000
00000000
00000000
00000000
,
00001000
00000000
00000000
00000000
,
01000000
00000000
00000000
00000000
,
00100000
00000000
00000000
00000000
,
10000000
00000000
00000000
00000000
,
01000000
00000000
00000000
00000000
,
01000000
00000000
00000000
00000000
,
00100000
00000000
00000000
00000000
,
00100000
00000000
00000000
00000000
,
00001000
00000000
00000000
00000000
,
00001000
00000000
00000000
00000000
,
00010000
00000000
00000000
00000000
,
00010000
00000000
00000000
00000000
,
00000100
00000000
00000000
00000000
,
00000100
00000000
00000000
00000000
,
00001000
00000000
00000000
00000000
,
00001000
00000000
00000000
00000000
,
00000001
00000000
00000000
00000000
,
00000001
00000000
00000000
00000000
,
00001000
00000000
00000000
00000000
,
00001000
00000000
00000000
00000000
,
00001001
00000000
00000000
00000000
;
#NOTES:
     dance-double:
     :
     Easy:
     3:
     :
00000000
00000000
00000000
00000000
,
00000000
00000000
00000000
00000000
,
00000000
00000000
00000000
00000000
,
00000000
00000000
00000000
00000000
,
00000001
00000000
00000001
00000000
,
00000010
00000000
00000010
00000000
,
00000100
00000000
00000100
00000000
,
00010000
00001000
00011000
00000000
,
00001000
00000000
00100000
00000000
,
00010000
00000000
01000000
00010000
,
01000000
00000000
00100000
00000000
,
10000000
00000000
00010000
10000000
,
00010000
00000000
00100000
00000000
,
01000000
00000000
00010000
00001000
,
00010000
00000000
00001000
00000000
,
00010000
00000000
00000100
00001000
,
00000010
00000000
00000100
00000000
,
00000001
00000000
00001000
00000010
,
00010000
00000000
00001000
00000000
,
00100000
00000000
00010000
01000000
,
00100000
00000000
10000000
00000000
,
01000000
00000000
00010000
00001000
,
00010000
00000000
00000100
00000000
,
00001000
00000001
00001000
00000010
,
00000100
00000000
00000001
00000000
,
00000010
00000000
00000100
00000000
,
00010000
00000000
00010000
00000000
,
00001000
00000000
01000000
00000000
,
00100000
00000000
00100000
00000000
,
10000000
00000000
01000000
00000000
,
00010000
00000000
00010000
00000000
,
00001000
00000000
00000010
00000000
,
00000001
00000000
00000001
00000000
,
00000100
00000000
00000010
00000000
,
00010000
00000000
00010000
00000000
,
00001000
00000000
00100000
00000000
,
01000000
00000000
01000000
00000000
,
10000000
00000000
00100000
00000000
,
01000000
00000000
01000000
00000000
,
00001000
00000000
00010000
00000000
,
00011000
00000000
00010000
00000000
,
00001000
00000000
00001000
00000000
,
00000100
00000000
00000100
00000000
,
00000001
00000000
00000001
00000000
,
00000010
00000000
00000100
00000000
,
00010000
00000000
00010000
00000000
,
00001000
00000000
00100000
00000000
,
00010000
00000000
00010000
00000000
,
01000000
00000000
00100000
00000000
,
10000000
00000000
10000000
00000000
,
01000000
00000000
00100000
00000000
,
00010000
00000000
00010000
00000000
,
00100000
00000000
00001000
00000000
,
00010000
00000000
00010000
00000000
,
00000010
00000000
00001000
00000000
,
00000001
00000000
00000001
00000000
,
00001000
00000001
00001000
00000000
,
00000100
00000000
00010000
00000000
,
00001000
00100000
00001000
00000000
,
00100000
00000000
00010000
00000000
,
10000000
01000000
10000000
00000000
,
00010000
00000000
01000000
00000000
,
00001000
00010000
00001000
00000000
,
00010000
00000000
00000100
00000000
,
00000010
00000100
00000010
00000000
,
00000001
00000000
00000100
00000000
,
00001000
00010000
00001000
00000000
,
00010000
00000000
00100000
00000000
,
10000000
00010000
10000000
00000000
,
01000000
00000000
00010000
00000000
,
00001000
00010000
00001000
00000000
,
00000100
00000000
00000001
00000000
,
00001001
00000000
00000000
00000000
;
#NOTES:
     dance-double:
     :
     Medium:
     5:
     :
00000000
00000000
00000000
00000000
,
00000000
00000000
00000000
00000000
,
00000000
00000000
00000000
00000000
,
00000000
00000000
00000000
00000000
,
10000000
01000000
00100000
00010000
,
01000000
00001000
00010000
00000100
,
00000010
00001000
00000010
00000001
,
00000100
00000010
00001000
00000000
,
00000010
00001000
00000010
00000000
00010000
00001000
00010000
00000000
,
00001000
01000000
00001000
00000000
00100000
00000000
00010000
00000000
,
10000000
01000000
10000000
00000000
01000000
00100000
01000000
00000000
,
00100000
00010000
00100000
00000000
00001000
00000000
00010000
00000000
,
00001000
00010000
00001000
00000000
00010000
00000100
00010000
00000000
,
00000100
00001000
00000100
00000000
00000010
00000000
00000001
00000000
,
00000100
00000010
00000100
00000000
00000010
00010000
00000010
00000000
,
00010000
00001000
00011000
00000000
,
00010000
00000000
00100000
00000000
10000000
00100000
10000000
00000000
,
00100000
01000000
00010000
00000000
,
00100000
00000000
00001000
00000000
00010000
00001000
00010000
00000000
,
00001000
00000000
00000100
00000000
00000010
00001000
00000010
00000000
,
00000100
00000000
00000001
00000000
00000010
00000100
00000010
00000000
,
00000100
00010000
00001000
00000000
,
01000000
00000000
00100000
00000000
00010000
00100000
00010000
00000000
,
00100000
00000000
10000000
00000000
00010000
01000000
00010000
01000000
,
00001000
00000000
00000000
00000000
00010000
00000000
00000000
00000100
,
00000000
00000100
00000000
00000010
00000100
00000000
00001000
00000001
,
00001000
00000000
00000000
00000000
00000010
00000000
00000000
00000100
,
00000000
00000100
00000000
00000001
00001000
00000000
00000100
00010000
,
00001000
00000000
00000000
00000000
01000000
00000000
00000000
00010000
,
00000000
00010000
00000000
01000000
00100000
00000000
10000000
00010000
,
10000000
00000000
00000000
00000000
01000000
00000000
00000000
00100000
,
00000000
00100000
00000000
00001000
00010000
00000000
00000100
00001000
,
00000100
00000010
00001000
00000010
,
00000001
00000000
00000100
00000000
00000010
00000000
00010000
00001000
,
00010000
00100000
10000000
00010000
,
01000000
00000000
10000000
00000000
01000000
00000000
00001000
00010000
,
00001000
00010000
00000100
00000010
,
00000001
00000000
00000100
00000000
00000010
00000000
00010000
00001000
,
00010000
00001000
00100000
01000000
,
10000000
00010000
10010000
00000000
,
10000000
01000000
00010000
00001000
,
00000100
00000000
00000001
00000000
00000010
00000000
00000100
00010000
,
00001000
00100000
00010000
01000000
,
00100000
00000000
10000000
00010000
01000000
00000000
00100000
01000000
,
00010000
00100000
00001000
00010000
,
00000100
00000000
00000010
00000000
00000001
00000000
00000100
00001000
,
00000100
00001000
00010000
00100000
,
01000000
00000000
00010000
10000000
00010000
00000000
10000000
01000000
,
10000000
00000000
00010000
00100000
00010000
00000000
00100000
00000000
,
00001000
00000000
00010000
00000000
00000010
00000000
00001000
00000001
,
00001000
00000000
00000010
00000100
00000001
00000000
00001000
00000000
,
00000100
00000000
00010000
00000000
00001000
00000000
00100000
00010000
,
10000000
00010000
01000000
00100000
,
00010000
00000000
00001000
00010000
00001000
00000000
00010000
00000100
,
00001000
00000100
00000010
00000001
,
00000100
00001000
00000100
00000000
00001000
00010000
00001000
00010000
,
00001000
00000000
00100000
00010000
00100000
00000000
00010000
01000000
,
00010000
00000000
01000000
00100000
01000000
00000000
00100000
00000000
,
10000000
00000000
01000000
00100000
01000000
00000000
00100000
00010000
,
00100000
00000000
00001000
00010000
00001000
00000000
00010000
00000000
,
00000100
00000000
00000010
00000100
00000010
00000000
00000001
00001000
,
00000001
00000000
00000100
00001000
00000100
00000000
00001000
00000000
,
00010000
00000000
00100000
01000000
00100000
00000000
10000000
00100000
,
10000000
00000000
00010000
01000000
00010000
00000000
00100000
00000000
,
00001000
00000000
00010000
00000010
00010000
00000000
00000100
00001000
,
00000100
00000000
00000010
00000001
00000010
00000000
00000100
00010000
,
00001000
00000000
01000000
00010000
01000000
00000000
00100000
10000000
,
01000000
00000000
00100000
00010000
01000000
00000000
00001000
00010000
,
00001000
00000000
00010000
00000010
00001000
00000000
00000001
00001000
,
00000100
00000000
00010000
00001000
00100000
00000000
00010000
01000000
,
10000000
00000000
01000000
00100000
01000000
00000000
00010000
00100000
,
00001000
00000000
00010000
00000100
00001000
00000000
00000001
00000000
,
00001001
00000000
00000000
00000000
;
#NOTES:
     dance-double:
     :
     Hard:
     8:
     :
00000000
00000000
00000000
00000000
,
00000000
00000000
00000000
00000000
,
00000000
00000000
00000000
00000000
,
00000000
00000000
00000000
00000000
,
00000001
00000100
00001000
00010000
,
00100000
10000000
01000000
00010000
,
00001000
00000100
00000001
00001000
,
00000100
00010000
00001000
00010000
00000100
00000000
00000000
00000000
,
00000010
00000001
00000100
00000010
00000000
00000010
00000100
00000001
,
00000000
00001000
00000100
00010000
00001000
00100000
00010000
01000000
,
00000000
00100000
10000000
00010000
00000000
00010000
10000000
00100000
,
00000000
01000000
00100000
00010000
00001000
00010000
00001000
00000010
,
00000000
00000001
00001000
00000100
00000000
00000100
00001000
00000001
,
00000000
00000100
00001000
00010000
00001000
00010000
01000000
10000000
,
00000000
00010000
01000000
10000000
00000000
10000000
01000000
00010000
,
00000000
00000000
00100000
00000000
00001000
00000000
00010000
00000000
00001000
00000000
00010000
00000100
00000000
00000100
00000010
00000000
,
00000001
00000010
00000100
00010000
00000000
00010000
00000100
00000010
,
00000000
00000000
00000001
00000000
00000100
00000000
00001000
00000000
00010000
00000000
00001000
00100000
00000000
00100000
00010000
00000000
,
01000000
00100000
10000000
00010000
00000000
00010000
10000000
00100000
,
00000000
00000000
01000000
00000000
00001000
00000000
00010000
00000000
00000100
00000000
00000010
00000100
00000000
00000100
00001000
00000000
,
00000001
00000100
00001000
00010000
00000000
00010000
00001000
00000100
,
00000000
00000000
00000010
00000000
00010000
00000000
00001000
00000000
00100000
00000000
00010000
10000000
00000000
10000000
01000000
00000000
,
00010000
01000000
00100000
00001000
00010000
00000100
00001000
00000010
,
00000100
00000001
00000010
00000100
00010000
00001000
01000000
00010000
,
10000000
00100000
00000000
00000000
01000000
00000000
00000000
00001000
,
00000000
00000000
00001000
00000000
00000000
00000000
00001000
00000000
00010000
00000000
00000000
00000100
00000000
00000000
00001000
00000000
,
00000100
00000010
00000000
00000000
00000001
00000000
00000000
00000100
,
00000000
00000000
00000100
00000000
00000000
00000000
00000100
00000000
00001000
00000000
00000000
00001000
00000000
00000000
00010000
00000000
,
00001000
00100000
00000000
00000000
00010000
00000000
00000000
01000000
,
00000000
00000000
01000000
00000000
00000000
00000000
01000000
00000000
00100000
00000000
00000000
10000000
00000000
00000000
01000000
00000000
,
00100000
00010000
00000000
00000000
00100000
00000000
00000000
00001000
,
00000000
00000000
00001000
00000000
00000000
00000000
00001000
00000000
00010000
00000000
00000000
00000010
00000000
00000000
00001000
00000000
,
00000100
00000010
00000001
00000000
00001000
00000000
00000010
00010000
,
00001000
00000000
00010000
00000000
00000100
00000000
00010000
00000000
00001000
00000000
00000000
00100000
00010000
00000000
01000000
00000000
,
00100000
10000000
00010000
00000000
00100000
00000000
01000000
10000000
,
00010000
00000000
10000000
00000000
00100000
00000000
10000000
00000000
00010000
00000000
00000000
00010000
00100000
00000000
00001000
00000000
,
00010000
00000100
00000010
00000000
00000100
00000000
00001000
00000001
,
00000100
00000000
00000001
00000000
00000010
00000000
00000100
00000000
00001000
00000000
00000000
00000100
00010000
00000000
00001000
00000000
,
01000000
00010000
00100000
00000000
01000000
00000000
10000000
01000000
,
00100000
00000000
01000000
00000000
00010000
00000000
01000000
00000000
00100000
00000000
00000000
00100000
00001000
00000000
00010000
00000000
,
00001000
00010000
00000100
00000000
00001000
00000010
00000100
00000001
,
00000000
00000000
00001000
00000000
00000100
00000000
00010000
00000000
00001000
00000000
00000000
00100000
00000000
00000000
00010000
00000000
,
01000000
10000000
01000000
00000000
00100000
10000000
01000000
00010000
,
00000000
00000000
00001000
00000000
00000100
00000000
00000010
00000000
00001000
00000000
00000000
00000001
00000000
00000000
00000010
00000000
,
00000100
00010000
00001000
00000000
00100000
01000000
10000000
01000000
,
00000000
00000000
00010000
00000000
00001000
00000000
00010000
00000000
00000010
00000000
00000000
00000100
00000000
00000000
00001000
00000000
,
00000100
00000001
00000010
00000000
00000100
00001000
00000010
00000100
,
00000000
00000000
00001000
00000000
00010000
00000000
00100000
00000000
10000000
00000000
00010000
10000000
00000000
10000000
00010000
00000000
,
00100000
01000000
00000000
00010000
00001000
00000000
00010000
00000010
,
00000000
00000000
00001000
00000000
00000001
00000000
00000010
00000000
00000100
00000000
00010000
00000100
00000000
00010000
00001000
00000000
,
01000000
00010000
00000000
00100000
00010000
00000000
10000000
01000000
,
00010000
00000000
01000000
00000000
00010000
00000000
00001000
00000000
00010000
00000000
00000100
00001000
00000000
00000001
00001000
00000000
,
00000010
00000100
00000000
00000001
00001000
00000000
00000100
00010000
,
00001000
00000000
00100000
00000000
00010000
00000000
00100000
00000000
01000000
00000000
10000000
01000000
00000000
10000000
00010000
00000000
,
01000000
00100000
00000000
00010000
00001000
00000000
00010000
00000100
,
00000010
00001000
00000010
00000001
00000100
00000010
00000100
00000010
,
00010000
00001000
00100000
00001000
00010000
00001000
01000000
00010000
,
00100000
00000000
01000000
00000000
10000000
00000000
00010000
00000000
00100000
00000000
00010000
01000000
00000000
01000000
00001000
00000000
,
00010000
00000100
00001000
00000100
00000010
00000100
00000001
00000100
,
00010000
00000000
00001000
00000000
00100000
00000000
00010000
00000000
01000000
00000000
00100000
10000000
00000000
00010000
10000000
00000000
,
01000000
00100000
10000000
00100000
01000000
00100000
00001000
00010000
,
00000100
00000000
00001000
00000000
00000010
00000000
00000100
00000000
00000001
00000000
00001000
00000100
00000000
00000100
00000010
00000000
,
00001000
00010000
01000000
00100000
00010000
00100000
01000000
10000000
,
00100000
00000000
01000000
00000000
00010000
00000000
00100000
00000000
00001000
00000000
00010000
00001000
00000000
00010000
00000010
00000000
,
00001000
00000100
00010000
00000010
00001000
00000100
00000010
00000001
,
00000100
00000000
00001000
00000000
00010000
00000000
00100000
00000000
10000000
00000000
00100000
10000000
00000000
10000000
00010000
00000000
,
01000000
00010000
00100000
00001000
01000000
00010000
00100000
00001000
,
00010000
00000000
00000100
00000000
00001000
00000000
00000010
00000000
00000100
00000000
00000001
00000010
00000000
00000100
00001000
00000000
,
00000010
00001000
00000100
00010000
00000010
00001000
00000100
00010000
,
00001000
00000000
00100000
00000000
00010000
00000000
01000000
00000000
10000000
00000000
01000000
00010000
00000000
00010000
00100000
00000000
,
00001000
00010000
00000100
00001000
00000010
00000100
00001000
00010000
,
00000100
00000000
00001000
00000000
00000010
00000000
00000100
00000000
00000001
00000000
00000010
00000001
00000000
00001000
00000100
00000000
,
00010000
00000000
00000000
00000000
;
#NOTES:
     dance-double:
     :
     Challenge:
     9:
     :
00000000
00000000
00000000
00000000
,
00000000
00000000
00000000
00000000
,
00000000
00000000
00000000
00000000
,
00000000
00000000
00000000
00000000
,
10000000
11000000
01000000
01100000
,
00100000
00101000
00001000
00011000
,
00010000
00010010
00000010
00000110
,
00000100
00000001
00001000
00000100
00000010
00000000
00000000
00000000
,
00000011
00000001
00000100
00000010
00000000
00001000
00000100
00010000
,
00000000
00001000
00100000
01000000
00010000
01000000
10000000
00100000
,
00000000
01000000
00001000
00010000
00000000
00001000
00010000
00000100
,
00000000
00000010
00001000
00000010
00000001
00000100
00001000
00010000
,
00000000
00100000
10000000
00010000
00000000
00100000
00010000
10000000
,
00000000
01000000
00100000
10000000
00100000
00001000
00010000
00001000
,
00000000
00010000
00000010
00001000
00000000
00000010
00001000
00000001
,
00000000
00000000
00000010
00000000
00000100
00000000
00010000
00000000
00001000
00000000
00100000
00010000
00000000
00010000
01000000
00100000
,
10000000
00010000
00100000
01000000
00000000
10000000
00100000
01000000
,
00000000
00000000
00001000
00000000
00010000
00000000
00000100
00000000
00001000
00000000
00000100
00000010
00000000
00000100
00001000
00000000
,
00000001
00000100
00001000
00010000
00000000
00100000
01000000
00010000
,
00000000
00000000
10000000
00000000
01000000
00000000
00100000
00000000
10000000
00000000
00100000
00010000
00000000
00100000
00001000
00000000
,
00010000
00000010
00000100
00001000
00000000
00001000
00000100
00000001
,
00000000
00000000
00000010
00000000
00000100
00000000
00010000
00000000
00001000
00000000
00100000
00010000
00000000
01000000
00010000
00000000
,
00100000
00010000
01000000
00001000
00100000
00010000
01000000
00001000
,
00010000
00000000
00000100
00000000
00001000
00000000
00000010
00000000
00001000
00000001
00001000
00000001
00001000
00000001
00001000
00000001
,
00000100
00000000
00000200
00000000
00000300
00000000
00000000
00000000
00000200
00000000
00000000
00000300
00000000
00000000
00000200
00000000
,
00000300
00000000
00000200
00000000
00000300
00000000
00000200
00000000
00000320
00000000
00000030
00000020
00000000
00000030
00020000
00000000
,
00031000
00000000
00002000
00000000
00003000
00000000
00000000
00000000
00002000
00000000
00000000
00003000
00000000
00000000
00002000
00000000
,
00003000
00000000
00002000
00000000
00003000
00000000
00002000
00000000
00203000
00000000
00300000
00200000
00000000
00300000
00020000
00000000
,
01030000
00000000
02000000
00000000
03000000
00000000
00000000
00000000
02000000
00000000
00000000
03000000
00000000
00000000
02000000
00000000
,
03000000
00000000
02000000
00000000
03000000
00000000
02000000
00000000
03200000
00000000
00300000
00200000
00000000
00300000
20000000
00000000
,
31000000
00000000
02000000
00000000
03000000
00000000
00000000
00000000
02000000
00000000
00000000
03000000
00000000
00000000
02000000
00000000
,
03000000
00000000
00000000
00000000
00000000
00000000
00000000
00000000
02000000
00000000
00000000
00000000
00000000
00000000
00000000
00000000
03000000
00000000
00000000
00000000
00000000
00000000
00000000
00000000
00020000
00000000
00000000
00000000
00000000
00000000
00000000
00000000
00032000
00000000
00000000
00000000
00000000
00000000
00000000
00000000
00003000
00000000
00000000
00000000
00000020
00000000
00000000
00000000
00000000
00000000
00000000
00000000
00000030
00000000
00000000
00000000
00000002
00000000
00000000
00000000
00000000
00000000
00000000
00000003
,
00000100
00000000
00000200
00000000
00000310
00000000
00000000
00000000
00000201
00000000
00000000
00000300
00000010
00000000
00000200
00000000
,
00001300
00000000
00000200
00000000
00000310
00000000
00000200
00000000
00000320
00000000
00000030
00000020
00001000
00000030
00000200
00000000
,
00010300
00000000
00020000
00000000
00030100
00000000
00000000
00000000
00021000
00000000
00000000
00030000
00000100
00000000
00020000
00000000
,
00031000
00000000
00020000
00000000
00030100
00000000
00020000
00000000
00032000
00000000
00003000
00002000
00100000
00003000
00020000
00000000
,
01030000
00000000
02000000
00000000
03100000
00000000
00000000
00000000
02010000
00000000
00000000
03000000
00100000
00000000
02000000
00000000
,
13000000
00000000
02000000
00000000
03010000
00000000
02000000
00000000
03200000
00000000
00300000
00200000
10000000
00300000
00020000
00000000
,
00130000
00000000
00200000
00000000
00310000
00000000
00000000
00000000
00210000
00000000
00000000
00300000
00001000
00000000
00200000
00000000
,
00310000
00000000
00200000
00000000
00301000
00000000
00020000
00000000
00030200
00000000
00000300
00002000
00000010
00003000
00000200
00000000
,
00000302
00000000
00002003
00000000
00003100
00000000
00010000
00000000
00002000
00000000
00000000
00003000
00100000
00000000
00002000
00000000
,
00013000
00000000
00002000
00000000
01003000
00000000
00002000
00000000
00203000
00000000
00310000
20000000
00000000
30010000
02000000
00000000
,
03020000
00000000
02030000
00000000
03100000
00000000
10000000
00000000
02000000
00000000
00000000
03000000
10000000
00000000
02000000
00000000
,
03100000
00000000
02000000
00000000
03010000
00000000
02000000
00000000
03020000
00000000
00031000
00020000
00000000
00030100
00002000
00000000
,
00003020
00000000
00000230
00000000
00000301
00000000
00001000
00000000
00000002
00000000
00000000
00000003
00000010
00000000
00000200
00000000
,
00001300
00000000
00000200
00000000
00010300
00000000
00000200
00000000
00020300
00000000
00031000
02000000
00000000
03010000
02000000
00000000
,
03200000
00000000
20300000
00000000
30010000
00000000
01000000
00000000
00200000
00000000
00000000
00300000
00010000
00000000
00200000
00000000
,
01300000
00000000
00200000
00000000
10300000
00000000
00200000
00000000
00320000
00000000
00031000
00010000
00000000
00010000
00002000
00000000
,
00003200
00000000
00000320
00000000
00001030
00000000
00000001
00000000
00000020
00000000
00000000
00000030
00000100
00000000
00000020
00000000
,
00000031
00000000
00000020
00000000
00000130
00000000
00000020
00000000
00002030
00000000
00013000
00002000
00000000
00103000
00020000
00000000
,
02030000
00000000
03200000
00000000
10300000
00000000
00010000
00000000
02000000
00000000
00000000
03000000
00010000
00000000
02000000
00000000
,
03100000
00000000
02000000
00000000
13000000
00000000
02000000
00000000
03020000
00000000
00130000
00002000
00000000
00103000
00002000
00000000
,
00023000
00000000
00030020
00000000
00000130
00000000
00000001
00000000
00000200
00000000
00000000
00000300
00001000
00000000
00020000
00000000
,
00030100
00000000
00020000
00000000
00031000
00000000
00020000
00000000
00230000
00000000
10300000
00020000
00000000
10030000
02000000
00000000
,
03200000
00000000
00302000
00000000
00013000
00000000
00000100
00000000
00002000
00000000
00000000
00003000
00000010
00000000
00002000
00000000
,
00003100
00000000
00002000
00000000
00003001
00000000
00002000
00000000
00003010
00000100
00000010
00002000
00000010
00003100
00000002
00000100
,
00000023
00000000
00002030
00000000
00003100
00000000
00000010
00000000
00002000
00000000
00010000
00003000
01000000
00000000
00200000
00000000
,
00310000
00000000
00200000
00000000
01300000
00000000
00200000
00000000
20300000
00000000
30100000
20000000
00000000
30100000
02000000
00000000
,
03020000
00000000
02030000
00000000
03100000
00000000
00001000
00000000
00020000
00000000
00001000
00030000
00100000
00000000
00002000
00000000
,
00013000
00000000
00002000
00000000
01003000
00000000
00002000
00000000
00023000
00000000
00030100
00002000
00000000
00003100
00000020
00000000
,
00000032
00000000
00000203
00000000
00000310
00000000
00000100
00000000
00002000
00000000
00010000
00003000
00100000
00000000
02000000
00000000
,
03100000
00000000
02000000
00000000
13000000
00000000
02000000
00000000
03020000
00000000
00130000
00002000
00000000
00013000
00002000
00000000
,
00023000
00000000
00030200
00000000
00000310
00000000
00000001
00000000
00000200
00000000
00000010
00000300
00001000
00000000
00000200
00000000
,
00000310
00000000
00000200
00000000
00000301
00000000
00000200
00000000
00020300
00000000
00031000
00200000
00000000
00310000
02000000
00000000
,
03020000
00000000
20030000
00000000
30100000
00000000
01000000
00000000
00200000
00000000
10000000
00300000
00010000
00000000
00200000
00000000
,
01300000
00000000
00200000
00000000
10300000
00000000
00200000
00000000
00320000
00000000
01030000
00002000
00000000
00013000
00002000
00000000
,
00023000
00000000
00030200
00000000
00001300
00000000
00000010
00000000
00000200
00000000
00000001
00000300
00001000
00000000
00000200
00000000
,
00000310
00000000
00000200
00000000
00000301
00000000
00000200
00000000
00002300
00000000
00003100
00020000
00000000
00031000
00200000
00000000
,
00320000
00000000
02030000
00000000
13000000
00000000
01000000
00000000
00200000
00000000
10000000
00300000
00010000
00000000
00200000
00000000
,
01300000
00000000
00200000
00000000
10300000
00000000
00200000
00000000
00320000
00000000
01030000
00200000
00000000
00310000
00002000
00000000
,
00003200
00000320
00001030
00000001
00000020
00000130
00000001
00000200
,
00000310
00000000
00000200
00000000
00001300
00000000
00000200
00000000
00020300
00000000
00031000
00200000
00000000
00310000
20000000
00000000
,
30010000
00000000
00000000
00000000
;
