#TITLE:I'm Coming Out;
#ARTIST:Wavegroup;
#BANNER:I'm Coming Out.png;
#BACKGROUND:I'm Coming Out-bg.png;
#LYRICSPATH:I'm Coming Out.lrc;
#CDTITLE:./CDTITLES/DanceDanceRevolution UNIVERSE3.png;
#MUSIC:I'm Coming Out.ogg;
#SAMPLESTART:10.824;
#SAMPLELENGTH:15;
#DISPLAYBPM:111;
#BPMS:0=110.88,16=110.77,24=109.42,36=108.27,52=109.09,68=109.17,84=109.92,100=108.76,116=108.84,132=109.59,148=109.01,164=111.8,196=111.11;

//---------------dance-single - ----------------
#NOTES:
     dance-single:
     :
     Beginner:
     1:
     :
0000
0000
0000
0000
,
0000
0000
0000
0000
,
0000
0000
0000
0000
,
0000
0000
0000
0000
,
0000
0000
0000
0000
,
0010
0000
0000
0000
,
0100
0000
0000
0000
,
0001
0000
0000
0000
,
0100
0000
0000
0000
,
0010
0000
0000
0000
,
1000
0000
0000
0000
,
0001
0000
0000
0000
,
1000
0000
0000
0000
,
0001
0000
0001
0000
,
1000
0000
0000
0000
,
1000
0000
1000
0000
,
0100
0000
0000
0000
,
0100
0000
0100
0000
,
0010
0000
0000
0000
,
0010
0000
0010
0000
,
0001
0000
0000
0000
,
1000
1000
1000
0000
,
0001
0000
0000
0000
,
0001
0001
0001
0000
,
0100
0000
0010
0000
,
0100
0000
0000
0000
,
0001
0000
0000
0000
,
1000
0000
0000
0000
,
0100
0000
0000
0000
,
0010
0000
0000
0000
,
0001
0000
0000
0000
,
0100
0000
0000
0000
,
0010
0000
0000
0000
,
2000
0000
0000
3000
,
1000
0000
0000
0000
,
0002
0000
0000
0003
,
0001
0000
0000
0000
,
0100
0000
0100
0000
,
0100
0000
0000
0000
,
0010
0000
0010
0000
,
0010
0000
0000
0000
,
1000
0000
0000
0000
,
0001
0000
0000
0000
,
1000
0000
0000
0000
,
1001
0000
0000
0000
,
1000
0000
1000
0000
,
0100
0000
0000
0000
,
0010
0000
0010
0000
,
0001
0000
0000
0000
,
1001
0000
0000
0000
;

//---------------dance-single - ----------------
#NOTES:
     dance-single:
     :
     Easy:
     3:
     :
0000
0000
0000
0000
,
0000
0000
0000
0000
,
0000
0000
0000
0000
,
0000
0000
0000
0000
,
0000
0000
0000
0000
,
1000
0000
0100
0000
,
0020
0000
0000
0030
,
0002
0000
0000
0003
,
2000
0000
0000
3000
,
0001
0000
0100
0000
,
0020
0000
0000
0030
,
2000
0000
0000
3000
,
0002
0000
0000
0003
,
1000
1000
1000
0000
,
0001
0001
0001
0000
,
0100
0100
0100
0000
,
0010
0010
0010
0000
,
1000
0100
1000
0000
,
0001
0100
0001
0000
,
1000
0010
1000
0000
,
0001
0010
0001
0000
,
1001
0000
1001
0000
,
0001
0100
0010
0000
,
0110
0000
0110
0000
,
0010
1000
0001
0000
,
1000
0000
0100
0000
,
0010
0000
0001
0001
,
0001
0000
1000
1000
,
2000
0000
0000
3000
,
0001
0000
0100
0000
,
0010
0000
1000
1000
,
1000
0000
0001
0001
,
0002
0000
0000
0003
,
2000
0000
0000
3000
,
0200
0000
0000
0300
,
0020
0000
0000
0030
,
0002
0000
0000
0003
,
1000
0001
1000
0000
,
0001
0100
0001
0000
,
0100
0010
0100
0000
,
0010
1000
0010
0000
,
1000
0000
0001
0000
,
1000
0000
0001
0100
,
0010
0000
0100
0100
,
0200
0000
0000
0300
,
0010
0000
1000
0000
,
0001
0000
1000
0100
,
0010
0000
0001
0100
,
0020
0000
0000
0030
,
0110
0000
0000
0000
;

//---------------dance-single - ----------------
#NOTES:
     dance-single:
     :
     Medium:
     4:
     :
0000
0000
0000
0000
,
0000
0000
0000
0000
,
0000
0000
0000
0000
,
0000
0000
0000
0000
,
0000
0000
0000
0000
,
0100
0000
1000
0000
0001
0000
0010
0001
,
0010
0000
0001
0000
0100
0000
0010
1000
,
0010
0000
1000
0000
0001
0000
1000
0100
,
1000
0001
0100
0010
,
1000
0000
0100
0000
0010
0000
0001
1000
,
0001
0000
0100
0000
0010
0000
1000
0001
,
1000
0000
0100
0000
0010
0000
0001
1000
,
0001
1001
2002
3003
,
1000
0000
0100
0000
0001
0000
0100
0010
,
0100
0000
1000
0000
0010
0000
0100
0001
,
0100
0000
0001
0000
0100
0000
0010
1000
,
0010
1000
0100
0001
,
0100
0000
0100
0000
0010
0000
0001
0100
,
0001
0000
1000
0000
1000
0000
0001
0010
,
0001
0000
0100
0000
0100
0000
0010
1000
,
0010
1000
2000
3000
,
0002
0003
2000
3000
,
0200
0300
0020
0030
,
0001
0001
0001
0000
,
0100
0010
0110
0000
,
0010
0000
0001
0000
0001
0000
1000
0100
,
0010
0000
0100
0000
0100
0000
1000
0001
,
0100
0000
0010
0000
0010
0000
1000
0001
,
0100
0010
1000
0001
,
1000
0000
0001
0000
0100
0000
0010
1000
,
0100
0000
1000
0000
0100
0000
0010
0001
,
1000
0000
0001
0000
0100
0000
0010
1000
,
0001
1000
2002
3003
,
0002
0003
2000
3000
,
0002
0003
0200
0300
,
0020
1030
0002
0103
,
2000
3000
0002
0003
,
2000
3100
0020
0031
,
0200
0000
0300
0000
0001
1000
0001
0000
,
2000
3100
0020
0001
,
0000
0130
0002
1003
,
0010
0000
1000
0001
1000
0000
0001
1000
,
0001
0000
0100
0000
0010
0000
0100
0010
,
0100
0000
0010
0000
1000
0000
0001
1000
,
0001
1000
0220
0330
,
0100
0000
0010
1000
0010
0000
1000
0100
,
1000
0000
0001
0000
0100
0010
1000
0010
,
0100
0000
0001
0000
1000
0100
0010
0100
,
1000
0001
0100
0010
,
0110
0000
0000
0000
;

//---------------dance-single - ----------------
#NOTES:
     dance-single:
     :
     Hard:
     8:
     :
0000
0000
0000
0000
,
0000
0000
0000
0000
,
0000
0000
0000
0000
,
0000
0000
0000
0000
,
0000
0000
0000
0000
,
1001
0000
0000
0000
1000
0000
0100
0000
1000
0000
0000
0001
0000
0000
1000
0000
,
0000
0000
0001
0000
0100
0000
0010
0000
1000
0000
0000
0001
0000
0000
1000
0000
,
0000
0000
0000
0000
0100
0000
0010
0000
0100
0000
0000
1000
0000
0000
0001
0000
,
0000
0000
1000
0001
1000
0000
1001
0000
,
1001
0000
0000
0000
0001
0000
0100
0000
0001
0000
0000
1000
0000
0000
0100
0000
,
0000
0000
1000
0000
0100
0000
0010
0000
0001
0000
0000
1000
0000
0000
0001
0000
,
0000
0000
0000
0000
0100
0000
0010
0000
0100
0000
0000
0001
0000
0000
1000
0000
,
0000
0000
0100
0010
0100
0000
0110
0000
,
0010
0000
0001
0000
1000
0000
0001
0000
0010
0000
0000
0010
0000
0000
0010
0000
,
0000
0000
0001
0000
0100
0000
0010
0000
1000
0000
0000
1000
0000
0000
1000
0000
,
0000
0000
0100
0000
0010
0000
0001
0000
0010
0000
0000
0010
0000
0000
0010
0000
,
0000
0001
0010
0100
0010
1000
0010
0000
,
0001
0000
0100
0000
0010
0000
1000
0000
0001
0000
0000
0001
0000
0000
1000
0000
,
0000
0000
0100
0000
0001
0000
0100
0000
1000
0000
0000
1000
0000
0000
0001
0000
,
0000
0000
0100
0000
0010
0000
1000
0000
0010
0000
0000
0010
0000
0000
0100
0000
,
0000
0001
1000
0100
0010
0000
1001
0000
,
2000
0001
0001
0100
,
0100
0000
0010
0000
3010
0000
0001
1000
,
0100
0000
0010
0001
1000
0000
0001
0000
,
1000
0100
0010
0001
1100
0000
0101
0000
,
0011
0000
0000
0000
0001
0000
1000
0000
0001
0000
0000
0100
0000
0000
0100
0000
,
0000
0000
0010
0000
1000
0000
0010
0000
1000
0000
0000
0001
0000
0000
0001
0000
,
0000
0000
0000
0000
1000
0000
0001
0000
1000
0000
0000
0100
0000
0000
0100
0000
,
0000
0000
0010
0001
0010
0000
1100
0000
,
1010
0000
0000
0000
1000
0000
0100
0000
0010
0000
0000
0001
0000
0000
0001
0000
,
0000
0000
0100
0000
0010
0000
1000
0000
0001
0000
0000
1000
0000
0000
1000
0000
,
0000
0000
0000
0000
0100
0000
0010
0000
0100
0000
0000
0010
0000
0000
0010
0000
,
0000
0000
0001
1000
0001
0000
1001
0000
,
1000
0000
0100
0000
1000
0000
0010
0000
0100
0000
0000
0000
0000
0001
0000
0001
,
0000
0100
0010
1000
0001
0000
0000
0000
,
0000
0000
0000
0010
0001
0000
0001
0000
0100
0000
0000
0010
0000
0000
0200
0000
,
0000
0000
0000
0301
1000
0100
1000
0100
,
0010
0000
0001
0000
0010
0000
0001
0000
0100
0000
0000
0001
0000
0000
0101
0000
,
0000
0000
0000
0000
0000
0000
0001
0000
1000
0001
0010
0001
0100
0000
0000
0000
,
0010
0100
0010
1000
0001
1000
0001
1000
0010
0000
0000
0000
0000
0000
0000
0000
,
0000
0000
0000
0000
1000
0001
1000
0000
0101
0000
0000
0000
1100
0000
0000
0000
,
1001
0000
0000
0000
1000
0000
0100
0000
0010
0000
0000
0001
0000
0000
1001
0000
,
0000
0000
0001
0000
0100
0000
0010
0000
1000
0000
0000
0001
0000
0000
1001
0000
,
0000
0000
0000
0000
0100
0000
0010
0000
1000
0000
0000
0001
0000
0000
0110
0000
,
0000
0000
1001
0100
0001
0000
1000
0000
,
0011
0000
0000
0000
0001
0000
0100
0000
0001
0000
0000
0101
0000
0000
1100
0000
,
0000
0000
1000
0000
0100
0000
0010
0000
0001
0000
0000
0011
0000
0000
1010
0000
,
0000
0000
0000
0000
0010
0000
1000
0000
0100
0000
0000
1100
0000
0000
0101
0000
,
0000
0000
0001
1000
0010
0000
1001
0000
,
0110
0000
0000
0000
;

//---------------dance-double - ----------------
#NOTES:
     dance-double:
     :
     Beginner:
     1:
     :
00000000
00000000
00000000
00000000
,
00000000
00000000
00000000
00000000
,
00000000
00000000
00000000
00000000
,
00000000
00000000
00000000
00000000
,
00000000
00000000
00000000
00000000
,
10000000
00000000
00000000
00000000
,
01000000
00000000
00000000
00000000
,
00010000
00000000
00000000
00000000
,
00001000
00000000
00000000
00000000
,
00000100
00000000
00000000
00000000
,
00000001
00000000
00000000
00000000
,
00000010
00000000
00000000
00000000
,
00000100
00000000
00000000
00000000
,
00010000
00000000
00010000
00000000
,
00001000
00000000
00000000
00000000
,
01000000
00000000
01000000
00000000
,
00100000
00000000
00000000
00000000
,
10000000
00000000
10000000
00000000
,
00010000
00000000
00000000
00000000
,
00100000
00000000
00100000
00000000
,
01000000
00000000
00000000
00000000
,
00010000
00010000
00010000
00000000
,
00001000
00000000
00000000
00000000
,
00000100
00000100
00000100
00000000
,
00000010
00000000
00001000
00000000
,
00000001
00000000
00000000
00000000
,
00000100
00000000
00000000
00000000
,
00001000
00000000
00000000
00000000
,
00010000
00000000
00000000
00000000
,
00100000
00000000
00000000
00000000
,
10000000
00000000
00000000
00000000
,
00010000
00000000
00000000
00000000
,
10000000
00000000
00000000
00000000
,
02000000
00000000
00000000
03000000
,
01000000
00000000
00000000
00000000
,
00200000
00000000
00000000
00300000
,
00100000
00000000
00000000
00000000
,
00001000
00000000
00001000
00000000
,
00010000
00000000
00000000
00000000
,
00000100
00000000
00000100
00000000
,
00000100
00000000
00000000
00000000
,
00000010
00000000
00000000
00000000
,
00000001
00000000
00000000
00000000
,
00001000
00000000
00000000
00000000
,
00001001
00000000
00000000
00000000
,
00000001
00000000
00000100
00000000
,
00001000
00000000
00000000
00000000
,
00010000
00000000
01000000
00000000
,
10000000
00000000
00000000
00000000
,
10010000
00000000
00000000
00000000
;

//---------------dance-double - ----------------
#NOTES:
     dance-double:
     :
     Easy:
     2:
     :
00000000
00000000
00000000
00000000
,
00000000
00000000
00000000
00000000
,
00000000
00000000
00000000
00000000
,
00000000
00000000
00000000
00000000
,
00000000
00000000
00000000
00000000
,
10000000
00000000
01000000
00000000
,
00200000
00000000
00000000
00300000
,
00002000
00000000
00000000
00003000
,
00020000
00000000
00000000
00030000
,
00000100
00000000
00001000
00000000
,
00000002
00000000
00000000
00000003
,
00000200
00000000
00000000
00000300
,
00000020
00000000
00000000
00000030
,
00001000
00001000
00001000
00000000
,
00000100
00000100
00000100
00000000
,
00010000
00010000
00010000
00000000
,
00001000
00001000
00001000
00000000
,
01000000
00010000
01000000
00000000
,
00010000
10000000
00010000
00000000
,
10000000
01000000
10000000
00000000
,
01000000
00100000
01000000
00000000
,
01100000
00000000
01100000
00000000
,
00100000
00001000
00010000
00000000
,
00011000
00000000
00011000
00000000
,
00010000
00000100
00001000
00000000
,
00000001
00000000
00000100
00000000
,
00001000
00000000
00010000
00010000
,
00010000
00000000
00001000
00001000
,
00002000
00000000
00000000
00003000
,
00010000
00000000
01000000
00000000
,
10000000
00000000
00010000
00010000
,
00010000
00000000
10000000
10000000
,
20000000
00000000
00000000
30000000
,
02000000
00000000
00000000
03000000
,
00020000
00000000
00000000
00030000
,
00002000
00000000
00000000
00003000
,
00000020
00000000
00000000
00000030
,
00000001
00001000
00000001
00000000
,
00001000
00000100
00001000
00000000
,
00000100
00010000
00000100
00000000
,
00010000
00001000
00010000
00000000
,
00001000
00000000
01000000
00000000
,
00100000
00000000
10000000
01000000
,
00100000
00000000
00010000
00010000
,
00020000
00000000
00000000
00030000
,
01000000
00000000
00001000
00000000
,
00010000
00000000
00000100
00001000
,
00000010
00000000
00001000
00000001
,
00002000
00000000
00000000
00003000
,
00001001
00000000
00000000
00000000
;

//---------------dance-double - ----------------
#NOTES:
     dance-double:
     :
     Medium:
     4:
     :
00000000
00000000
00000000
00000000
,
00000000
00000000
00000000
00000000
,
00000000
00000000
00000000
00000000
,
00000000
00000000
00000000
00000000
,
00000000
00000000
00000000
00000000
,
10000000
00000000
01000000
00000000
00100000
00000000
00001000
00010000
,
00001000
00000000
00010000
00000000
00000100
00000000
00001000
00000010
,
00001000
00000000
00000001
00000000
00001000
00000000
00000010
00000100
,
00000010
00001000
00000100
00010000
,
00001000
00000000
01000000
00000000
00100000
00000000
10000000
00010000
,
10000000
00000000
01000000
00000000
00100000
00000000
00001000
00010000
,
00001000
00000000
00010000
00000000
00000100
00000000
00001000
00000010
,
00001000
00000101
00002002
00003003
,
00000001
00000000
00000100
00000000
00001000
00000000
00010000
00001000
,
00010000
00000000
00001000
00000000
00010000
00000000
01000000
00100000
,
01000000
00000000
10000000
00000000
00100000
00000000
10000000
00010000
,
10000000
00100000
00010000
00001000
,
00010000
00000000
00001000
00000000
00000010
00000000
00000001
00001000
,
00000001
00000000
00001000
00000000
00001000
00000000
00000100
00010000
,
00000100
00000000
00010000
00000000
00010000
00000000
00001000
00100000
,
00001000
01000000
00200000
00300000
,
20000000
30000000
02000000
03000000
,
00200000
00300000
00020000
00030000
,
01000000
01000000
01000000
00000000
,
00001000
00010000
00011000
00000000
,
00001000
00000000
00100000
00000000
00100000
00000000
00010000
01000000
,
00100000
00000000
10000000
00000000
10000000
00000000
01000000
00100000
,
00010000
00000000
00100000
00000000
00100000
00000000
00001000
00010000
,
00000100
00001000
00000001
00000100
,
00000010
00000000
00010000
00000000
00001000
00000000
00010000
00001000
,
01000000
00000000
00010000
00000000
10000000
00000000
01000000
00100000
,
00010000
00000000
01000000
00000000
00001000
00000000
00010000
00000100
,
00001000
00000010
00000220
00000330
,
00002000
00003000
00000002
00000003
,
00000200
00000300
00002000
00003000
,
00020000
00031000
00002000
01003000
,
00020000
00030000
20000000
30000000
,
02000000
03100000
00020000
01030000
,
00002000
00000000
00003000
00000000
00010000
00001000
00010000
00000000
,
00000200
00001300
00000002
00001000
,
00000000
00001003
00000020
00000130
,
00000001
00000000
00001000
00000010
00001000
00000000
00000100
00010000
,
00000100
00000000
00010000
00000000
00001000
00000000
01000000
00010000
,
01000000
00000000
00100000
00000000
10000000
00000000
00010000
10000000
,
00010000
10000000
20020000
30030000
,
10000000
00000000
01000000
00100000
01000000
00000000
00100000
00010000
,
00100000
00000000
00001000
00000000
00010000
00001000
00000100
00001000
,
00010000
00000000
00000100
00000000
00001000
00000100
00000001
00000100
,
00001000
00000001
00000100
00000010
,
00000110
00000000
00000000
00000000
;

//---------------dance-double - ----------------
#NOTES:
     dance-double:
     :
     Hard:
     8:
     :
00000000
00000000
00000000
00000000
,
00000000
00000000
00000000
00000000
,
00000000
00000000
00000000
00000000
,
00000000
00000000
00000000
00000000
,
00000000
00000000
00000000
00000000
,
10010000
00000000
00000000
00000000
10000000
00000000
01000000
00000000
10000000
00000000
00000000
00010000
00000000
00000000
01000000
00000000
,
00000000
00000000
00001000
00000000
01000000
00000000
00010000
00000000
00100000
00000000
00000000
00001000
00000000
00000000
00010000
00000000
,
00000000
00000000
00000000
00000000
00000100
00000000
00001000
00000000
00000100
00000000
00000000
00001000
00000000
00000000
00000010
00000000
,
00000000
00000000
00001000
00000001
00001000
00000000
00001001
00000000
,
00001001
00000000
00000000
00000000
00000001
00000000
00000100
00000000
00000001
00000000
00000000
00001000
00000000
00000000
00000100
00000000
,
00000000
00000000
00010000
00000000
00000100
00000000
00001000
00000000
00000010
00000000
00000000
00010000
00000000
00000000
00001000
00000000
,
00000000
00000000
00000000
00000000
01000000
00000000
00010000
00000000
01000000
00000000
00000000
00010000
00000000
00000000
10000000
00000000
,
00000000
00000000
01000000
00100000
01000000
00000000
01100000
00000000
,
10000000
00000000
01000000
00000000
00010000
00000000
00001000
00000000
00010000
00000000
00000000
00010000
00000000
00000000
00010000
00000000
,
00000000
00000000
00001000
00000000
00000100
00000000
00000001
00000000
00000010
00000000
00000000
00000010
00000000
00000000
00000010
00000000
,
00000000
00000000
00000001
00000000
00000010
00000000
00001000
00000000
00010000
00000000
00000000
00010000
00000000
00000000
00010000
00000000
,
00000000
00001000
00010000
00100000
10000000
00010000
10000000
00000000
,
00010000
00000000
10000000
00000000
01000000
00000000
00100000
00000000
00010000
00000000
00000000
00010000
00000000
00000000
01000000
00000000
,
00000000
00000000
00001000
00000000
00010000
00000000
00001000
00000000
00010000
00000000
00000000
00010000
00000000
00000000
00000100
00000000
,
00000000
00000000
00001000
00000000
00000100
00000000
00000010
00000000
00000001
00000000
00000000
00000001
00000000
00000000
00001000
00000000
,
00000000
00000001
00000100
00001000
00010000
00000000
00011000
00000000
,
00002000
00100000
00100000
00010000
,
00010000
00000000
01000000
00000000
01003000
00000000
00100000
00010000
,
01000000
00000000
00010000
10000000
01000000
00000000
00100000
00000000
,
10000000
01000000
00100000
00001000
00011000
00000000
00011000
00000000
,
00001010
00000000
00000000
00000000
00000010
00000000
00001000
00000000
00000010
00000000
00000000
00000100
00000000
00000000
00000100
00000000
,
00000000
00000000
00000001
00000000
00001000
00000000
00000001
00000000
00001000
00000000
00000000
00000010
00000000
00000000
00000010
00000000
,
00000000
00000000
00000000
00000000
00010000
00000000
00001000
00000000
00010000
00000000
00000000
00001000
00000000
00000000
00001000
00000000
,
00000000
00000000
00100000
00010000
00100000
00000000
00110000
00000000
,
01010000
00000000
00000000
00000000
00010000
00000000
01000000
00000000
00100000
00000000
00000000
10000000
00000000
00000000
10000000
00000000
,
00000000
00000000
01000000
00000000
00100000
00000000
00001000
00000000
00010000
00000000
00000000
00001000
00000000
00000000
00001000
00000000
,
00000000
00000000
00000000
00000000
00010000
00000000
00000100
00000000
00000010
00000000
00000000
00000001
00000000
00000000
00000001
00000000
,
00000000
00000000
00001000
00000001
00001000
00000000
00001001
00000000
,
00000001
00000000
00000100
00000000
00000010
00000000
00000100
00000000
00000001
00000000
00000000
00000000
00000000
00001000
00000000
00001000
,
00000000
00000100
00010000
00000010
00001000
00000000
00000000
00000000
,
00000000
00000000
00000000
00000100
00010000
00000000
00010000
00000000
00001000
00000000
00000000
01000000
00000000
00000000
00020000
00000000
,
00000000
00000000
00000000
10030000
01000000
10000000
01000000
10000000
,
01000000
00000000
00100000
00000000
01000000
00000000
00100000
00000000
00010000
00000000
00000000
01000000
00000000
00000000
01010000
00000000
,
00000000
00000000
00000000
00000000
00000000
00000000
00010000
00000000
00100000
00001000
00010000
00001000
00010000
00000000
00000000
00000000
,
00001000
00010000
00000100
00001000
00000010
00001000
00000100
00001000
00000010
00000000
00000000
00000000
00000000
00000000
00000000
00000000
,
00000000
00000000
00000000
00000000
00001000
00000001
00001000
00000000
00000101
00000000
00000000
00000000
00001100
00000000
00000000
00000000
,
00001001
00000000
00000000
00000000
00000001
00000000
00000100
00000000
00000010
00000000
00000000
00010000
00000000
00000000
00011000
00000000
,
00000000
00000000
00001000
00000000
01000000
00000000
00010000
00000000
00100000
00000000
00000000
00010000
00000000
00000000
10010000
00000000
,
00000000
00000000
00000000
00000000
01000000
00000000
00100000
00000000
00001000
00000000
00000000
00010000
00000000
00000000
00011000
00000000
,
00000000
00000000
00010000
00001000
00000100
00000000
00000010
00000000
,
00001001
00000000
00000000
00000000
00001000
00000000
00000100
00000000
00001000
00000000
00000000
00001100
00000000
00000000
00011000
00000000
,
00000000
00000000
00001000
00000000
00010000
00000000
01000000
00000000
00100000
00000000
00000000
01100000
00000000
00000000
00110000
00000000
,
00000000
00000000
00000000
00000000
00010000
00000000
10000000
00000000
01000000
00000000
00000000
11000000
00000000
00000000
01010000
00000000
,
00000000
00000000
00010000
01000000
00001000
00000000
00011000
00000000
,
00011000
00000000
00000000
00000000
;
