
//----- song ID: danm -----
#TITLE:Dancing Machine;
#ARTIST:Jackson 5;
#BANNER:Dancing Machine.png;
#BACKGROUND:Dancing Machine-bg.png;
#CDTITLE:./CDTitles/DDR UNIVERSE3.png;
#MUSIC:Dancing Machine.ogg;
#OFFSET:-0.001;
#SAMPLESTART:62.035;
#SAMPLELENGTH:15;
#DISPLAYBPM:108;
#BPMS:0=108.108,8=107.143,24=108.271,40=107.784,56=108.434,72=109.84,88=109.164,97=107.543,113=109.948,120=109.008,136=109.756,152=109.008,168=108.434,176=108.434;
#NOTES:
     dance-single:
     :
     Beginner:
     1:
     :
0000
0000
0000
0000
,
0000
0000
0000
0000
,
1000
0000
0000
0000
,
0001
0000
0000
0000
,
0001
0000
0000
0000
,
0100
0000
0000
0000
,
0100
0000
0000
0000
,
0010
0000
0000
0000
,
0010
0000
0000
0000
,
0100
0000
0000
0000
,
0100
0000
0000
0000
,
0010
0000
0000
0000
,
1001
0000
0001
0000
,
1001
0000
1000
0000
,
2000
0000
0000
3000
,
1000
0000
0000
0000
,
0100
0100
0000
0000
,
0010
0010
0000
0000
,
0001
0001
0000
0000
,
1000
1000
0000
0000
,
0001
0000
0001
0000
,
0001
0000
0000
0000
,
1000
0000
1000
0000
,
1000
0000
0000
0000
,
0020
0000
0000
0030
,
0010
0000
0000
0000
,
0200
0000
0000
0300
,
0100
0000
0000
0000
,
1001
0000
0000
0000
,
0110
0000
0000
0000
,
0010
0000
0010
0000
,
0010
0000
0000
0000
,
0110
0000
0000
0000
,
1001
0000
0000
0000
,
0100
0000
0100
0000
,
0100
0000
0000
0000
,
0001
0001
0001
0000
,
0001
0000
0000
0000
,
1000
1000
1000
0000
,
1000
0000
0000
0000
,
0010
0010
0010
0000
,
0010
0000
0000
0000
,
0100
0100
0100
0000
,
0100
0000
0000
0000
,
1001
0000
0000
0000
;
#NOTES:
     dance-single:
     :
     Easy:
     2:
     :
0000
0000
0000
0000
,
0000
0000
0000
0000
,
1000
0000
1000
0000
,
0001
0000
0001
0000
,
1001
0000
0000
0000
,
0110
0000
0000
0000
,
0100
0000
0100
0000
,
0010
0000
0010
0000
,
1000
1000
1000
0000
,
0001
0001
0001
0000
,
0010
0000
0010
0000
,
0100
0000
0100
0000
,
1002
0000
0000
0003
,
2001
0000
0000
3000
,
0010
0010
0010
0000
,
0100
0100
0100
0000
,
0001
0001
1000
0000
,
1000
1000
0001
0000
,
0010
0010
0100
0000
,
0100
0100
0010
0000
,
1000
1000
0100
0000
,
0001
0001
0100
0000
,
0010
0010
0100
0100
,
0020
0000
0000
0030
,
1000
0000
0100
0100
,
0010
0000
0001
0001
,
0100
0000
0010
0010
,
2000
0000
0000
3000
,
1001
0000
0000
0000
,
0000
0110
0000
0000
0000
0000
0000
0000
,
0001
1000
0001
0000
,
0010
0100
0010
0000
,
0110
0000
0000
0000
,
0000
1001
0000
0000
0000
0000
0000
0000
,
0010
0100
0010
0000
,
1000
0001
1000
0000
,
0010
0010
0100
0010
,
0100
0000
0100
0000
,
0001
0001
0001
0000
,
2000
0000
0000
3000
,
1000
1000
0001
1000
,
0001
0000
0001
0000
,
0100
0100
0100
0000
,
0020
0000
0000
0030
,
1001
0000
0000
0000
;
#NOTES:
     dance-single:
     :
     Medium:
     4:
     :
0000
0000
0000
0000
,
0000
0000
0000
0000
,
1000
0100
0001
0100
,
0010
0100
0000
0100
,
0010
1000
0100
0100
,
0010
0001
0100
0100
,
0010
0000
0010
0000
,
1000
0001
0100
0010
,
1000
1000
1000
0000
0001
0000
1000
0000
,
0100
0100
0100
0000
0010
0000
0100
0000
,
0001
0001
0001
0000
1000
0000
0001
0000
,
0010
0010
0010
0000
0100
0000
0010
0000
,
1002
0103
2001
3010
,
0210
0300
0020
0030
,
2000
3000
0200
0300
,
0020
0030
0002
0003
,
1001
0010
1001
0100
,
1000
1000
0001
0001
,
0100
0100
0010
0010
,
0110
0110
1001
1001
,
2000
3100
0002
0103
,
2000
3010
0002
0013
,
2000
3100
0002
0103
,
1000
0100
1000
0000
0001
0100
0001
0000
,
2000
0000
0010
3010
,
0200
0000
0000
0000
0010
0010
0310
0000
,
0002
0000
0010
0013
,
0220
0000
0000
0330
,
0010
0000
1001
0000
0000
0110
0000
0000
,
0000
0000
1000
0000
0000
0001
0000
0000
1000
0000
0000
0000
0000
0000
0000
0000
,
1000
0000
1000
0000
0100
1000
0100
0000
,
0001
0000
0001
0000
0100
0001
0100
0000
,
1000
0000
0000
0000
0110
0000
0000
0000
0000
0000
0000
1001
0000
0000
0000
0000
,
0000
0000
0010
0000
0000
0100
0000
0000
0010
0000
0000
0000
0000
0000
0000
0000
,
0120
0130
2001
3001
,
0210
0310
1002
1003
,
0100
0000
0010
0000
0100
0100
0010
0000
,
1000
0001
0100
0000
0001
1000
0100
0000
,
0010
0010
0010
0010
0010
0000
0000
0000
,
0100
0001
1000
1001
,
0010
0000
0100
0000
0010
0010
0100
0000
,
0001
1000
0010
0000
1000
0001
0010
0000
,
0100
0100
0100
0100
0100
0000
0000
0000
,
0010
1000
0001
0100
,
1001
0000
0000
0000
;
#NOTES:
     dance-single:
     :
     Hard:
     6:
     :
0000
0000
0000
0000
,
0000
0000
0000
0000
,
0020
0000
1030
0000
0001
0100
0001
0000
,
0020
0000
0031
0000
1000
0100
1000
0000
,
0010
0001
1000
0000
1000
0001
0100
0000
,
0100
0010
1000
0000
1000
0010
0100
0000
,
0010
0100
0001
0000
0001
0100
0010
0000
,
1000
0100
0001
0010
,
0100
0100
0010
0000
0100
1000
1100
0000
,
1000
1000
0010
0000
0100
0001
0101
0000
,
0010
0010
0100
0000
1000
0001
0001
0000
,
1000
0100
0010
0001
0100
0010
1001
0000
,
0220
0330
2020
3030
,
0201
0000
0010
0300
,
0200
0000
0301
0000
1000
0010
1000
0000
,
0200
0000
1300
0000
0001
0010
0001
0000
,
0100
1000
0001
0000
0001
1000
0010
0000
,
0010
0100
0001
0000
0001
0100
0010
0000
,
0100
0010
1000
0000
1000
0010
0100
0000
,
0001
0010
1000
0100
,
0010
0010
0100
0000
0010
0001
0011
0000
,
0001
0001
0100
0000
0010
1000
1010
0000
,
0100
0100
0010
0000
0001
1000
1000
0000
,
0001
0010
0100
1000
0110
0000
0000
0010
,
0012
0000
0100
0000
0103
0000
0001
0000
0010
0100
0010
0100
0000
0000
1000
0000
,
2100
0000
0010
0000
3010
0000
1000
0000
0100
0010
0100
0010
0000
0000
0001
0000
,
0201
0000
0010
0000
0310
0000
0100
0000
1000
0001
1000
0001
0000
0000
1000
0000
,
1020
0100
0200
0000
0000
0000
0330
0000
,
0010
0000
0000
1001
0000
0000
0100
0000
0000
0010
0000
0000
0001
0000
0000
0100
,
0000
0000
0010
0000
0000
1010
0000
0000
0011
0000
0000
0000
0000
0000
0000
0000
,
1000
0000
0100
0000
1000
0000
0100
0010
0000
0010
0100
0000
0010
0000
0001
0000
,
0100
0000
0001
0000
0100
0000
0010
0100
0000
0100
0010
0000
1000
0000
0001
0000
,
0101
0000
0000
1000
0000
0000
1100
0000
0000
0001
0000
0000
0000
0021
0000
0000
,
0000
0000
0130
0000
0000
1001
0000
0000
1100
0000
0000
0000
0000
0000
0000
0000
,
0001
0000
0100
0000
0010
0000
1000
0010
0000
0010
1000
0000
0100
0000
1000
0000
,
0100
0000
0010
0000
0001
0000
0100
0001
0000
0001
0100
0000
1001
0000
0000
0000
,
1000
0000
0100
0000
0010
0000
0000
0000
0001
0000
0010
0000
0100
0010
0100
0010
,
0000
0000
0001
1000
0001
1000
0000
0000
0010
0100
0010
0100
0000
0000
0001
0100
,
0010
0000
1000
0000
1010
0000
0010
0000
1010
0000
0000
0000
0100
0010
0100
0020
,
0000
0000
0230
0000
0301
1000
1001
0000
,
0001
0000
0010
0000
0100
0000
1000
0000
1000
0000
0100
0000
0010
0100
0010
0100
,
0000
0000
1000
0001
1000
0001
0000
0000
0100
0010
0100
0010
0000
0000
1000
0010
,
0100
0000
0001
0000
0101
0000
0100
0000
0101
0000
0000
0000
0010
0100
0010
0200
,
0000
0000
0320
0000
0130
0001
1000
1000
,
1001
0000
0000
0000
;
#NOTES:
     dance-double:
     :
     Beginner:
     1:
     :
00000000
00000000
00000000
00000000
,
00000000
00000000
00000000
00000000
,
10000000
00000000
00000000
00000000
,
01000000
00000000
00000000
00000000
,
01000000
00000000
00000000
00000000
,
00010000
00000000
00000000
00000000
,
00010000
00000000
00000000
00000000
,
00001000
00000000
00000000
00000000
,
00001000
00000000
00000000
00000000
,
00000100
00000000
00000000
00000000
,
00000100
00000000
00000000
00000000
,
00000010
00000000
00000000
00000000
,
00001001
00000000
00001000
00000000
,
00001001
00000000
00000001
00000000
,
00000002
00000000
00000000
00000003
,
00000001
00000000
00000000
00000000
,
00000010
00000010
00000000
00000000
,
00001000
00001000
00000000
00000000
,
00010000
00010000
00000000
00000000
,
00100000
00100000
00000000
00000000
,
01000000
00000000
01000000
00000000
,
01000000
00000000
00000000
00000000
,
00100000
00000000
00100000
00000000
,
00100000
00000000
00000000
00000000
,
00020000
00000000
00000000
00030000
,
00010000
00000000
00000000
00000000
,
20000000
00000000
00000000
30000000
,
10000000
00000000
00000000
00000000
,
01000000
00000000
00000000
00000000
,
00010000
00000000
00000000
00000000
,
00001000
00000000
00001000
00000000
,
00001000
00000000
00000000
00000000
,
00000100
00000000
00000000
00000000
,
00000010
00000000
00000000
00000000
,
00001000
00000000
00001000
00000000
,
00001000
00000000
00000000
00000000
,
00000001
00000001
00000001
00000000
,
00000001
00000000
00000000
00000000
,
00000100
00000100
00000100
00000000
,
00000100
00000000
00000000
00000000
,
00001000
00001000
00001000
00000000
,
00001000
00000000
00000000
00000000
,
00010000
00010000
00010000
00000000
,
00010000
00000000
00000000
00000000
,
00011000
00000000
00000000
00000000
;
#NOTES:
     dance-double:
     :
     Easy:
     2:
     :
00000000
00000000
00000000
00000000
,
00000000
00000000
00000000
00000000
,
00000001
00000000
00000001
00000000
,
00001000
00000000
00001000
00000000
,
00000010
00000010
00000000
00000000
,
00001000
00001000
00000000
00000000
,
00000100
00000000
00000100
00000000
,
00001000
00000000
00001000
00000000
,
00010000
00010000
00010000
00000000
,
00001000
00001000
00001000
00000000
,
00100000
00000000
00100000
00000000
,
00010000
00000000
00010000
00000000
,
10020000
00000000
00000000
00030000
,
20010000
00000000
00000000
30000000
,
01000000
01000000
01000000
00000000
,
00010000
00010000
00010000
00000000
,
00001000
00001000
00010000
00000000
,
00001000
00001000
00000100
00000000
,
00000100
00000100
00000010
00000000
,
00001000
00001000
00000001
00000000
,
00000010
00000010
00000100
00000000
,
00001000
00001000
00000100
00000000
,
00010000
00010000
00001000
00001000
,
00020000
00000000
00000000
00030000
,
00001000
00000000
00100000
00100000
,
00010000
00000000
10000000
10000000
,
01000000
00000000
00100000
00100000
,
02000000
00000000
00000000
03000000
,
10010000
00000000
00000000
00000000
,
00000000
01100000
00000000
00000000
00000000
00000000
00000000
00000000
,
00100000
01000000
00100000
00000000
,
00010000
00001000
00010000
00000000
,
00011000
00000000
00000000
00000000
,
00000000
00000110
00000000
00000000
00000000
00000000
00000000
00000000
,
00000100
00000010
00000100
00000000
,
00001000
00000001
00001000
00000000
,
00000010
00000010
00000100
00001000
,
00010000
00000000
00001000
00000000
,
00010000
00010000
00010000
00000000
,
00200000
00000000
00000000
00300000
,
00100000
00100000
01000000
00100000
,
10000000
00000000
10000000
00000000
,
01000000
01000000
01000000
00000000
,
00020000
00000000
00000000
00030000
,
00011000
00000000
00000000
00000000
;
#NOTES:
     dance-double:
     :
     Medium:
     4:
     :
00000000
00000000
00000000
00000000
,
00000000
00000000
00000000
00000000
,
00000001
00001000
00000100
00001000
,
00000001
00000100
00000000
00001000
,
00010000
00001000
00100000
00100000
,
00010000
01000000
00100000
00100000
,
10000000
00000000
01000000
00000000
,
01000000
00010000
00001000
00010000
,
00001000
00001000
00001000
00000000
00000100
00000000
00000010
00000000
,
00000100
00000100
00000100
00000000
00000001
00000000
00001000
00000000
,
00000001
00000001
00000001
00000000
00001000
00000000
00000100
00000000
,
00010000
00010000
00010000
00000000
00001000
00000000
00100000
00000000
,
00120000
00130000
21000000
31000000
,
00200000
00300000
00020000
00030000
,
20000000
30000000
02000000
03000000
,
00020000
00030000
00002000
00003000
,
00011000
00010000
00011000
00001000
,
00000100
00000100
00000010
00000010
,
00001000
00001000
00000001
00000001
,
00001001
00001001
00000010
00000010
,
00000002
00000103
00000200
00001300
,
00002000
00013000
00020000
00130000
,
00200000
10300000
02000000
03010000
,
00001000
00010000
00001000
00000000
00010000
00001000
00010000
00000000
,
00000200
00000000
00000010
00000310
,
00000002
00000000
00000000
00000000
00000100
00000100
00000103
00000000
,
00002000
00000000
00010000
00013000
,
00022000
00000000
00000000
00033000
,
00001000
00000000
00010000
00000000
00000000
01100000
00000000
00000000
,
00000000
00000000
00100000
00000000
00000000
01000000
00000000
00000000
00100000
00000000
00000000
00000000
00000000
00000000
00000000
00000000
,
10000000
00000000
10000000
00000000
01000000
00010000
01000000
00000000
,
00010000
00000000
00010000
00000000
00001000
00010000
00001000
00000000
,
00010000
00000000
00000000
00000000
00001000
00000000
00000000
00000000
00000000
00000000
00000000
00000110
00000000
00000000
00000000
00000000
,
00000000
00000000
00000010
00000000
00000000
00000100
00000000
00000000
00000010
00000000
00000000
00000000
00000000
00000000
00000000
00000000
,
00002000
00003100
00000002
00000103
,
00000200
00001300
00002000
00013000
,
00001000
00100000
00010000
00100000
,
00010000
01000000
00010000
00000000
10000000
01000000
10000000
00000000
,
01000000
01000000
01000000
01000000
01000000
00000000
00000000
00000000
,
01000000
00010000
00001000
00011000
,
00010000
00000010
00001000
00000100
,
00001000
00000010
00001000
00000000
00000001
00000010
00000001
00000000
,
00000100
00000100
00000100
00000100
00000100
00000000
00000000
00000000
,
00000100
00001000
00010000
00001000
,
00011000
00000000
00000000
00000000
;
#NOTES:
     dance-double:
     :
     Hard:
     6:
     :
00000000
00000000
00000000
00000000
,
00000000
00000000
00000000
00000000
,
10000000
00000000
00100000
00000000
10000000
01000000
01000000
00000000
,
00010000
00000000
00001000
00000000
00010000
00001000
00001000
00000000
,
00000100
00000100
00000010
00000000
00000100
00000100
00000010
00000000
,
00001000
00000001
00001000
00000000
00001000
00000001
00001000
00000000
,
00000001
00000100
00001000
00010000
,
00100000
10000000
01000000
00000000
00100000
00000000
01100000
00000000
,
00010000
00010000
00100000
00000000
00001000
00001000
00010000
00000000
,
00000100
00000000
00001000
00000000
00000100
00000100
00000010
00000000
,
00000001
00000001
00000100
00000000
00001000
00001000
00000010
00000000
,
00001000
00010000
00100000
01000000
,
10010000
00000000
00011000
00000000
,
00001001
00000000
00000010
00000000
,
00000100
00001000
00010000
01000000
,
00010000
00000000
00001000
00000000
00000100
00000100
00000010
00000000
,
00001000
00000010
00001000
00000000
00001000
00000000
00001000
00000000
,
00000001
00000100
00000001
00000000
00000100
00000000
00000100
00000000
,
00001000
00010000
00001000
00000000
00010000
00000000
00010000
00000000
,
01000000
00100000
01000000
00000000
00100000
00000000
00100000
00000000
,
00010000
01000000
10000000
00000000
01000000
01000000
00100000
00000000
,
10000000
01000000
00010000
00000000
00001000
00010000
00010000
00000000
,
00001000
00010000
00001000
00000000
00010000
00001000
00010000
00000000
,
00001000
00000100
00000001
00000010
00000110
00000000
00000000
00000010
,
00001002
00000000
00000100
00000000
00000103
00000000
00001000
00000000
00010000
00001000
00010000
00001000
00000000
00000000
00100000
00000000
,
00120000
00000000
10000000
00000000
10030000
00000000
01000000
00000000
10000000
00100000
10000000
00100000
00000000
00000000
01000000
00000000
,
01020000
00000000
00100000
00000000
00130000
00000000
00001000
00000000
00010000
00001000
00010000
00001000
00000000
00000000
00000100
00000000
,
00000210
00000010
00000020
00000000
00000000
00000000
00000330
00000000
,
00000001
00000000
00000000
00001000
00000000
00000000
00000100
00000000
00000000
00010000
00000000
00000000
00001000
00000000
00000000
00100000
,
00000000
00000000
00110000
00000000
00000000
01100000
00000000
00000000
11000000
00000000
00000000
00000000
00000000
00000000
00000000
00000000
,
00010000
00000000
00100000
00000000
00010000
00000000
10000000
01000000
00000000
01000000
10000000
00000000
01000000
00000000
00010000
00000000
,
00001000
00000000
00010000
00000000
00100000
00000000
01000000
00100000
00000000
00100000
01000000
00000000
00010000
00000000
00010000
00000000
,
10000000
00000000
00000000
00010000
00000000
00000000
01000000
00000000
00000000
00001000
00000000
00000000
00000000
00010000
00000000
00000000
,
00000010
00000000
00000100
00000000
00000000
00000110
00000000
00000000
00000202
00000000
00000000
00000000
00000303
00000000
00000000
00000000
,
00001000
00000000
00000100
00000000
00001000
00000000
00000001
00000010
00000000
00000010
00000001
00000000
00000010
00000000
00001000
00000000
,
00010000
00000000
00001000
00000000
00000100
00000000
00000010
00000100
00000000
00000100
00000010
00000000
00001000
00000000
00000000
00000000
,
00000001
00000000
00000100
00000000
00001000
00000000
00010000
00000000
01000000
00000000
10000000
00000000
00100000
10000000
00100000
10000000
,
00000000
00000000
00010000
00100000
00010000
00100000
00000000
00000000
01000000
10000000
01000000
10000000
00000000
00000000
01000000
00010000
,
00001000
00000000
00010000
00000000
00011000
00000000
00001000
00000000
00011000
00000000
00000000
00000000
01000000
00010000
01000000
00020000
,
00000000
00000000
02030000
00000000
03100000
01000000
10010000
00000000
,
10000000
00000000
01000000
00000000
00010000
00000000
00001000
00000000
00000100
00000000
00000001
00000000
00000010
00000001
00000010
00000001
,
00000000
00000000
00001000
00000010
00001000
00000010
00000000
00000000
00000100
00000001
00000100
00000001
00000000
00000000
00000100
00001000
,
00010000
00000000
00001000
00000000
00011000
00000000
00010000
00000000
00011000
00000000
00000000
00000000
00000100
00001000
00000100
00002000
,
00000000
00000000
00003020
00000000
00000130
00000001
00001000
00001000
,
00001001
00000000
00000000
00000000
;
