#TITLE:on voit la mer;
#ARTIST:Togo Project feat. Tomoko Kataoka;
#BANNER:on voit la mer.png;
#BACKGROUND:on voit la mer-bg.png;
#CDTITLE:./CDTITLES/DanceDanceRevolution UNIVERSE2.png;
#MUSIC:on voit la mer.ogg;
#SAMPLESTART:29.647;
#SAMPLELENGTH:15;
#BPMS:0=170;

//---------------dance-single - ----------------
#NOTES:
     dance-single:
     :
     Beginner:
     1:
     :
0000
0000
0000
0000
,
0000
0000
0000
0000
,
0000
0000
0000
0000
,
0000
0000
0000
0000
,
0000
0000
0000
0000
,
0010
0000
0010
0000
,
0100
0000
0000
0000
,
1000
0000
0000
0000
,
0001
0000
0000
0000
,
0100
0000
0100
0000
,
0010
0000
0000
0000
,
0001
0000
0000
0000
,
1000
0000
0000
0000
,
0001
0000
0001
0000
,
1000
0000
0000
0000
,
0010
0000
0000
0000
,
0100
0000
0000
0000
,
1000
0000
1000
0000
,
0100
0000
0000
0000
,
0010
0000
0000
0000
,
1000
0000
0000
0000
,
0001
0000
0000
0000
,
0100
0000
0000
0000
,
1000
0000
0000
0000
,
0010
0000
0000
0000
,
0100
0000
0000
0000
,
0001
0000
0000
0000
,
1000
0000
0000
0000
,
0001
0000
0000
0000
,
0100
0000
0100
0000
,
0001
0000
0000
0000
,
1000
0000
1000
0000
,
0010
0000
0000
0000
,
0010
0000
0010
0000
,
0100
0000
0000
0000
,
1000
0000
1000
0000
,
0001
0000
0000
0000
,
0010
0000
0000
0000
,
0100
0000
0000
0000
,
1000
0000
0000
0000
,
0001
0000
0000
0000
,
1000
0000
0000
0000
,
0100
0000
0000
0000
,
0010
0000
0000
0000
,
0001
0000
0000
0000
,
0010
0000
0000
0000
,
0001
0000
0000
0000
,
1000
0000
0000
0000
,
0010
0000
0000
0000
,
0100
0000
0000
0000
,
0001
0000
0000
0000
,
1000
0000
0000
0000
,
0001
0000
0000
0000
,
0020
0000
0000
0030
,
0200
0000
0000
0300
,
0020
0000
0000
0030
,
2000
0000
0000
3000
,
0001
0000
0000
0000
,
0010
0000
0010
0000
,
1000
0000
0000
0000
,
0010
0000
0000
0000
,
0100
0000
0100
0000
,
0001
0000
0000
0000
,
0010
0000
0010
0000
,
0001
0000
0000
0000
,
0001
0000
0001
0000
,
1000
0000
1000
0000
,
0100
0000
0001
0000
,
1000
0000
0100
0000
;

//---------------dance-single - ----------------
#NOTES:
     dance-single:
     :
     Easy:
     4:
     :
0000
0000
0000
0000
,
0000
0000
0000
0000
,
0000
0000
0000
0000
,
0000
0000
0000
0000
,
0000
0000
0000
0000
,
1000
0000
1000
0000
,
0002
0000
0000
0003
,
0010
0000
0010
0000
,
0200
0000
0000
0300
,
1000
0000
1000
0000
,
0200
0000
0000
0300
,
0001
0000
0001
0000
,
0020
0000
0000
0030
,
0100
0000
1000
0000
,
0010
0000
0000
0000
,
0001
0000
0100
0000
,
1000
0000
0000
0000
,
0010
0000
1000
0000
,
0100
0000
0000
0000
,
1000
0000
0100
0000
,
0001
0000
0000
0000
,
1001
0000
0100
0000
,
0001
0000
0010
0100
,
1000
0000
0001
0000
,
1000
0000
0010
0000
,
0110
0000
0100
0001
,
0010
0000
0100
0000
,
1000
0000
0001
0000
,
0100
0000
0010
0000
,
0110
0000
1000
0100
,
1000
0000
0010
0000
,
1001
0000
0001
0100
,
0001
0000
0010
0000
,
0110
0000
0001
0010
,
0001
0000
0100
0000
,
1001
0000
1000
0010
,
1000
0000
0100
0000
,
0010
0000
0001
0000
,
0200
0000
0000
0300
,
1000
0000
0010
0000
,
0002
0000
0000
0003
,
0100
0000
0001
0000
,
0010
1000
1000
0000
,
0001
0000
0010
0000
,
2000
0000
0000
3000
,
1001
0000
0010
0000
,
1000
0000
0100
0010
,
0001
0000
1000
0000
,
0001
0000
0100
0000
,
0110
0000
0010
1000
,
0100
0000
0010
0000
,
0001
0000
0010
0001
,
1000
0000
0001
0000
,
1000
0000
0010
0000
,
0001
0100
0001
0000
,
0100
0000
0010
0000
,
0100
0001
0010
0000
,
0100
0000
1000
0000
,
0010
0000
0100
0000
,
0001
0000
0100
0000
,
0010
0000
1000
0000
,
0110
0000
1000
0000
,
0001
0010
0100
0000
,
1001
0000
0001
0000
,
0100
0100
0010
0000
,
0110
0000
1000
0000
,
1001
0000
0001
0000
,
0110
0000
1001
0000
,
0110
0000
1001
0000
;

//---------------dance-single - ----------------
#NOTES:
     dance-single:
     :
     Medium:
     6:
     :
0000
0000
0000
0000
,
0000
0000
0000
0000
,
0000
0000
0000
0000
,
0000
0000
0000
0000
,
0000
0000
0000
0000
,
0101
0000
0000
0101
0000
0000
0000
0000
,
1000
0001
0100
0000
,
1001
0000
0000
1010
0000
0000
0000
0000
,
0001
0000
0010
0000
0100
2000
0000
0000
,
3001
0000
0000
0101
0000
0000
0000
0000
,
1000
0000
0100
0010
0001
0000
1000
0000
,
0011
0000
0000
0101
0000
0000
0100
0000
,
0020
0000
0000
0000
0000
0000
1000
0000
0000
1000
0000
0000
1030
0000
0000
0000
,
0100
0000
0001
0010
0100
0000
1000
0000
,
0020
0000
0000
0230
0000
0000
0301
0000
,
1000
0000
0100
0010
0001
1000
0000
0000
,
1100
0000
0000
0010
0200
0000
0000
0000
,
0301
0000
1000
0000
0010
0100
0001
0000
,
1020
0000
0000
0230
0000
0000
0000
0000
,
0301
0000
0001
0100
1000
0000
1000
0100
,
0001
0010
1100
0000
,
0000
0200
0000
0320
,
0032
0000
0203
0000
,
2300
0000
0100
0000
,
3100
0000
0010
0000
1000
0010
0100
0000
,
0002
0100
0010
1000
,
0203
1000
0001
0010
,
0320
1000
0001
0100
,
0032
1000
0100
0010
,
1003
1000
0001
0000
0010
0000
0100
0000
,
1000
0010
0100
0100
,
0001
0001
0010
0000
0100
0000
1000
0000
,
0002
0013
0200
1300
,
0100
0100
1000
0000
0010
0000
0100
0000
,
0001
0001
0100
0100
,
0010
0010
1000
0000
0010
0000
0100
0000
,
0001
0100
0010
0000
2000
0000
0000
0000
,
3100
0000
0001
0010
0100
0000
1000
0000
,
0020
0000
0000
0230
0000
0000
0301
0000
,
1000
0000
0100
0010
0001
1000
0000
0000
,
1100
0000
0000
0010
0100
0000
0000
0000
,
0001
0000
1000
0000
0010
0100
0001
0000
,
1020
0000
0000
0230
0000
0000
0000
0000
,
0301
0000
0001
0100
1000
0000
1000
0100
,
0001
0010
1100
0000
,
0000
0200
0000
0320
,
0032
0000
0203
0000
,
2300
0000
0100
0000
,
3100
0000
0010
0000
1000
0010
0100
0000
,
0002
0100
0010
1000
,
0203
1000
0001
0010
,
0320
1000
0001
0100
,
1030
0010
0100
0001
,
0010
0001
0010
0000
1000
0000
0010
0000
,
0100
0000
1000
0000
0001
0010
0001
0000
,
0100
0000
0010
0000
1000
0010
1000
0000
,
0100
0000
0010
0000
0001
0100
0001
0000
,
1000
0000
0010
0100
0010
0000
0001
0000
,
0020
0000
2030
0000
,
3200
1000
1000
1000
,
0310
0000
0001
0000
0100
0001
0100
0000
,
1010
0000
0101
0000
0000
0010
0000
0010
,
0001
1000
0100
0000
1000
0001
0010
0000
,
1100
0000
0011
0000
0000
0100
0000
0100
,
0010
1000
0001
0100
1000
0100
0001
0000
,
0011
0000
1100
0000
0000
0100
0000
0001
,
1010
0000
0110
0000
0000
0100
0000
1000
,
1010
0001
0101
1000
,
0110
1001
1100
0022
,
0000
0033
0000
0000
;

//---------------dance-single - ----------------
#NOTES:
     dance-single:
     :
     Hard:
     8:
     :
0000
0000
0000
0000
,
0000
0000
0000
0000
,
0000
0000
0000
0000
,
0000
0000
0000
0000
,
0000
0000
0000
0000
,
0000
0000
0001
0100
1000
0100
0000
2010
,
0000
0000
3100
0010
0000
0001
0000
1000
,
0010
0000
0100
0001
0010
0100
0000
2001
,
0000
0000
3100
0010
0100
1000
0010
0000
,
0100
0000
0001
0010
1000
0010
0000
0002
,
0000
0000
0013
0100
0000
1000
0001
0000
,
0010
0000
0100
1000
0100
0001
0000
0201
,
0000
0000
0000
0000
0000
0000
0010
0000
0000
0010
0000
0000
0310
0000
0000
0000
,
0100
0000
1000
0100
1000
0000
0001
0010
,
0001
0000
0100
0010
0100
0000
0010
0000
,
1000
0000
0201
0000
0000
0320
0000
0000
,
1030
0000
0100
0010
0001
1000
0100
0000
,
0001
0000
1000
0010
1000
0000
0001
0000
,
0100
0000
1000
0100
1000
0000
0001
0000
,
1000
0000
0100
1000
0010
0000
1000
0010
,
0001
0000
1000
0010
1000
0000
0100
0000
,
0020
0000
0000
0130
1000
0000
0010
0000
,
0002
0000
0000
0013
0100
0000
1000
0000
,
0020
0000
0000
0130
0001
0000
0010
0000
,
0200
0000
0000
1300
0010
0100
0001
0010
,
2000
0000
0000
3010
0100
0000
1000
0000
,
0020
0000
0000
0031
0010
0000
1000
0100
,
0002
0000
0000
0103
0010
0000
1000
0000
,
0020
0000
0000
0031
1000
0100
0001
0000
,
0100
0010
1010
0000
0000
1000
0000
0010
,
0100
0010
1000
0001
0100
0010
1000
0000
,
0001
0010
0101
0000
0000
0100
0000
2020
,
0000
0000
3030
0000
0002
0000
0103
0010
,
1000
0010
1001
0000
0000
0011
0000
2100
,
0000
0000
3010
0101
,
0010
0100
0101
0000
0000
0110
0000
1020
,
0000
0000
0130
1000
0100
0001
0010
0000
,
0100
0000
0001
0010
0001
0000
1000
0100
,
1000
0000
0010
0100
0010
0000
0100
0000
,
0001
0000
1020
0000
0000
0230
0000
0000
,
0301
0000
0010
0100
1000
0001
0010
0000
,
1000
0000
0001
0100
0001
0000
1000
0000
,
0010
0000
0001
0010
0001
0000
1000
0000
,
0001
0000
0010
0001
0100
0000
0001
0100
,
1000
0000
0001
0100
0001
0000
0010
0000
,
0200
0000
0000
0301
0010
0000
0100
0000
,
2000
0000
0000
3100
0010
0000
0001
0000
,
0200
0000
0000
0310
1000
0000
0100
0000
,
0020
0000
0000
0031
0100
0010
1000
0100
,
0002
0000
0000
0103
0010
0000
0001
0000
,
0200
0000
0000
1300
0100
0000
0001
0010
,
2000
0000
0000
3010
0100
0000
0001
0000
,
0200
0000
0000
1300
0001
0010
1000
0000
,
0010
0000
0000
0100
1000
1000
0000
0100
,
0000
0010
0000
0001
0000
0100
0020
0000
,
0031
0000
1000
0100
0010
0001
0000
1010
,
0000
0000
0000
0000
0010
0001
0010
0000
,
1000
0000
0100
0001
0100
0000
1000
0000
,
0010
0000
0100
0001
0200
0000
1000
0000
,
0320
0100
1000
0031
,
0010
0000
1000
0010
1000
0000
0100
0000
,
0010
0100
0011
0000
0000
0100
0000
0001
,
1000
0000
0010
0100
0000
0100
0001
0000
,
0001
0100
1100
0000
0000
0010
0000
0100
,
1000
0000
0010
0100
0000
0001
0010
0000
,
0001
1000
0101
0000
0000
0010
0000
0100
,
1000
0010
1100
0000
0000
0100
0000
0010
,
0001
1000
0001
0000
0100
0000
0000
0000
0010
0100
0010
0000
0001
0000
0000
0000
,
0001
0100
0001
0000
1000
0010
1000
0000
0010
0100
0010
0000
0100
0001
0100
0000
;

//---------------dance-double - ----------------
#NOTES:
     dance-double:
     :
     Beginner:
     1:
     :
00000000
00000000
00000000
00000000
,
00000000
00000000
00000000
00000000
,
00000000
00000000
00000000
00000000
,
00000000
00000000
00000000
00000000
,
00000000
00000000
00000000
00000000
,
00001000
00000000
00000000
00000000
,
00100000
00000000
00000000
00000000
,
10000000
00000000
00000000
00000000
,
00010000
00000000
00000000
00000000
,
00001000
00000000
00000000
00000000
,
00000100
00000000
00000000
00000000
,
00000001
00000000
00000000
00000000
,
00000010
00000000
00000000
00000000
,
00000100
00000000
00000000
00000000
,
00010000
00000000
00000000
00000000
,
00001000
00000000
00000000
00000000
,
01000000
00000000
00000000
00000000
,
00010000
00000000
00000000
00000000
,
00100000
00000000
00000000
00000000
,
10000000
00000000
00000000
00000000
,
00100000
00000000
00000000
00000000
,
00001000
00000000
00000000
00000000
,
00000010
00000000
00000000
00000000
,
00000001
00000000
00000000
00000000
,
00000100
00000000
00000000
00000000
,
00001000
00000000
00000000
00000000
,
00010000
00000000
00000000
00000000
,
00100000
00000000
00000000
00000000
,
10000000
00000000
00000000
00000000
,
01100000
00000000
00000000
00000000
,
00010000
00000000
00000000
00000000
,
00011000
00000000
00000000
00000000
,
00000100
00000000
00000000
00000000
,
00000110
00000000
00000000
00000000
,
00000001
00000000
00000000
00000000
,
00001001
00000000
00000000
00000000
,
00010000
00000000
00000000
00000000
,
00100000
00000000
00000000
00000000
,
01000000
00000000
00000000
00000000
,
10000000
00000000
00000000
00000000
,
01000000
00000000
00000000
00000000
,
00010000
00000000
00000000
00000000
,
00001000
00000000
00000000
00000000
,
00000010
00000000
00000000
00000000
,
00000001
00000000
00000000
00000000
,
00000100
00000000
00000000
00000000
,
00000010
00000000
00000000
00000000
,
00001000
00000000
00000000
00000000
,
00010000
00000000
00000000
00000000
,
01000000
00000000
00000000
00000000
,
00010000
00000000
00000000
00000000
,
10000000
00000000
00000000
00000000
,
00100000
00000000
00000000
00000000
,
00001000
00000000
00000000
00000000
,
00010000
00000000
00000000
00000000
,
00000100
00000000
00000000
00000000
,
00000001
00000000
00000000
00000000
,
00000100
00000000
00000000
00000000
,
00010000
00000000
00000000
00000000
,
00001000
00000000
00000000
00000000
,
00100000
00000000
00000000
00000000
,
01100000
00000000
00000000
00000000
,
10000000
00000000
00000000
00000000
,
10010000
00000000
00000000
00000000
,
00010000
00000000
00000000
00000000
,
00011000
00000000
00000000
00000000
,
00000110
00000000
00000000
00000000
,
00001001
00000000
00000000
00000000
,
00000110
00000000
00000000
00000000
;

//---------------dance-double - ----------------
#NOTES:
     dance-double:
     :
     Easy:
     4:
     :
00000000
00000000
00000000
00000000
,
00000000
00000000
00000000
00000000
,
00000000
00000000
00000000
00000000
,
00000000
00000000
00000000
00000000
,
00000000
00000000
00000000
00000000
,
10000000
00000000
01000000
00000000
,
00100000
00000000
00000000
00000000
,
00010000
00000000
00001000
00000000
,
00000010
00000000
00000000
00000000
,
00001000
00000000
00000001
00000000
,
00000100
00000000
00001000
00000000
,
00010000
00000000
01000000
00000000
,
10000000
01000000
00100000
00000000
,
00010000
00000000
01000000
00000000
,
00002000
00000000
00000000
00000000
,
00013000
00000000
00001000
00000000
,
00000020
00000000
00000000
00000000
,
00000130
00000000
00001000
00000000
,
00000020
00000000
00000000
00000000
,
00000031
00000000
00000010
00000000
,
00001000
00000000
00000100
00000000
,
00010000
00000000
00001000
00000000
,
00100000
00000000
01000000
10000000
,
00010000
00000000
00100000
00000000
,
00001000
00000000
00010000
00000010
,
00000010
00000000
00000100
00000000
,
00001000
00000000
00000001
00000000
,
00000010
00000000
00000100
00000000
,
00001000
00000000
00010000
00000000
,
01100000
00000000
00000000
00000000
,
10000000
01000000
00100000
00000000
,
00011000
00000000
00000000
00000000
,
00000100
00000010
00000001
00000000
,
00001001
00000000
00000000
00000000
,
00000100
00001000
00010000
00000000
,
10010000
00000000
00000000
00000000
,
01000000
10000000
01000000
00000000
,
00010000
00000000
00000010
00000000
,
00000100
00000000
00000001
00000000
,
00000010
00000000
00000001
00000000
,
00000200
00000000
00000000
00000000
,
00001300
00000000
00010000
00000000
,
00200000
00000000
00000000
00000000
,
10300000
00000000
01000000
00000000
,
00010000
00000000
00100000
00000000
,
00001000
00000000
00010000
00000000
,
00000100
00000000
00000010
00000001
,
00001000
00000000
00000100
00000000
,
00010000
00000000
00001000
01000000
,
01000000
00000000
00100000
00000000
,
10000000
00000000
01000000
00000000
,
00010000
00000000
00001000
00000000
,
00000010
00000000
00000100
00000000
,
00000110
00000000
00000001
00000000
,
00000100
00000000
00001000
00000010
,
00000100
00000000
00001000
00000000
,
00010000
00100000
10000000
00000000
,
01000000
00000000
00010000
00000000
,
00001000
00000000
00010000
00001000
,
00010000
00000000
00001000
00000000
,
00000100
00000000
00000001
00000000
,
00001001
00000000
00000100
00001000
,
00010000
00000000
00100000
00000000
,
10010000
00000000
01000000
00010000
,
10000000
00000000
00100000
00000000
,
10010000
00000000
00000000
00000000
,
00011000
00000000
00000000
00000000
,
00001001
00000000
00000100
00000000
,
00001000
00010000
00100000
10000000
;

//---------------dance-double - ----------------
#NOTES:
     dance-double:
     :
     Medium:
     6:
     :
00000000
00000000
00000000
00000000
,
00000000
00000000
00000000
00000000
,
00000000
00000000
00000000
00000000
,
00000000
00000000
00000000
00000000
,
00000000
00000000
00000000
00000000
,
00000100
00000000
00000001
00000000
,
00000100
00001000
00010000
00000000
,
00100000
00000000
10000000
01000000
,
10000000
00000000
00100000
00000000
,
10000000
00000000
01000000
00000000
,
00010000
00001000
00000100
00000000
,
00000001
00000100
00001000
00010000
,
00001000
00100000
01000000
10000000
,
01000000
00010000
00001000
00000000
,
00000010
00000100
00001000
00000000
,
00010000
00100000
10000000
00000000
,
01100000
00000000
00000000
00000000
00010000
00100000
00001000
00000000
,
00010000
01000000
10000000
01000000
,
00010000
00001000
00000010
00000000
,
00001000
00000010
00000001
00000000
,
00000100
00000000
00000010
00000000
00001000
00000001
00000010
00000000
,
00000110
00000000
00001000
00000000
00000001
00000010
00000000
00000100
,
00010000
00001000
01000000
00010000
,
01000000
10000000
01000000
00010000
,
00100000
11000000
00100000
00010000
,
00100000
00000000
01000000
00000000
10000000
01000000
00000000
01000000
,
00010000
00001000
00000010
00000001
,
00000100
00000000
00001000
00000000
00001000
00010000
00000000
00010000
,
00100000
10000000
01000000
00010000
,
00010000
00000000
11000000
00000000
00000000
00100000
00000000
00002000
,
00000000
00000000
00023000
00000000
,
00030100
00000000
00001010
00000000
00000000
00000100
00000000
00000002
,
00000000
00000000
00000023
00000000
,
00000130
00000110
00000000
00000100
,
00010000
00000000
00001000
00000000
00100000
01000000
00100000
00000000
,
10000000
11000000
00000000
10000000
,
01000000
00010000
01000000
00000000
,
00010000
01000000
10000000
00000000
,
01000000
00000000
00100000
00000000
00001000
00010000
00000100
00000000
,
00001000
00000100
00000001
00000000
,
00001001
00000000
00000000
00000000
,
00000100
00001000
00010000
00000000
,
00010000
01000000
10000000
00000000
,
00010000
00100000
10000000
00000000
,
00100000
00000000
01000000
00000000
10000000
01000000
10000000
00000000
,
00100000
00000000
10000000
00100000
00010000
00000000
00001000
00000000
,
00010000
01000000
00010000
00001000
,
00000010
00000000
00000001
00000100
00001000
00000000
00000100
00000000
,
00000001
00000100
00001000
00010000
,
00100000
00000000
10000000
00100000
10000000
00000000
01000000
00000000
,
00100000
00001000
00010000
00100000
,
10000000
01000000
00010000
00001000
,
00000100
00000001
00000020
00000000
,
00001030
00000000
00000001
00000000
00000100
00000001
00000010
00000000
,
00000100
00010000
00001000
00000100
,
00000001
00000000
00000100
00001000
00010000
00000000
00100000
00000000
,
20000000
00000000
31000000
00100000
,
00110000
01000000
10000000
01000000
,
00220000
00000000
00000000
00330000
00022000
00000000
00000000
00033000
,
00020020
00000000
00000000
00000000
,
00000000
00000000
00000000
00030000
00000200
00000000
00000000
00000330
,
00000001
00000000
00001010
00000000
00000000
00000100
00000000
00000100
,
00000001
00000100
00001000
00010000
,
01000000
00000000
10100000
00000000
00000000
01000000
00000000
01000000
,
00100000
00010000
00001000
00000010
,
00000001
00001010
00000000
00000100
,
00010100
00010000
00000000
00001000
,
01001000
00100000
10010000
00100000
,
00011000
00010100
00001001
00000202
,
00000000
00000303
00000000
00000000
;

//---------------dance-double - ----------------
#NOTES:
     dance-double:
     :
     Hard:
     8:
     :
00000000
00000000
00000000
00000000
,
00000000
00000000
00000000
00000000
,
00000000
00000000
00000000
00000000
,
00000000
00000000
00000000
00000000
,
00000000
00000000
00000000
00000000
,
00000010
00000000
00000000
00001000
00000100
00000000
00000010
00000000
,
00000001
00000000
00000000
00000100
00001000
00000000
00010000
00000000
,
01000000
00000000
00000000
10000000
00100000
00000000
01000000
00000000
,
00010000
00000000
00000000
10000000
01000000
00000000
00100000
01000000
,
00010000
00000000
00000000
00001000
00000010
00000000
00000100
00000000
,
00000010
00000000
00000000
00000001
00000010
00000000
00001000
00000000
,
00010000
00000000
00000000
01000000
10000000
00000000
00100000
00000000
,
00020000
00000000
00000000
00000000
00000000
00000000
00031000
00000000
00000000
00000010
00000000
00000000
00000001
00000000
00000000
00000000
,
00000101
00000000
00000100
00001000
00010000
00000000
00100000
00000000
,
01000000
00000000
10000000
01000000
00010000
00000000
00020000
00000000
,
00130000
00000000
01000000
00010000
00001000
00000000
00000010
00000000
,
00000001
00000000
00000100
00001000
00000100
00000001
00000010
00000000
,
00000001
00000000
00000100
00001000
00010000
00000000
00001000
00000000
,
00020000
00000000
01030000
10000000
00010000
00100000
01000000
00000000
,
10000000
00000000
00100000
10000000
01000000
00000000
00010000
00000000
,
00011000
00000000
00000100
00010000
00000000
00000010
00000100
00000000
,
00000020
00000000
00000000
00001030
00000100
00000000
00000010
00000001
,
00002000
00000000
00000000
00003100
00000010
00000000
00000001
00000010
,
00002000
00000000
00000000
00013000
00001000
00000000
00010000
00100000
,
20000000
00000000
00000000
31000000
00100000
00010000
01000000
10000000
,
02000000
00000000
00000000
03100000
10000000
00000000
00100000
00010000
,
00001000
00000000
00001000
00000100
00000001
00000000
00000100
00000000
,
00000010
00000000
00000100
00001000
00010000
00001000
00010000
00100000
,
10000000
00000000
01000000
00100000
00020000
00000000
10000000
00000000
,
01030000
00010000
01001000
00000000
00000000
00001000
00000000
00001000
,
00010000
00000000
00001000
00000010
00000001
00001000
00000010
00000000
,
00000100
00000001
00001010
00000000
00000000
00000100
00000000
00000100
,
00001000
00000000
00010000
00001000
00010000
01000000
10000000
00100000
,
01000000
00001000
00101000
00000000
00000000
00010200
00000000
00001300
,
00000010
00000001
00000010
00000000
00000100
00001000
00010000
00000000
,
00100000
10000000
01010000
00000000
00000000
10000000
00000000
01000000
,
00010000
00001000
00010000
01000000
,
10100000
00000000
00100000
00010000
00001000
00000000
00000100
00000000
,
00000010
00000000
00000001
00000010
00001000
00000000
00002000
00000000
,
00003100
00000000
00000010
00001000
00010000
00000000
01000000
00000000
,
10000000
00000000
00100000
00010000
00100000
10000000
01000000
00000000
,
10000000
00000000
00100000
00010000
00001000
00000000
00010000
00000000
,
00002000
00000000
00003010
00000001
00001000
00000100
00000010
00000000
,
00000001
00000000
00000100
00000001
00000010
00000000
00001000
00000000
,
00011000
00000000
00010000
00100000
00000000
00100000
10000000
00000000
,
02000000
00000000
00000000
03010000
01000000
00000000
01000000
10000000
,
00020000
00000000
00000000
00130000
01000000
00000000
10000000
01000000
,
00020000
00000000
00000000
00031000
00010000
00000000
00001000
00000100
,
00000002
00000000
00000000
00000013
00000100
00001000
00000010
00000001
,
00000020
00000000
00000000
00000130
00000001
00000000
00000100
00001000
,
00010000
00000000
00010000
00100000
10000000
00000000
00100000
00000000
,
01000000
00000000
00100000
00010000
00001000
00010000
00001000
00000100
,
00000001
00000000
00000010
00000100
00002000
00000000
00000000
00000000
,
00003020
00000000
00000130
00001000
00010000
00000000
01000000
10000000
,
00010000
00000000
00100000
10000000
00100000
00000000
01000000
00010000
,
00001000
00000000
00001000
00000100
00000001
00000000
00000100
00000001
,
00000010
00000000
00000010
00001000
00010000
00000000
00001000
00010000
,
00100000
01000000
10000000
01010000
,
00201000
00000000
02300000
00000000
,
03010000
00001000
00000000
00010000
00000000
00000100
00000000
00001000
,
00000000
00000010
00000000
00000100
00000000
00000010
00001000
00000000
,
00000010
00010000
00001010
00000000
00000000
00000101
00000000
00000001
,
00000010
00000100
00001000
00000001
00000100
00001000
00010000
00000000
,
00001000
01000000
01010000
00000000
00000000
11000000
00000000
01000000
,
10000000
01000000
00010000
01000000
10000000
00100000
00010000
00000000
,
00001000
00000010
00001010
00000000
00000000
00000001
00000000
00000100
,
00001000
00010000
00011000
00000000
00000000
00100000
00000000
01000000
,
10000000
01010000
00001000
00010100
,
00001010
00000101
00000011
00001001
;
