
//----- song ID: takm -----//
#TITLE:Take Me Out;
#ARTIST:Franz Ferdinand;
#BANNER:Take Me Out.png;
#BACKGROUND:Take Me Out-bg.png;
#CDTITLE:./CDTITLES/DanceDanceRevolution UNIVERSE2.png;
#MUSIC:Take Me Out.ogg;
#SAMPLESTART:29.928;
#SAMPLELENGTH:15;
#DISPLAYBPM:105;
#BPMS:0=104.05,20=105.57,36=105.65,52=104.8,68=104.2,84=105.49,100=104.73,116=104.88,132=102.86,136=105.88,140=107.62,148=107.78,164=107.46,172=104.96,176=103.45,180=105.11,188=105.3;
#BGCHANGES:0=Take Me Out-bg.png=1=0=0=1,4=Take Me Out.avi=1=0=0=0;

//---------------dance-single - ----------------
#NOTES:
     dance-single:
     :
     Beginner:
     1:
     :
0000
0000
0000
0000
,
0000
0000
0000
0000
,
0000
0000
0000
0000
,
0010
0000
0010
0000
,
0100
0000
0100
0000
,
0001
0000
0000
0000
,
0001
0000
0000
0000
,
1000
0000
0000
0000
,
1000
0000
0000
0000
,
0010
0000
0000
0000
,
0010
0000
0000
0000
,
0100
0000
0000
0000
,
0100
0000
0000
0000
,
0001
0001
0000
0000
,
0010
0010
0000
0000
,
0100
0100
0000
0000
,
1000
1000
0000
0000
,
1001
0000
0000
0000
,
1001
0000
0000
0000
,
0110
0000
0000
0000
,
0110
0000
0000
0000
,
0010
0000
0000
0000
,
0100
0000
0000
0000
,
0001
0000
0000
0000
,
1000
0000
0000
0000
,
0010
0010
0000
0000
,
0100
0100
0000
0000
,
0001
0001
0000
0000
,
1000
1000
0000
0000
,
0010
0010
0000
0000
,
1000
1000
0000
0000
,
0001
0001
0000
0000
,
0100
0100
0000
0000
,
0010
0000
0010
0000
,
0100
0000
0100
0000
,
0001
0000
0001
0000
,
0001
0000
0000
0000
,
0010
0000
0010
0000
,
0010
0000
0000
0000
,
0100
0000
0100
0000
,
0100
0000
0000
0000
,
1000
0000
1000
0000
,
1000
0000
0000
0000
,
0010
0000
0000
0000
,
0100
0000
0000
0000
,
0001
0000
0000
0000
,
1000
0000
0000
0000
,
1001
0000
0000
0000
;

//---------------dance-single - ----------------
#NOTES:
     dance-single:
     :
     Easy:
     4:
     :
0000
0000
0000
0000
,
0000
0000
0000
0000
,
0000
0000
0000
0000
,
0010
0001
0100
1001
,
0010
1000
0100
1001
,
0010
0100
0010
1001
,
0001
1000
0001
0110
,
1000
0100
1000
0010
,
0001
0100
0010
0001
,
0010
1000
0100
0110
,
0001
0100
1000
1001
,
0100
0001
0010
0110
,
1000
0001
1000
0110
,
0010
1000
0001
0110
,
0100
0001
1000
0110
,
0010
0100
0001
1001
,
0100
0010
1000
1001
,
1000
0100
0010
0110
,
0001
0010
0100
0110
,
0010
1000
0010
0100
,
0010
0001
0010
0100
,
0001
1000
0001
0010
,
0100
0010
0100
1000
,
0100
0010
0100
0001
,
0001
1000
0001
0100
,
0010
0001
1000
0001
,
0010
1000
0100
0001
,
0100
0010
0100
1000
,
0100
0010
0100
0001
,
0010
1001
0100
0110
,
0100
1001
0010
0110
,
0001
0110
1000
0001
,
1000
0010
0001
0010
,
1000
1001
0100
1001
,
0110
1001
1001
0110
,
0010
1000
0100
0001
,
0010
0100
0010
0100
,
0100
0001
0010
1000
,
0100
0001
1000
0001
,
1000
0100
0001
0010
,
1000
0001
1000
0100
,
0001
0010
1000
0100
,
0001
1000
0010
0110
,
1000
0001
0010
0010
,
0100
1000
0001
0001
,
1000
0010
0100
0100
,
0010
0100
0001
0001
,
0220
0000
0000
0000
,
0000
0000
0000
0330
;

//---------------dance-single - ----------------
#NOTES:
     dance-single:
     :
     Medium:
     6:
     :
0000
0000
0000
0000
,
0000
0000
0000
0000
,
0000
0000
0000
0000
,
0010
0000
1000
0000
1001
0000
1001
0100
,
0010
0000
0001
0000
1001
0000
1001
0100
,
0010
0000
0100
0000
0001
1000
0110
0000
,
0001
0000
1000
0000
0010
0100
1001
0000
,
0010
0000
1000
0000
0100
0001
0011
0000
,
0010
0000
0001
0000
0100
1000
1010
0000
,
0010
0000
1000
0000
0001
0010
1001
0000
,
0010
0000
0001
0000
1000
0100
1001
0000
,
0100
0000
0010
0000
1000
0001
1001
0000
,
0101
1100
0101
1010
,
0000
0001
0010
0000
0100
1000
0001
0000
,
0000
1000
0010
0000
0100
0001
1000
0000
,
0000
0010
0100
0000
0001
0010
1000
0000
,
1010
0000
0011
0000
0001
0000
0100
1000
,
0000
0100
0001
0000
1000
0010
0100
0000
,
0000
1000
0100
0000
0010
0100
0001
0000
,
0000
1000
0001
0000
1000
0010
0001
0000
,
0011
0000
1010
0000
1000
0000
0100
0001
,
0100
1000
0010
0000
0001
0010
1010
0000
,
1000
0100
0001
0000
0100
1000
1010
0000
,
0010
1000
0100
0000
0010
0001
0101
0000
,
0001
0100
1000
0000
0001
0010
1010
0000
,
0000
0010
1000
0001
0100
0010
1001
0000
,
0000
0010
0100
1000
0001
0100
1010
0000
,
0000
0010
0001
1000
0010
0100
1001
0000
,
0101
0000
1100
0000
0010
0000
1001
1001
,
0000
0001
0010
0100
1000
0001
0110
0000
,
0000
0001
1000
0100
0010
0001
1100
0000
,
0000
0001
0100
0010
1000
0001
0110
0000
,
1100
0000
0101
0000
0010
0000
1001
1001
,
0010
1000
1100
0101
,
0010
0001
0101
1100
,
0100
0000
1000
0000
0010
0000
0001
0010
,
1000
0000
0010
0000
0001
0000
0010
1000
,
0001
0000
0010
0000
1000
0000
0010
0001
,
0100
0000
0001
0000
0010
0000
1000
0010
,
0001
0000
0100
0000
1000
0000
0100
0001
,
0010
0000
0001
0000
0100
0000
1000
0100
,
0001
0000
0010
0000
1000
0000
0010
0001
,
0100
0000
0001
0000
0010
0000
1000
0010
,
0001
0000
1001
0000
1000
0010
1010
0000
,
0010
0000
0110
0000
0100
0001
0101
0000
,
0001
0000
0011
0000
0010
0100
0110
0000
,
0100
0000
1100
0000
1000
0001
1001
0000
,
0220
0000
0000
0000
,
0000
0000
0000
0330
;

//---------------dance-single - ----------------
#NOTES:
     dance-single:
     :
     Hard:
     9:
     :
0000
0000
0000
0000
,
0000
0000
0000
0000
,
0000
0000
0000
0000
,
1000
0000
0000
0000
1010
0000
0000
0000
1001
0000
1000
0100
1000
0001
1000
0010
,
0100
0000
0000
0000
1100
0000
0000
0000
0110
0000
0100
0001
0100
0010
0100
1000
,
0100
0000
0001
0000
1010
0000
0100
0001
0010
0000
0100
0000
1001
0000
0000
0000
,
0100
0000
1000
0000
0011
0000
0100
1000
0010
0000
0100
0000
1001
0000
0000
0000
,
0010
0000
0100
0000
1001
0000
0100
0010
0001
0000
1000
0000
0110
0000
0000
0000
,
0001
0000
1000
0010
0100
1000
0100
0010
1000
0100
0001
0100
0010
0001
0100
0010
,
0001
0000
0010
0000
1001
0000
0100
0010
1000
0000
0001
0000
0110
0000
0000
0000
,
1000
0000
0010
0000
1001
0000
0100
0010
0001
0000
1000
0000
0110
0000
0000
0000
,
0001
0000
1000
0000
0110
0000
1000
0001
0100
0000
0010
0000
1001
0000
0000
0000
,
0001
0000
1000
0100
0010
1000
0010
0100
1000
0010
0001
0010
0100
0001
0010
0100
,
0001
0100
1100
0001
0100
0010
1010
0000
,
0010
1000
1100
0010
1000
0001
0101
0000
,
0100
0001
0011
1000
0010
0100
0101
0000
,
0001
0010
0110
1000
1001
0100
0110
1001
,
1000
0100
0101
1000
0100
0010
0011
0000
,
0010
0001
0101
0010
0001
1000
1100
0000
,
0100
1000
1010
0001
0010
0100
1100
0000
,
1000
0010
0110
0001
1001
0100
0110
1001
,
0010
0000
1000
0000
0101
0000
0100
0001
0010
0000
1000
0000
1010
0000
0000
0000
,
0010
0000
0001
0000
1100
0000
0100
1000
0010
0000
0001
0000
0011
0000
0000
0000
,
0010
0000
0100
0000
1001
0000
0100
0010
1000
0000
0001
0000
0110
0000
0000
0000
,
0100
0000
0001
0010
1000
0010
0001
1000
0010
0001
0010
1000
0001
0100
1000
0100
,
0001
0000
0010
0001
0100
0000
0001
0000
1000
0100
0001
0000
0100
0000
0000
0000
,
1000
0000
0010
1000
0100
0000
1000
0000
0001
0100
1000
0000
0100
0000
0000
0000
,
0010
0000
0100
0001
1000
0000
0100
0000
1000
0001
0010
0000
0100
0000
0000
0000
,
1000
0000
0010
0100
1000
0000
0100
0000
0001
0010
0100
0000
0001
0100
1000
0000
,
0001
0000
0100
0001
0010
0000
0001
0000
1000
0010
0001
0000
0010
0000
0000
0000
,
1000
0000
0100
1000
0010
0000
1000
0000
0001
0010
1000
0000
0010
0000
0000
0000
,
0100
0000
0010
0001
1000
0000
0010
0000
1000
0001
0100
0000
0010
0000
0000
0000
,
1000
0000
0100
0010
1000
0000
0010
0000
0001
0100
0010
0000
0001
0010
1000
0000
,
0001
0000
0000
0000
0101
0000
0000
0000
1001
0000
0000
0011
0000
0100
1000
0000
,
1000
0000
0000
0000
1100
0000
0000
0000
1001
0000
1000
0010
1000
0001
1000
0100
,
1000
1000
0010
0010
0100
0100
0001
0001
,
1000
0010
0000
1000
0100
0000
0010
0000
0001
0100
0000
0001
0010
0000
0100
0000
,
0001
0001
0100
0100
1000
1000
0010
0010
,
0001
0010
0000
1000
0010
0000
0100
0000
1000
0100
0000
0001
0100
0000
0010
0000
,
1000
1000
0100
0100
0010
0010
0001
0001
,
1000
0100
0000
1000
0010
0000
0100
0000
0001
0010
0000
0001
0100
0000
0010
0000
,
0001
0001
0010
0010
1000
1000
0100
0100
,
0001
0100
0000
1000
0100
0000
0010
0000
1000
0010
0000
0001
0010
0000
0100
0000
,
1000
0000
0001
0000
0110
0000
1000
0010
0001
0000
1000
0000
1100
0000
0000
0000
,
0001
0000
1000
0000
0110
0000
1000
0100
0001
0000
1000
0000
1010
0000
0000
0000
,
0010
0000
1000
0000
0101
0000
0010
1000
0100
0000
0010
0000
0011
0000
0000
0000
,
1001
0000
1000
0100
0001
1000
0010
0001
1000
0010
0100
1000
0100
0010
1000
0100
,
0020
0000
0000
0000
,
0000
0000
0000
0030
;

//---------------dance-double - ----------------
#NOTES:
     dance-double:
     :
     Beginner:
     1:
     :
00000000
00000000
00000000
00000000
,
00000000
00000000
00000000
00000000
,
00000000
00000000
00000000
00000000
,
00001000
00001000
00000000
00000000
,
00010000
00010000
00000000
00000000
,
00100000
00000000
00000000
00000000
,
10000000
00000000
00000000
00000000
,
01000000
00000000
00000000
00000000
,
00010000
00000000
00000000
00000000
,
00001000
00000000
00000000
00000000
,
00000100
00000000
00000000
00000000
,
00000001
00000000
00000000
00000000
,
00000010
00000000
00000000
00000000
,
00001000
00000000
00001000
00000000
,
00000100
00000000
00000100
00000000
,
00000010
00000000
00000010
00000000
,
00001000
00000000
00001000
00000000
,
00010000
00000000
00010000
00000000
,
00100000
00000000
00100000
00000000
,
01000000
00000000
01000000
00000000
,
00010000
00000000
00010000
00000000
,
00100000
00100000
00000000
00000000
,
01000000
01000000
00000000
00000000
,
10000000
10000000
00000000
00000000
,
00010000
00010000
00000000
00000000
,
00100000
00000000
00000000
00000000
,
00001000
00000000
00000000
00000000
,
00010000
00000000
00000000
00000000
,
00000010
00000000
00000000
00000000
,
00000100
00000000
00000000
00000000
,
00001000
00000000
00000000
00000000
,
00010000
00000000
00000000
00000000
,
01000000
00000000
00000000
00000000
,
00010000
00010000
00010000
00000000
,
00001000
00001000
00001000
00000000
,
00000010
00000000
00000000
00000000
,
00000001
00000000
00000000
00000000
,
00000100
00000000
00000000
00000000
,
00001000
00000000
00000000
00000000
,
00010000
00000000
00000000
00000000
,
00100000
00000000
00000000
00000000
,
10000000
00000000
00000000
00000000
,
01000000
00000000
00000000
00000000
,
00010000
00000000
00000000
00000000
,
00001000
00000000
00000000
00000000
,
00010000
00000000
00000000
00000000
,
00001000
00000000
00000000
00000000
,
00022000
00000000
00000000
00000000
,
00000000
00000000
00000000
00033000
;

//---------------dance-double - ----------------
#NOTES:
     dance-double:
     :
     Easy:
     4:
     :
00000000
00000000
00000000
00000000
,
00000000
00000000
00000000
00000000
,
00000000
00000000
00000000
00000000
,
00100000
10000000
01000000
00010000
,
00001000
00000100
00000001
00000010
,
00000100
00001000
00000001
00000110
,
00000001
00001000
00000010
00000110
,
00000010
00000100
00001000
00011000
,
00001000
00010000
01000000
10010000
,
00100000
00010000
10000000
01100000
,
10000000
00010000
01000000
01100000
,
00100000
01000000
00010000
00011000
,
00010000
00001000
00000100
00001001
,
00000001
00000100
00001000
00000100
,
00000010
00001000
00000100
00001000
,
00000010
00000001
00000010
00001000
,
00000100
00010000
00001000
00011000
,
00100000
10000000
01000000
10000000
,
00100000
00010000
00100000
10000000
,
01000000
00010000
01000000
10000000
,
00100000
00010000
00001000
00011000
,
00010000
00100000
10000000
00100000
,
01000000
00001000
00010000
00000010
,
00000001
00000010
00001000
00000010
,
00010000
00001000
00010000
00011000
,
00001000
01000000
00100000
10000000
,
01000000
00100000
00001000
00010000
,
00000010
00001000
00000001
00000100
,
00001000
00010000
00001000
00011000
,
00100000
00010000
10000000
01000000
,
00010000
00001000
00000100
00000001
,
00000010
00001000
00010000
01000000
,
00010000
00001000
00010000
00011000
,
00010000
01100000
10000000
01100000
,
00010000
00011000
00001000
00011000
,
00010000
00100000
10000000
00010000
,
00100000
00010000
01000000
00100000
,
10000000
01000000
00010000
01000000
,
10000000
00100000
00010000
00001000
,
00000010
00000001
00000100
00000010
,
00000100
00000001
00000010
00000100
,
00001000
00000010
00000001
00000010
,
00001000
00000100
00010000
00001000
,
00010000
00000100
00001000
00000010
,
00010000
00001000
01000000
00010000
,
00100000
00001000
00010000
00000010
,
00010000
00001000
00010000
00001000
,
00022000
00000000
00000000
00000000
,
00000000
00000000
00000000
00033000
;

//---------------dance-double - ----------------
#NOTES:
     dance-double:
     :
     Medium:
     7:
     :
00000000
00000000
00000000
00000000
,
00000000
00000000
00000000
00000000
,
00000000
00000000
00000000
00000000
,
00100000
10000000
01010000
00011000
,
00000010
00000001
00001100
00011000
,
00010000
00000000
01000000
00000000
10000000
00100000
01010000
00000000
,
10000000
00000000
00100000
00000000
01000000
00010000
10100000
00000000
,
00010000
00000000
01000000
00000000
00100000
01000000
10010000
00000000
,
10000000
01000000
01010000
00000000
01000000
00001000
00011000
00000000
,
00001000
00000000
00000100
00000000
00000001
00000010
00001100
00000000
,
00000001
00000000
00000010
00000000
00000100
00001000
00000011
00000000
,
00001000
00000000
00000100
00000000
00000010
00000100
00001001
00000000
,
00000001
00000100
00001100
00000000
00000100
00010000
00011000
00000000
,
00010000
00000000
00110000
00000000
10000000
01000000
11000000
00000000
,
00100000
00000000
10010000
00000000
01000000
00010000
10010000
00000000
,
01000000
00000000
10100000
00000000
00010000
01000000
01010000
00000000
,
00001000
00000000
00011000
00000000
00000010
00000000
00001000
00000100
,
00000001
00000000
00001100
00000000
00000010
00000100
00000101
00000000
,
00001000
00000000
00000011
00000000
00000100
00001000
00001010
00000000
,
00000001
00000000
00000110
00000000
00001000
00000100
00010100
00000000
,
00001000
00000000
00011000
00000000
00100000
00000000
00010000
01000000
,
10000000
01000000
00100000
00000000
10000000
01000000
00100000
00000000
,
00010000
10000000
00100000
00000000
01000000
00010000
00100000
00000000
,
00001000
00010000
00000010
00000000
00010000
00000100
00001000
00000000
,
00000010
00001000
00000100
00000010
00000001
00000100
00001000
00000000
,
00000000
00000100
00000010
00001000
00000001
00000010
00000110
00000000
,
00000000
00001000
00000010
00000100
00000001
00000010
00000110
00000000
,
00000000
00000001
00001000
00000100
00000010
00000001
00001001
00000000
,
00000000
00000100
00001000
00010000
01000000
00100000
01100000
00000000
,
00000000
10000000
01000000
00100000
00010000
10000000
11000000
00000000
,
00000000
00100000
01000000
10000000
00100000
01000000
01010000
00000000
,
00000000
00010000
10000000
01000000
00100000
00010000
10010000
00000000
,
11000000
00000000
01010000
00000000
00110000
00000000
00001000
00010000
,
00001000
00001010
00000101
00001100
,
00010000
01010000
10100000
00110000
,
00100000
00000000
10000000
00000000
01000000
00000000
00010000
01000000
,
10000000
00000000
00100000
00000000
00010000
00000000
00001000
00010000
,
01000000
00000000
00010000
00000000
00001000
00000000
00000010
00001000
,
00010000
00000000
00001000
00000000
00000100
00000000
00000001
00000100
,
00001000
00000000
00010000
00000000
00100000
00000000
10000000
01000000
,
00010000
00000000
00001000
00000000
00000010
00000000
00000001
00000100
,
00001000
00000000
00010000
00000000
00100000
00000000
00010000
00001000
,
00000100
00000000
00001000
00000000
00010000
00000000
01000000
00010000
,
00001000
00000000
00000010
00000000
00000001
00000100
00000101
00000000
,
00000100
00000000
00000001
00000000
00000010
00001000
00001010
00000000
,
00001000
00000000
00010000
00000000
00100000
10000000
10100000
00000000
,
10000000
01000000
11000000
00000000
01000000
00010000
01010000
00000000
,
00022000
00000000
00000000
00000000
,
00000000
00000000
00000000
00033000
;

//---------------dance-double - ----------------
#NOTES:
     dance-double:
     :
     Hard:
     9:
     :
00000000
00000000
00000000
00000000
,
00000000
00000000
00000000
00000000
,
00000000
00000000
00000000
00000000
,
10000000
00000000
00000000
00000000
01000000
00000000
00000000
00000000
00010000
00000000
00001000
00000100
00001000
00000100
00001000
00000100
,
00000001
00000000
00000000
00000000
00000100
00000000
00000000
00000000
00001000
00000000
00010000
01000000
00010000
01000000
00010000
01000000
,
10000000
00000000
00100000
00000000
01010000
00000000
10000000
00100000
00010000
00000000
10000000
00000000
01100000
00000000
00000000
00000000
,
00010000
00000000
10000000
00000000
01100000
00000000
10000000
01000000
00010000
00000000
01000000
00000000
00110000
00000000
00000000
00000000
,
10000000
00000000
00100000
00000000
01010000
00000000
00100000
10000000
01000000
00000000
00010000
00000000
00011000
00000000
00000000
00000000
,
00001000
00000000
00000100
00000010
00001000
00000100
00010000
00001000
00010000
00000100
00001000
00000010
00000100
00000010
00001000
00000100
,
00000010
00000000
00000001
00000000
00001100
00000000
00000001
00000010
00001000
00000000
00000001
00000000
00000110
00000000
00000000
00000000
,
00001000
00000000
00000001
00000000
00000110
00000000
00000001
00000100
00001000
00000000
00000100
00000000
00001010
00000000
00000000
00000000
,
00000001
00000000
00000010
00000000
00001100
00000000
00000001
00000100
00001000
00000000
00010000
00000000
00011000
00000000
00000000
00000000
,
00001000
00000000
00010000
00001000
00100000
00010000
01000000
00010000
00100000
00001000
00100000
00010000
01000000
00010000
10000000
00010000
,
01000000
00010000
00110000
00001000
00010000
00000100
00001100
00000000
,
00000100
00001000
00001010
00010000
00001000
01000000
01010000
00000000
,
10000000
01000000
01100000
00010000
10000000
01000000
00110000
00000000
,
00001000
00010000
00010010
00001000
00001010
00000100
00000110
00000101
,
00000010
00001000
00001100
00010000
00001000
00100000
00110000
00000000
,
00100000
00010000
01010000
00001000
00010000
00000010
00001010
00000000
,
00000001
00000100
00000110
00001000
00000001
00000100
00001010
00000000
,
00010000
00001000
00101000
00010000
00110000
01000000
01100000
11000000
,
10000000
00000000
00100000
00000000
01010000
00000000
00100000
01000000
00010000
00000000
00100000
00000000
11000000
00000000
00000000
00000000
,
00100000
00000000
10000000
00000000
01010000
00000000
00100000
01000000
10000000
00000000
00100000
00000000
01010000
00000000
00000000
00000000
,
00001000
00000000
00010000
00000000
00010100
00000000
00001000
00000100
00000001
00000000
00000100
00000000
00001100
00000000
00000000
00000000
,
00001000
00000000
00000010
00001000
00000100
00010000
00001000
00100000
00010000
01000000
00001000
00010000
00000100
00010000
00001000
00100000
,
00010000
00000000
01000000
00010000
00100000
00000000
00010000
00000000
10000000
01000000
00010000
00000000
01000000
00000000
00000000
00000000
,
10000000
00000000
00100000
10000000
01000000
00000000
10000000
00000000
00010000
00100000
10000000
00000000
00100000
00000000
00000000
00000000
,
00010000
00000000
10000000
01000000
00010000
00000000
01000000
00000000
00010000
00001000
00000100
00000000
00001000
00000000
00000000
00000000
,
00010000
00000000
00100000
00010000
00001000
00000000
00100000
00000000
00001000
00010000
00100000
00000000
00010000
00001000
00000100
00000000
,
00000001
00000000
00000010
00000001
00000100
00000000
00000001
00000000
00001000
00000100
00000001
00000000
00000100
00000000
00000000
00000000
,
00001000
00000000
00000100
00001000
00000010
00000000
00001000
00000000
00000001
00000100
00001000
00000000
00000100
00000000
00000000
00000000
,
00000001
00000000
00001000
00000100
00000001
00000000
00000100
00000000
00010000
00001000
00000100
00000000
00001000
00000000
00000000
00000000
,
00010000
00000000
01000000
00010000
00001000
00000000
01000000
00000000
00001000
00010000
01000000
00000000
00010000
00001000
00000010
00000000
,
00000001
00000000
00000000
00000000
00001001
00000000
00000000
00000000
00000101
00000000
00000000
00001010
00000000
00000100
00010000
00000000
,
00001000
00000000
00000000
00000000
00101000
00000000
00000000
00000000
00011000
00000000
00001000
01000000
00010000
00100000
00010000
10000000
,
01000000
01000000
10000000
10000000
00010000
00010000
00100000
00100000
,
00010000
00100000
00000000
10000000
00100000
00000000
01000000
00000000
10000000
01000000
00000000
00010000
01000000
00000000
00100000
00000000
,
00010000
00010000
10000000
10000000
00100000
00100000
01000000
01000000
,
00100000
00010000
00000000
00010000
00001000
00000000
00000010
00000000
00001000
00000010
00000000
00000010
00000001
00000000
00000100
00000000
,
00000001
00000001
00000010
00000010
00000100
00000100
00001000
00001000
,
00000001
00000010
00000000
00000001
00000100
00000000
00000001
00000000
00001000
00000100
00000000
00001000
00000010
00000000
00001000
00000000
,
00000100
00000100
00000010
00000010
00000001
00000001
00001000
00001000
,
00000001
00000100
00000000
00000100
00001000
00000000
00010000
00000000
00001000
00010000
00000000
00010000
01000000
00000000
10000000
00000000
,
01000000
00000000
00100000
00000000
10010000
00000000
01000000
00100000
10000000
00000000
00010000
00000000
01100000
00000000
00000000
00000000
,
10000000
00000000
00010000
00000000
01100000
00000000
10000000
00010000
01000000
00000000
00100000
00000000
10010000
00000000
00000000
00000000
,
01000000
00000000
00010000
00000000
00011000
00000000
00000010
00001000
00010000
00000000
00001000
00000000
00011000
00000000
00000000
00000000
,
00001000
00000000
00010000
00001000
00000010
00000000
00001000
00010000
00100000
00000000
00010000
00001000
00000100
00000000
00001000
00010000
,
02000000
00000000
00000000
00000000
,
00000000
00000000
00000000
03000000
;
