#TITLE:Power 2 (Progressive Mix);
#ARTIST:DJ Kale;
#BANNER:Power 2 (Progressive Mix).png;
#BACKGROUND:Power 2 (Progressive Mix)-bg.png;
#CDTITLE:./CDTITLES/DanceDanceRevolution UNIVERSE2.png;
#MUSIC:Power 2 (Progressive Mix).ogg;
#SAMPLESTART:130.628;
#SAMPLELENGTH:15;
#DISPLAYBPM:136;
#BPMS:0=135.931,199=138.462,200=135.99,327=134.328,328=135.999,520=136.02,544=136.364,552=135.977,744=136.882;

//---------------dance-single - ----------------
#NOTES:
     dance-single:
     :
     Beginner:
     1:
     :
0000
0000
0000
0000
,
0000
0000
0000
0000
,
0000
0000
0000
0000
,
0000
0000
0000
0000
,
1000
0000
0001
0000
,
1000
0000
0010
0000
,
1000
0000
0001
0000
,
1000
0000
0100
0000
,
0000
0001
0000
0100
,
0000
0100
0000
0000
,
0001
0000
0000
0000
,
0010
0000
0000
0000
,
1000
0000
0000
0000
,
0100
0000
0000
0000
,
1001
0000
0000
0000
,
0001
0000
0000
0000
,
0110
0000
0000
0000
,
1000
0000
0000
0000
,
0001
0000
1000
0000
,
1000
0000
0010
0000
,
0100
0000
0010
0000
,
0010
0000
0001
0000
,
0100
0000
0000
0010
,
0000
0010
0000
1000
,
0000
0100
0000
0010
,
0000
0000
0000
0110
,
0000
1000
0000
0001
,
0000
0100
0000
0010
,
0000
0100
0000
0001
,
0000
0100
0000
1000
,
0000
0010
0000
0000
,
0100
0000
1000
0000
,
0001
0000
0010
0000
,
1000
0000
1000
0000
,
0110
0000
0000
0000
,
1001
0000
0000
0000
,
0110
0000
0000
0000
,
0010
0000
0000
0000
,
1001
0000
0000
0000
,
0100
0000
0000
0000
,
1001
0000
0000
0000
,
0001
0000
0000
0000
,
1001
0000
0000
0000
,
1000
0000
0000
0000
,
0100
0000
0000
0000
,
0010
0000
0000
0000
,
1000
0000
0000
0001
,
0000
0000
0000
0000
,
0010
0000
0000
1000
,
0000
0000
0000
0000
,
0000
0100
0000
0010
,
0000
0100
0000
1000
,
0000
0010
0000
0100
,
0000
1000
0000
0100
,
0000
0100
0000
1000
,
0000
0001
0000
0010
,
0000
1000
0000
0100
,
0000
0100
0000
0000
,
1000
0000
0001
0000
,
0100
0000
0010
0000
,
1000
0000
0100
0000
,
0010
0000
0001
0000
,
1001
0000
0000
0000
,
0100
0000
0010
0000
,
0110
0000
0000
0000
,
1000
0000
0100
0000
,
0001
0000
1000
0000
,
0010
0000
0100
0000
,
0001
0000
0010
0000
,
0100
0000
1000
0000
,
1001
0000
0000
0000
,
0010
0000
0100
0000
,
0110
0000
0000
0000
,
0001
0000
0010
0000
,
1000
0000
1000
0000
,
0010
0000
0100
0000
,
1000
0000
0001
0000
,
1001
0000
0000
0000
,
0100
0000
0010
0000
,
0110
0000
0000
0000
,
1000
0000
0100
0000
,
0001
0000
0010
0000
,
1000
0000
1000
0000
,
0001
0000
0001
0000
,
0001
0000
1000
0000
,
1001
0000
0000
0000
,
0010
0000
0100
0000
,
0110
0000
0000
0000
,
0001
0000
0010
0000
,
1000
0000
0100
0000
,
0110
0000
0000
0000
,
1000
0000
0000
0000
,
0001
0000
0000
0000
,
0000
0000
0000
0000
,
0010
0000
0100
0000
,
1000
0000
0000
0000
,
0010
0000
0100
0000
,
0001
0000
0001
0000
,
1000
0000
0010
0000
,
0001
0000
0100
0000
,
1000
0000
0100
0000
,
0001
0000
1000
0000
,
0100
0000
0001
0000
,
0010
0000
1000
0000
,
0001
0000
0010
0000
,
0100
0000
0000
0000
,
0001
0000
0001
0000
,
1000
0000
1000
0000
,
0010
0000
0001
0000
,
0010
0000
1000
0000
,
0001
0000
0010
0000
,
0001
0000
0100
0000
,
1000
0000
1000
0000
,
0100
0000
0110
0000
,
0001
0000
1000
0000
,
0010
0000
0010
0000
,
1000
0000
0001
0000
,
0100
0000
0100
0000
,
0001
0000
1000
0000
,
0100
0000
0001
0000
,
0001
0000
1000
0000
,
0010
0000
0000
0000
,
1000
0000
0100
0000
,
0010
0000
0001
0000
,
1000
0000
0100
0000
,
0010
0000
0100
0000
,
0001
0000
0100
0000
,
0010
0000
1000
0000
,
0001
0000
0100
0000
,
0010
0000
0100
0000
,
1000
0000
0010
0000
,
0100
0000
0001
0000
,
1000
0000
0010
0000
,
0100
0000
0010
0000
,
0001
0000
0100
0000
,
0110
0000
1000
0000
,
1001
0000
0100
0000
,
0100
0000
1000
0000
,
0010
0000
0100
0000
,
0010
0000
0100
0000
,
0010
0000
0001
0000
,
1000
0000
1000
0000
,
0100
0000
0010
0000
,
0100
0000
0010
0000
,
0100
0000
0001
0000
,
1000
0000
1000
0000
,
0001
0000
0010
0000
,
0100
0000
1000
0000
,
1000
0000
0100
0000
,
0010
0000
0001
0000
,
1000
0000
0100
0000
,
0010
0000
0010
0000
,
0001
0000
1000
0000
,
1000
0000
1000
0000
,
0001
0000
0010
0000
,
0100
0000
0100
0000
,
1000
0000
0001
0000
,
0001
0000
1001
0000
,
1000
0000
0100
0000
,
0010
0000
0010
0000
,
0001
0000
1000
0000
,
1000
0000
1001
0000
,
0100
0000
0010
0000
,
0100
0000
0010
0000
,
0100
0000
1000
0000
,
0001
0000
0001
0000
,
0010
0000
0100
0000
,
0010
0000
0100
0000
,
0010
0000
0001
0000
,
0000
0000
0000
0000
,
0001
0000
0010
0000
,
0100
0000
1000
0000
,
0010
0000
0100
0000
,
0001
0000
1000
0000
,
1000
0000
0100
0000
,
0010
0000
0001
0000
,
0100
0000
0010
0000
,
1000
0000
0001
0000
,
0100
0000
0100
0000
,
0001
0000
1000
0000
,
0100
0000
0010
0000
,
0110
0000
0000
0000
,
0010
0000
0010
0000
,
1000
0000
0001
0000
,
0010
0000
0100
0000
,
1000
0000
0001
0000
,
1001
0000
0000
0000
;

//---------------dance-single - ----------------
#NOTES:
     dance-single:
     :
     Easy:
     3:
     :
0000
0000
0000
0000
,
0000
0000
0000
0000
,
0000
0000
0000
0000
,
0000
0000
0000
0000
,
1000
0000
0001
0000
,
1000
0000
0010
0100
,
1000
0000
0001
0010
,
1000
0001
0100
0000
,
0000
0001
0010
0100
,
0010
0000
0000
0000
0000
0000
0000
0000
0000
0000
0000
0000
0000
0000
0000
0000
0100
0000
0000
0000
0000
0000
0000
0000
0000
0000
0000
0000
0000
0000
0000
0000
2000
0000
0000
0000
0000
0000
0000
0000
0000
0000
0000
0000
0000
0000
0000
3000
0000
0000
0000
0000
0000
0000
0000
0000
0000
0000
0000
0000
0000
0000
0000
0000
,
0002
0000
0000
0000
0000
0000
0000
0000
0000
0000
0000
0000
0000
0000
0000
0000
0000
0000
0000
0000
0000
0000
0000
0000
0000
0000
0000
0000
0000
0000
0000
0000
0000
0000
0000
0000
0000
0000
0000
0000
0000
0000
0000
0000
0000
0000
0000
0003
0000
0000
0000
0000
0000
0000
0000
0000
0000
0000
0000
0000
0000
0000
0000
0000
,
0020
0000
0000
0000
0000
0000
0000
0000
0000
0000
0000
0000
0000
0000
0000
0000
0000
0000
0000
0000
0000
0000
0000
0000
0000
0000
0000
0000
0000
0000
0000
0000
0000
0000
0000
0000
0000
0000
0000
0000
0000
0000
0000
0000
0000
0000
0000
0030
0000
0000
0000
0000
0000
0000
0000
0000
0000
0000
0000
0000
0000
0000
0000
0000
,
2000
0000
0000
0000
0000
0000
0000
0000
0000
0000
0000
0000
0000
0000
0000
0000
0000
0000
0000
0000
0000
0000
0000
0000
0000
0000
0000
0000
0000
0000
0000
0000
0000
0000
0000
0000
0000
0000
0000
0000
0000
0000
0000
0000
0000
0000
0000
3000
0000
0000
0000
0000
0000
0000
0000
0000
0000
0000
0000
0000
0000
0000
0000
0000
,
0200
0000
0000
0000
0000
0000
0000
0000
0000
0000
0000
0000
0000
0000
0000
0000
0000
0000
0000
0000
0000
0000
0000
0000
0000
0000
0000
0000
0000
0000
0000
0000
0000
0000
0000
0000
0000
0000
0000
0000
0000
0000
0000
0000
0000
0000
0000
0300
0000
0000
0000
0000
0000
0000
0000
0000
0000
0000
0000
0000
0000
0000
0000
0000
,
1020
0000
0000
0000
0000
0000
0000
0000
0000
0000
0000
0000
0000
0000
0000
0000
0000
0000
0000
0000
0000
0000
0000
0000
0000
0000
0000
0000
0000
0000
0000
0000
0000
0000
0000
0000
0000
0000
0000
0000
0000
0000
0000
0000
0000
0000
0000
0030
0000
0000
0000
0000
0000
0000
0000
0000
0000
0000
0000
0000
0000
0000
0000
0000
,
0002
0000
0000
0000
0000
0000
0000
0000
0000
0000
0000
0000
0000
0000
0000
0000
0000
0000
0000
0000
0000
0000
0000
0000
0000
0000
0000
0000
0000
0000
0000
0000
0000
0000
0000
0000
0000
0000
0000
0000
0000
0000
0000
0000
0000
0000
0000
0003
0000
0000
0000
0000
0000
0000
0000
0000
0000
0000
0000
0000
0000
0000
0000
0000
,
0201
0000
0000
0000
0000
0000
0000
0000
0000
0000
0000
0000
0000
0000
0000
0000
0000
0000
0000
0000
0000
0000
0000
0000
0000
0000
0000
0000
0000
0000
0000
0000
0000
0000
0000
0000
0000
0000
0000
0000
0000
0000
0000
0000
0000
0000
0000
0300
0000
0000
0000
0000
0000
0000
0000
0000
0000
0000
0000
0000
0000
0000
0000
0000
,
2000
0000
0000
0000
0000
0000
0000
0000
0000
0000
0000
0000
0000
0000
0000
0000
0000
0000
0000
0000
0000
0000
0000
0000
0000
0000
0000
0000
0000
0000
0000
0000
0000
0000
0000
0000
0000
0000
0000
0000
0000
0000
0000
0000
0000
0000
0000
3000
0000
0000
0000
0000
0000
0000
0000
0000
0000
0000
0000
0000
0000
0000
0000
0000
,
0001
0000
1000
0001
,
1000
0000
0010
0100
,
0100
0000
0010
0001
,
0010
0000
0001
1000
,
0100
1000
0000
0010
,
0100
0010
0000
1000
,
0001
0100
0000
0010
,
0110
0000
0000
0110
,
0000
1000
1000
0001
,
0000
0100
1000
0010
,
0000
0100
0001
0001
,
0000
0100
0010
1000
,
0100
0010
0001
0000
,
0100
1000
1000
0000
,
0001
0010
0010
0000
,
1000
0100
1000
0000
,
0210
0000
0000
0000
0000
0000
0000
0000
0000
0000
0000
0000
0000
0000
0000
0000
0000
0000
0000
0000
0000
0000
0000
0000
0000
0000
0000
0000
0000
0000
0000
0000
0000
0000
0000
0000
0000
0000
0000
0000
0000
0000
0000
0000
0000
0000
0000
0300
0000
0000
0000
0000
0000
0000
0000
0000
0000
0000
0000
0000
0000
0000
0000
0000
,
2001
0000
0000
0000
0000
0000
0000
0000
0000
0000
0000
0000
0000
0000
0000
0000
0000
0000
0000
0000
0000
0000
0000
0000
0000
0000
0000
0000
0000
0000
0000
0000
0000
0000
0000
0000
0000
0000
0000
0000
0000
0000
0000
0000
0000
0000
0000
3000
0000
0000
0000
0000
0000
0000
0000
0000
0000
0000
0000
0000
0000
0000
0000
0000
,
0102
0000
0000
0000
0000
0000
0000
0000
0000
0000
0000
0000
0000
0000
0000
0000
0000
0000
0000
0000
0000
0000
0000
0000
0000
0000
0000
0000
0000
0000
0000
0000
0000
0000
0000
0000
0000
0000
0000
0000
0000
0000
0000
0000
0000
0000
0000
0003
0000
0000
0000
0000
0000
0000
0000
0000
0000
0000
0000
0000
0000
0000
0000
0000
,
0020
0000
0000
0000
0000
0000
0000
0000
0000
0000
0000
0000
0000
0000
0000
0000
0000
0000
0000
0000
0000
0000
0000
0000
0000
0000
0000
0000
0000
0000
0000
0000
0000
0000
0000
0000
0000
0000
0000
0000
0000
0000
0000
0000
0000
0000
0000
0030
0000
0000
0000
0000
0000
0000
0000
0000
0000
0000
0000
0000
0000
0000
0000
0000
,
2001
0000
0000
0000
0000
0000
0000
0000
0000
0000
0000
0000
0000
0000
0000
0000
0000
0000
0000
0000
0000
0000
0000
0000
0000
0000
0000
0000
0000
0000
0000
0000
0000
0000
0000
0000
0000
0000
0000
0000
0000
0000
0000
0000
0000
0000
0000
3000
0000
0000
0000
0000
0000
0000
0000
0000
0000
0000
0000
0000
0000
0000
0000
0000
,
0200
0000
0000
0000
0000
0000
0000
0000
0000
0000
0000
0000
0000
0000
0000
0000
0000
0000
0000
0000
0000
0000
0000
0000
0000
0000
0000
0000
0000
0000
0000
0000
0000
0000
0000
0000
0000
0000
0000
0000
0000
0000
0000
0000
0000
0000
0000
0300
0000
0000
0000
0000
0000
0000
0000
0000
0000
0000
0000
0000
0000
0000
0000
0000
,
0021
0000
0000
0000
0000
0000
0000
0000
0000
0000
0000
0000
0000
0000
0000
0000
0000
0000
0000
0000
0000
0000
0000
0000
0000
0000
0000
0000
0000
0000
0000
0000
0000
0000
0000
0000
0000
0000
0000
0000
0000
0000
0000
0000
0000
0000
0000
0030
0000
0000
0000
0000
0000
0000
0000
0000
0000
0000
0000
0000
0000
0000
0000
0000
,
0002
0000
0000
0000
0000
0000
0000
0000
0000
0000
0000
0000
0000
0000
0000
0000
0000
0000
0000
0000
0000
0000
0000
0000
0000
0000
0000
0000
0000
0000
0000
0000
0000
0000
0000
0000
0000
0000
0000
0000
0000
0000
0000
0000
0000
0000
0000
0003
0000
0000
0000
0000
0000
0000
0000
0000
0000
0000
0000
0000
0000
0000
0000
0000
,
1020
0000
0000
0000
0000
0000
0000
0000
0000
0000
0000
0000
0000
0000
0000
0000
0000
0000
0000
0000
0000
0000
0000
0000
0000
0000
0000
0000
0000
0000
0000
0000
0000
0000
0000
0000
0000
0000
0000
0000
0000
0000
0000
0000
0000
0000
0000
0030
0000
0000
0000
0000
0000
0000
0000
0000
0000
0000
0000
0000
0000
0000
0000
0000
,
2000
0000
0000
0000
0000
0000
0000
0000
0000
0000
0000
0000
0000
0000
0000
0000
0000
0000
0000
0000
0000
0000
0000
0000
0000
0000
0000
0000
0000
0000
0000
0000
0000
0000
0000
0000
0000
0000
0000
0000
0000
0000
0000
0000
0000
0000
0000
3000
0000
0000
0000
0000
0000
0000
0000
0000
0000
0000
0000
0000
0000
0000
0000
0000
,
0200
0000
0000
0000
0000
0000
0000
0000
0000
0000
0000
0000
0000
0000
0000
0000
0000
0000
0000
0000
0000
0000
0000
0000
0000
0000
0000
0000
0000
0000
0000
0000
0000
0000
0000
0000
0000
0000
0000
0000
0000
0000
0000
0000
0000
0000
0000
0300
0000
0000
0000
0000
0000
0000
0000
0000
0000
0000
0000
0000
0000
0000
0000
0000
,
0020
0000
0000
0000
0000
0000
0000
0000
0000
0000
0000
0000
0000
0000
0000
0000
0000
0000
0000
0000
0000
0000
0000
0000
0000
0000
0000
0000
0000
0000
0000
0000
0000
0000
0000
0000
0000
0000
0000
0000
0000
0000
0000
0000
0000
0000
0000
0030
0000
0000
0000
0000
0000
0000
0000
0000
0000
0000
0000
0000
0000
0000
0000
0000
,
1000
0000
0000
0100
0000
0000
0001
0000
,
0200
0000
0000
0000
0000
0000
0000
0000
0000
0000
0000
0000
0000
0000
0000
0000
0000
0000
0000
0000
0000
0000
0000
0000
0000
0000
0000
0000
0000
0000
0000
0000
0000
0000
0000
0000
0000
0000
0000
0000
0000
0000
0000
0000
0000
0000
0000
0300
0000
0000
0000
0000
0000
0000
0000
0000
0000
0000
0000
0000
0000
0000
0000
0000
,
0010
0000
0000
0001
0000
0000
1000
0000
,
0220
0000
0000
0000
0000
0000
0000
0000
0000
0000
0000
0000
0000
0000
0000
0000
0000
0000
0000
0000
0000
0000
0000
0000
0000
0000
0000
0000
0000
0000
0000
0000
0000
0000
0000
0000
0000
0000
0000
0000
0000
0000
0000
0000
0000
0000
0000
0330
0000
0000
0000
0000
0000
0000
0000
0000
0000
0000
0000
0000
0000
0000
0000
0000
,
0000
0100
1000
0010
,
0000
0100
0001
1000
,
0000
0010
1000
0100
,
0000
1000
0001
0100
,
0000
0100
0010
1000
,
0000
0001
1000
0010
,
0000
1000
0001
0100
,
0010
0100
0000
1001
,
1000
0000
0001
0000
,
0100
0100
0010
0000
,
1000
0000
0100
0000
,
0010
0001
0001
0000
,
1001
0000
0000
0000
,
0100
0000
0010
0000
,
0110
0000
0000
0000
,
1000
0000
0100
0000
,
0001
0000
1000
0000
,
0010
0010
0100
0000
,
0001
0000
0010
0000
,
0100
1000
1000
0000
,
1001
0000
0000
0000
,
0010
0000
0100
0000
,
0110
0000
0000
0000
,
0001
0000
0010
0000
,
1000
0001
1000
0000
,
0010
0000
0100
0000
,
1000
0000
0001
0000
,
2002
0000
0000
0000
0000
0000
0000
0000
0000
0000
0000
0000
0000
0000
0000
0000
0000
0000
0000
0000
0000
0000
0000
0000
0000
0000
0000
0000
0000
0000
0000
0000
0000
0000
0000
0000
0000
0000
0000
0000
0000
0000
0000
0000
0000
0000
0000
3003
0000
0000
0000
0000
0000
0000
0000
0000
0000
0000
0000
0000
0000
0000
0000
0000
,
0100
0000
0010
0000
,
0220
0000
0000
0000
0000
0000
0000
0000
0000
0000
0000
0000
0000
0000
0000
0000
0000
0000
0000
0000
0000
0000
0000
0000
0000
0000
0000
0000
0000
0000
0000
0000
0000
0000
0000
0000
0000
0000
0000
0000
0000
0000
0000
0000
0000
0000
0000
0330
0000
0000
0000
0000
0000
0000
0000
0000
0000
0000
0000
0000
0000
0000
0000
0000
,
1000
0000
0100
0000
,
0001
0000
0010
0000
,
1000
0000
1000
0000
,
0001
0000
0001
0000
,
0001
0000
1000
0000
,
2002
0000
0000
0000
0000
0000
0000
0000
0000
0000
0000
0000
0000
0000
0000
0000
0000
0000
0000
0000
0000
0000
0000
0000
0000
0000
0000
0000
0000
0000
0000
0000
0000
0000
0000
0000
0000
0000
0000
0000
0000
0000
0000
0000
0000
0000
0000
3003
0000
0000
0000
0000
0000
0000
0000
0000
0000
0000
0000
0000
0000
0000
0000
0000
,
0010
0000
0100
0000
,
0220
0000
0000
0000
0000
0000
0000
0000
0000
0000
0000
0000
0000
0000
0000
0000
0000
0000
0000
0000
0000
0000
0000
0000
0000
0000
0000
0000
0000
0000
0000
0000
0000
0000
0000
0000
0000
0000
0000
0000
0000
0000
0000
0000
0000
0000
0000
0330
0000
0000
0000
0000
0000
0000
0000
0000
0000
0000
0000
0000
0000
0000
0000
0000
,
0001
0000
0010
0000
,
1000
0000
0100
0000
,
0110
0000
0000
0000
,
1000
0000
0000
0000
,
0001
0000
0000
0000
,
0000
0000
0000
0000
,
0010
0000
0100
0000
,
1000
0000
0000
0000
,
0010
0000
0100
0000
,
0001
0010
0001
0000
,
1000
0001
0010
1000
,
0001
0001
0100
0010
,
1000
0010
0100
0100
,
0001
0001
1000
1000
,
0100
0010
0001
0001
,
0010
0100
1000
1000
,
0001
1000
0010
0010
,
0100
0000
0000
0000
,
0001
0010
0001
1001
,
1000
0100
1000
0110
,
0010
0100
0001
0000
,
0010
0100
1000
0000
,
0001
1000
0010
0100
,
0001
0010
0100
0000
,
1000
0001
1000
0000
,
0100
0100
0110
0000
,
0001
0000
1000
0000
,
0010
0100
0010
0000
,
1000
0000
0001
0000
,
0100
0010
0100
0000
,
0001
0000
1000
0000
,
0100
0010
0001
0000
,
0001
0000
1000
0000
,
0010
0000
0000
0000
,
1000
0001
0100
0000
,
0010
0100
0001
0000
,
1000
0000
0100
0000
,
0010
0010
0100
0000
,
0001
1000
0100
0000
,
0010
0100
1000
0000
,
0001
0001
0100
0000
,
0010
0010
0100
0000
,
1000
0001
0010
0100
,
0100
0010
0001
0010
,
1000
1000
0010
0001
,
0100
0100
0010
0000
,
0001
1001
0100
0010
,
0110
0100
1000
0001
,
1001
0010
0100
0010
,
0100
0001
1000
0000
,
0010
0000
0100
0000
,
0010
1000
0100
0000
,
0010
0000
0001
0000
,
1000
0100
1000
0000
,
0100
0000
0010
0000
,
0100
1000
0010
0000
,
0100
0000
0001
0000
,
1000
0010
1000
0000
,
0001
0000
0010
0000
,
0100
0100
1000
0000
,
1000
0000
0100
0000
,
0010
0010
0001
0000
,
1000
0000
0100
0000
,
0010
0100
0010
0010
,
0001
0000
1000
0000
,
1000
0001
1000
1000
,
0001
0000
0010
0000
,
0100
0010
0100
0100
,
1000
0000
0001
0000
,
0001
1000
1001
0000
,
1000
0000
0100
0000
,
0010
0100
0010
0010
,
0001
0000
1000
0000
,
1000
0001
1001
0000
,
0100
0000
0010
0000
,
0100
0001
0010
0000
,
0100
0000
1000
0000
,
0001
0010
0001
0000
,
0010
0000
0100
0000
,
0010
0001
0100
0000
,
0010
1000
0001
0100
,
0000
0000
0000
0000
,
0001
0000
0010
0000
,
0100
1000
1000
0000
,
0010
0000
0100
0000
,
0001
0001
1000
0000
,
1000
0000
0100
0000
,
0010
0001
0001
0000
,
0100
0000
0010
0000
,
1000
1000
0001
0000
,
0100
0010
0100
0000
,
0001
0000
1000
0000
,
0100
1000
0010
0000
,
0110
0000
0000
0000
,
0010
0100
0010
0000
,
1000
0000
0001
0000
,
0010
0001
0100
0000
,
1000
0000
0001
0000
,
1001
0000
0000
0000
;

//---------------dance-single - ----------------
#NOTES:
     dance-single:
     :
     Medium:
     6:
     :
0000
0000
0000
0000
,
0000
0000
0000
0000
,
0000
0000
0000
0000
,
0000
0000
0000
0000
,
1000
0000
0001
0000
,
1000
0001
0010
0100
,
1000
0001
0010
0000
0001
0100
0010
0000
,
1000
0100
0001
0000
1001
0000
0110
0000
,
1000
0010
0001
0000
0010
1000
0100
0000
,
0010
0000
0000
0000
0000
0000
0000
0000
1000
0000
0000
0000
0000
0000
0000
0000
0100
0000
0000
0000
0000
0000
0000
0000
0000
0000
0000
0000
0000
0000
0000
0000
2200
0000
0000
0000
0000
0000
0000
0000
0000
0000
0000
0000
0000
0000
0000
3300
0000
0000
0000
0000
0000
0000
0000
0000
0000
0000
0000
0000
0000
0000
0000
0000
,
0001
0000
0000
0100
0000
0000
1000
0000
,
0020
0000
0000
0000
0000
0000
0000
0000
0000
0000
0000
0000
0000
0000
0000
0000
0000
0000
0000
0000
0000
0000
0000
0000
0000
0000
0000
0000
0000
0000
0000
0000
0000
0000
0000
0000
0000
0000
0000
0000
0000
0000
0000
0000
0000
0000
0000
0030
0000
0000
0000
0000
0000
0000
0000
0000
0000
0000
0000
0000
0000
0000
0000
0000
,
0100
0000
0000
1000
0000
0000
0001
0000
,
0200
0000
0000
0000
0000
0000
0000
0000
0000
0000
0000
0000
0000
0000
0000
0000
0000
0000
0000
0000
0000
0000
0000
0000
0000
0000
0000
0000
0000
0000
0000
0000
0000
0000
0000
0000
0000
0000
0000
0000
0000
0000
0000
0000
0000
0000
0000
0300
0000
0000
0000
0000
0000
0000
0000
0000
0000
0000
0000
0000
0000
0000
0000
0000
,
0100
0000
0000
0001
0000
0000
1001
0000
,
0002
0000
0000
0000
0000
0000
0000
0000
0000
0000
0000
0000
0000
0000
0000
0000
0000
0000
0000
0000
0000
0000
0000
0000
0000
0000
0000
0000
0000
0000
0000
0000
0000
0000
0000
0000
0000
0000
0000
0000
0000
0000
0000
0000
0000
0000
0000
0003
0000
0000
0000
0000
0000
0000
0000
0000
0000
0000
0000
0000
0000
0000
0000
0000
,
0010
0000
0000
1000
0000
0000
1001
0000
,
2000
0000
0000
0000
0000
0000
0000
0000
0000
0000
0000
0000
0000
0000
0000
0000
0000
0000
0000
0000
0000
0000
0000
0000
0000
0000
0000
0000
0000
0000
0000
0000
0000
0000
0000
0000
0000
0000
0000
0000
0000
0000
0000
0000
0000
0000
0000
3000
0000
0000
0000
0000
0000
0000
0000
0000
0000
0000
0000
0000
0000
0000
0000
0000
,
1001
0000
0100
0001
0010
0000
0110
0000
,
1010
0000
1000
0100
0010
0000
0101
0000
,
1100
0000
0010
0100
0100
0000
0011
0000
,
1010
0000
0100
1000
0001
0000
1001
0000
,
0120
0000
0000
0000
0000
0000
0000
0000
0000
0000
0000
0000
0000
0000
0000
0000
1000
0000
0000
0000
0000
0000
0000
0000
0000
0000
0000
0000
0000
0000
0000
0000
0100
0000
0000
0000
0000
0000
0000
0000
0000
0000
0000
0000
0000
0000
0000
0030
1000
0000
0000
0000
0000
0000
0000
0000
0000
0000
0000
0000
0000
0000
0000
0000
,
0101
0000
0010
0001
0100
0000
1100
0000
,
1100
0000
0010
0001
1000
0000
1001
0000
,
0110
0000
1000
1000
0001
0000
0110
0000
,
0001
0100
1000
0000
1000
0010
0001
0000
,
0001
0010
0100
0000
1000
0100
0010
0000
,
0100
0010
0100
0000
0001
1000
0001
0000
,
0001
1000
0100
0000
0010
0001
1000
0000
,
0100
1000
0010
0000
0001
0010
1000
0000
,
0100
0010
1000
0000
1000
0100
0100
0000
,
0001
0001
0010
0000
0010
1000
0100
0000
,
1000
1000
0100
0000
1000
0001
0010
0000
,
0100
0000
0000
1001
0000
0000
0100
0010
,
2000
0000
0000
0000
0000
0000
0000
0000
0000
0000
0000
0000
0000
0000
0000
0000
0000
0000
0000
0000
0000
0000
0000
0000
0100
0000
0000
0000
0000
0000
0000
0000
0000
0000
0000
0000
0000
0000
0000
0000
0000
0000
0000
0000
0000
0000
0000
3000
0000
0000
0000
0000
0000
0000
0000
0000
0000
0000
0000
0000
0000
0000
0000
0000
,
0100
0000
0000
1001
0000
0000
0001
1000
,
0020
0000
0000
0000
0000
0000
0000
0000
0000
0000
0000
0000
0000
0000
0000
0000
0000
0000
0000
0000
0000
0000
0000
0000
0100
0000
0000
0000
0000
0000
0000
0000
0000
0000
0000
0000
0000
0000
0000
0000
0000
0000
0000
0000
0000
0000
0000
0030
0000
0000
0000
0000
0000
0000
0000
0000
0000
0000
0000
0000
0000
0000
0000
0000
,
1000
0000
0000
0011
0000
0000
0100
0001
,
0200
0000
0000
0000
0000
0000
0000
0000
0000
0000
0000
0000
0000
0000
0000
0000
0000
0000
0000
0000
0000
0000
0000
0000
1000
0000
0000
0000
0000
0000
0000
0000
0000
0000
0000
0000
0000
0000
0000
0000
0000
0000
0000
0000
0000
0000
0000
0300
0000
0000
0000
0000
0000
0000
0000
0000
0000
0000
0000
0000
0000
0000
0000
0000
,
0001
0000
0000
1000
0000
0000
0100
0010
,
0002
0000
0000
0000
0000
0000
0000
0000
0000
0000
0000
0000
0000
0000
0000
0000
0000
0000
0000
0000
0000
0000
0000
0000
0100
0000
0000
0000
0000
0000
0000
0000
0000
0000
0000
0000
0000
0000
0000
0000
0000
0000
0000
0000
0000
0000
0000
0003
0000
0000
0000
0000
0000
0000
0000
0000
0000
0000
0000
0000
0000
0000
0000
0000
,
0010
0000
0000
1100
0000
0000
0010
0010
,
2000
0000
0000
0000
0000
0000
0000
0000
0000
0000
0000
0000
0000
0000
0000
0000
0000
0000
0000
0000
0000
0000
0000
0000
0000
0000
0000
0000
0000
0000
0000
0000
0000
0000
0000
0000
0000
0000
0000
0000
0000
0000
0000
0000
0000
0000
0000
3000
0000
0000
0000
0000
0000
0000
0000
0000
0000
0000
0000
0000
0000
0000
0000
0000
,
0011
0000
0000
0100
0000
0000
1000
0000
,
0022
0000
0000
0000
0000
0000
0000
0000
0000
0000
0000
0000
0000
0000
0000
0000
0000
0000
0000
0000
0000
0000
0000
0000
0000
0000
0000
0000
0000
0000
0000
0000
0000
0000
0000
0000
0000
0000
0000
0000
0000
0000
0000
0000
0000
0000
0000
0033
0000
0000
0000
0000
0000
0000
0000
0000
0000
0000
0000
0000
0000
0000
0000
0000
,
1100
0000
0000
0100
0000
0000
0001
0000
,
2200
0000
0000
0000
0000
0000
0000
0000
0000
0000
0000
0000
0000
0000
0000
0000
0000
0000
0000
0000
0000
0000
0000
0000
0000
0000
0000
0000
0000
0000
0000
0000
0000
0000
0000
0000
0000
0000
0000
0000
0000
0000
0000
0000
0000
0000
0000
3300
0000
0000
0000
0000
0000
0000
0000
0000
0000
0000
0000
0000
0000
0000
0000
0000
,
0110
0000
0000
0001
0000
0000
1000
0000
,
0220
0000
0000
0000
0000
0000
0000
0000
0000
0000
0000
0000
0000
0000
0000
0000
0000
0000
0000
0000
0000
0000
0000
0000
0000
0000
0000
0000
0000
0000
0000
0000
0000
0000
0000
0000
0000
0000
0000
0000
0000
0000
0000
0000
0000
0000
0000
0330
0000
0000
0000
0000
0000
0000
0000
0000
0000
0000
0000
0000
0000
0000
0000
0000
,
0001
0100
1000
0010
,
1000
0100
0001
1000
,
0100
0010
1000
0100
,
0001
1000
0001
0100
,
1001
0110
0011
1100
,
1100
0101
1010
0011
,
0100
1000
0010
0000
0001
1000
0100
0000
,
0010
0000
0000
0000
0000
0000
0000
0000
1000
0000
0000
0000
0000
0000
0000
0000
0001
0000
0000
0000
0000
0000
0000
0000
0000
0000
0000
0000
0000
0000
0000
0000
0220
0000
0000
0000
0000
0000
0000
0000
0000
0000
0000
0000
0000
0000
0000
0330
0000
0000
0000
0000
0000
0000
0000
0000
1001
0000
0000
0000
0000
0000
0000
0000
,
0001
1000
0010
0000
0100
0001
0000
0100
,
0010
1000
0000
0010
1000
0000
1001
0000
,
0100
0010
1000
0000
0001
0010
0000
0010
,
0100
1000
0010
0100
0001
0000
0101
0000
,
0010
0000
0100
0000
0010
1000
0000
1000
,
0100
0000
0010
0000
0001
1000
0000
1000
,
0002
0000
0000
0000
0000
0000
0000
0000
0000
0000
0000
0000
0000
0000
0000
0003
0200
0000
0000
0000
0000
0000
0000
0000
0000
0000
0000
0000
0000
0000
0000
0300
0020
0000
0000
0000
0000
0000
0000
0000
0000
0000
0000
0000
0000
0000
0000
0030
2000
0000
0000
0000
0000
0000
0000
0000
0000
0000
0000
0000
0000
0000
0000
3000
,
0100
1000
0010
0001
0010
0000
0110
0000
,
0001
0000
0100
0000
1000
0100
0001
0000
,
0010
0000
1000
0000
0010
0001
0100
0000
,
1000
0000
0100
0000
0010
0000
0100
0001
,
0010
0000
0100
0000
1000
0010
0100
0000
,
0001
0000
0000
0000
0000
0000
0000
0000
0100
0000
0000
0000
0000
0000
0000
0000
0010
0000
0000
0000
0000
0000
0000
0000
1000
0000
0000
0000
0000
0000
0000
0000
0010
0000
0000
0000
0000
0000
0000
0000
0000
0000
0000
0000
0000
0000
0000
0000
0200
0000
0000
0000
0000
0000
0000
0000
0000
0000
0000
0000
0000
0000
0000
0300
,
0001
0000
0000
0000
0000
0000
0000
0000
1000
0000
0000
0000
0000
0000
0000
0000
0100
0000
0000
0000
0000
0000
0000
0000
1000
0000
0000
0000
0000
0000
0000
0000
0010
0000
0000
0000
0000
0000
0000
0000
0000
0000
0000
0000
0000
0000
0000
0000
2000
0000
0000
0000
0000
0000
0000
0000
0000
0000
0000
0000
0000
0000
0000
3000
,
0100
1000
0010
0100
0001
0000
1000
0001
,
1000
0000
0010
0000
0100
0001
0101
0000
,
1000
0001
0100
0000
0010
1000
0000
0010
,
0100
0001
0000
0100
0001
0000
1001
0000
,
0010
0100
0001
0000
1000
0100
0000
0100
,
0010
0001
0100
0010
1000
0000
1010
0000
,
0100
0000
0010
0000
0100
0001
0000
0001
,
0010
0000
0100
0000
1000
0001
0000
0001
,
2000
0000
0000
0000
0000
0000
0000
0000
0000
0000
0000
0000
0000
0000
0000
3000
0020
0000
0000
0000
0000
0000
0000
0000
0000
0000
0000
0000
0000
0000
0000
0030
0200
0000
0000
0000
0000
0000
0000
0000
0000
0000
0000
0000
0000
0000
0000
0300
0002
0000
0000
0000
0000
0000
0000
0000
0000
0000
0000
0000
0000
0000
0000
0003
,
0010
0001
0100
1000
0100
0000
0110
0000
,
1000
0000
0010
0000
0001
0010
1000
0000
,
0100
0000
0001
0000
0100
1000
0010
0000
,
0001
0000
0010
0000
0100
0000
0010
1000
,
0100
0000
0010
0000
0001
0100
0010
0000
,
1000
0000
0000
0000
0000
0000
0000
0000
0010
0000
0000
0000
0000
0000
0000
0000
0100
0000
0000
0000
0000
0000
0000
0000
0001
0000
0000
0000
0000
0000
0000
0000
0100
0000
0000
0000
0000
0000
0000
0000
0000
0000
0000
0000
0000
0000
0000
0000
0020
0000
0000
0000
0000
0000
0000
0000
0000
0000
0000
0000
0000
0000
0000
0030
,
1000
0000
0000
0000
0000
0000
0000
0000
0001
0000
0000
0000
0000
0000
0000
0000
0010
0000
0000
0000
0000
0000
0000
0000
0001
0000
0000
0000
0000
0000
0000
0000
0100
0000
0000
0000
0000
0000
0000
0000
0000
0000
0000
0000
0000
0000
0000
0000
0002
0000
0000
0000
0000
0000
0000
0000
0000
0000
0000
0000
0000
0000
0000
0003
,
0010
0001
0010
0001
1000
0100
1000
0100
,
0001
0100
1000
0010
0100
0000
0010
0000
,
2002
0000
0000
0000
0000
0000
0000
0000
0000
0000
0000
0000
0000
0000
0000
0000
0000
0000
0000
0000
0000
0000
0000
0000
0000
0000
0000
0000
0000
0000
0000
0000
0000
0000
0000
0000
0000
0000
0000
0000
0000
0000
0000
0000
0000
0000
0000
3003
0000
0000
0000
0000
0000
0000
0000
0000
0000
0000
0000
0000
0000
0000
0000
0000
,
0200
0000
0000
0000
0000
0000
0000
0000
0000
0000
0000
0000
0000
0000
0000
0000
0000
0000
0000
0000
0000
0000
0000
0000
0000
0000
0000
0000
0000
0000
0000
0000
0000
0000
0000
0000
0000
0000
0000
0000
0000
0000
0000
0000
0000
0000
0000
0000
0000
0000
0000
0000
0000
0000
0000
0000
0000
0000
0000
0000
0000
0000
0000
0300
,
0002
0000
0000
0000
0000
0000
0000
0000
0000
0000
0000
0000
0000
0000
0000
0000
0000
0000
0000
0000
0000
0000
0000
0000
0000
0000
0000
0000
0000
0000
0000
0000
0000
0000
0000
0000
0000
0000
0000
0000
0000
0000
0000
0000
0000
0000
0000
0000
0000
0000
0000
0000
0000
0000
0000
0000
0000
0000
0000
0000
0000
0000
0000
0003
,
2000
0000
0000
0000
0000
0000
0000
0000
0000
0000
0000
0000
0000
0000
0000
0000
0000
0000
0000
0000
0000
0000
0000
0000
0000
0000
0000
0000
0000
0000
0000
0000
0000
0000
0000
0000
0000
0000
0000
0000
0000
0000
0000
0000
0000
0000
0000
0000
0000
0000
0000
0000
0000
0000
0000
0000
0000
0000
0000
0000
0000
0000
0000
3000
,
0010
0100
0001
0000
,
0010
0100
1000
0000
,
0100
0001
1000
0100
,
1000
0010
0100
0000
,
0001
0000
1000
0000
0100
0000
0010
0100
,
0010
0000
0001
0000
0100
0000
0001
0100
,
1000
0000
0100
0000
0010
0000
0100
1000
,
0100
0001
0010
1000
,
0010
0000
0001
0000
0100
0000
0010
1000
,
0100
0000
1000
0000
0010
0000
0100
0001
,
0010
0000
0100
0000
1000
0000
0001
1000
,
0001
0000
0000
0000
,
0100
0010
1000
0000
0001
0100
0010
0000
,
1000
0100
0001
0000
0001
0100
1000
0000
,
0001
0000
0010
0000
0100
1000
0010
0000
,
0100
1000
0100
0000
0001
0000
0011
0000
,
0010
0100
0001
0000
1000
0010
0100
0000
,
0001
0010
1000
0000
1000
0010
0001
0000
,
1000
0000
0100
0000
0010
0001
0100
0000
,
0010
0001
0010
0000
1000
0000
1100
0000
,
0001
0000
1000
0000
0010
0000
0100
1000
,
0100
0000
0001
0000
0010
0000
1000
0010
,
1000
0010
0100
1000
,
0001
0010
0100
1010
,
1000
0000
0001
0000
0100
0000
0010
0001
,
0010
0000
1000
0000
0100
0000
0001
0100
,
0001
0100
0010
0001
,
1100
0000
0000
0000
,
0001
0000
1010
0000
0000
0010
0100
0000
,
1000
0000
0100
0000
0010
0001
0100
0000
,
0010
0000
0110
0000
0000
1000
0100
0000
,
0010
0011
0100
1000
,
0010
0000
0100
0000
0001
1000
0100
0000
,
0010
0000
0010
0000
0001
0001
1000
0000
,
0010
0000
0010
0000
0100
0100
0001
0010
,
0100
0000
0100
0000
1000
0010
0100
0100
,
0010
0000
0101
0000
0001
0100
0010
0000
,
0001
0000
1010
0000
0100
1000
0010
0000
,
1100
0000
0011
0000
0010
0100
1000
0000
,
0001
0000
1100
0000
0010
0001
1000
0000
,
0100
1000
0010
0000
1000
0001
0010
0000
,
0100
1000
0100
0000
1000
1000
0001
0000
,
0010
0010
0100
0000
1000
0010
1000
0100
,
0001
0000
0100
0000
0001
0100
0010
0000
,
0001
0000
0100
0000
0010
1000
0100
0000
,
0001
0000
1000
0000
0010
0000
0010
0100
,
0001
0100
1000
0000
1000
0100
0001
0000
,
0010
0000
0100
1000
0020
0000
0000
0000
,
1030
0000
0010
0000
0100
0001
0010
0000
,
0100
0000
1000
0000
0001
0010
0100
0000
,
1000
0010
0001
0000
0001
0010
1000
0000
,
0220
0000
0000
0330
,
0010
0100
0001
0000
0010
0000
0100
0000
,
1000
0010
0100
0000
0001
0000
0101
0000
,
0100
0010
1000
0000
0100
0000
0010
0000
,
0001
0100
0010
0000
1000
0000
1010
0000
,
0100
1000
0100
0000
0010
0000
0011
0000
,
0001
1000
0001
0100
0010
0000
0110
0000
,
1000
0000
0100
0010
0001
0000
1000
0000
,
0010
1000
0001
0000
0010
0100
0100
0100
,
0100
1000
0010
0000
0100
0000
0001
0000
,
1000
0000
0010
0000
0100
0001
1000
0000
,
0010
1000
0001
0000
0010
0000
0100
0000
,
1000
0100
1000
0000
0010
0100
0010
0000
,
0100
0001
0010
0000
0100
0000
1000
0000
,
0001
0000
0010
0000
0100
1000
0001
0000
,
0010
0001
1000
0000
0010
0000
0100
0000
,
0001
0100
0001
0000
0010
0100
0010
0000
,
0010
0001
0100
0000
0010
0000
1000
0000
,
0001
0000
0100
0000
0010
1000
0001
0000
,
0100
0001
1000
0000
0100
0000
0010
0000
,
0001
0010
0001
0000
0100
0010
0100
0000
,
0010
1000
0100
0000
0010
0000
0001
0000
,
1000
0000
0100
0000
0010
0001
1000
0000
,
0100
1000
0001
0000
0100
0000
0010
0000
,
1000
0000
0010
0000
1000
0000
0000
0000
0100
0000
0000
0001
0000
0000
0100
0000
,
1000
0010
0100
0000
0001
0010
0100
0000
,
1000
0000
0001
0000
0100
0010
0010
0000
,
0001
0100
0010
0000
1000
0100
0010
0000
,
0001
0000
1000
0000
0010
0100
0100
0000
,
0001
0100
1000
0000
1000
0100
0001
0000
,
0010
0000
0100
0000
1000
0100
1000
0000
,
1000
0010
0001
0000
0001
0010
1000
0000
,
0100
0000
0010
0000
0001
0010
0001
0000
,
0001
0100
0010
0000
1000
0100
0010
0000
,
0001
0000
1001
0000
0010
0100
0110
0000
,
1000
0010
0100
0000
0001
0010
0100
0000
,
1000
0000
1001
0000
0100
0010
0110
0000
,
1000
0010
0011
0000
0001
0010
1010
0000
,
0100
0000
0110
0000
0001
0010
0101
0000
,
0001
0100
1100
0000
1000
0100
0101
0000
,
0010
0000
0110
0000
1000
0100
1010
0000
,
1001
0000
0000
0000
;

//---------------dance-single - ----------------
#NOTES:
     dance-single:
     :
     Hard:
     7:
     :
0000
0000
0000
0000
,
0000
0000
0000
0000
,
0000
0000
0000
0000
,
0000
0000
0000
0000
,
1000
0000
0001
0000
,
0000
0001
1000
0100
0000
1000
0001
0010
,
1000
1000
0001
0000
0100
0000
0100
0000
0001
0001
0100
0000
0010
0000
0010
0000
,
0100
0100
0001
0000
1000
0000
1000
0000
0010
0010
1000
0000
1000
0000
0001
0000
,
0100
0100
0001
0000
0001
0000
0001
0000
1000
1000
0100
0000
0010
0000
0010
0000
,
0100
0100
0001
0000
1000
0000
1000
0000
1000
0010
1000
0000
0001
0000
0100
0000
,
1000
0000
0000
0001
0000
0000
1000
0000
,
2000
0000
0000
0000
0000
0000
0000
0000
0000
0000
0000
0000
0000
0000
0000
0000
0000
0000
0000
0000
0000
0000
0000
0000
0000
0000
0000
0000
0000
0000
0000
0000
0000
0000
0000
0000
0000
0000
0000
0000
0000
0000
0000
0000
0000
0000
0000
3000
0000
0000
0000
0000
0000
0000
0000
0000
0000
0000
0000
0000
0000
0000
0000
0000
,
0010
0000
0000
0100
0000
0000
0010
0000
,
0020
0000
0000
0000
0000
0000
0000
0000
0000
0000
0000
0000
0000
0000
0000
0000
0000
0000
0000
0000
0000
0000
0000
0000
0000
0000
0000
0000
0000
0000
0000
0000
0000
0000
0000
0000
0000
0000
0000
0000
0000
0000
0000
0000
0000
0000
0000
0000
0000
0000
0000
0030
0000
0000
0000
0000
0000
0000
0000
0000
0000
0000
0000
0000
,
0100
0000
0000
1000
0010
0000
0100
0000
0010
0000
1000
0000
0001
1000
0000
0000
,
0100
0000
0000
0001
0010
0000
0100
0000
0010
0000
0001
0000
1000
0001
0000
0000
,
0010
0000
0000
1000
0100
0000
0010
0000
0100
0000
1000
0000
0001
1000
0000
0000
,
0010
0000
0000
0001
0100
0000
0010
0000
0000
0100
0001
0000
1000
0001
0000
0000
,
1000
0000
0000
0100
0010
0000
0001
0000
1000
0000
0000
0100
0001
0000
0010
0000
,
0001
0000
0000
0100
0010
0000
1000
0000
0001
0000
0000
0100
1000
0000
0010
0000
,
1000
0000
0000
0010
0100
0000
0001
0000
1000
0000
0000
0010
0001
0000
0100
0000
,
0000
1001
0000
0110
0000
1001
0000
0000
,
2020
0000
0000
0000
0000
0000
0000
0000
0000
0000
0000
0000
0000
0000
0000
0000
0000
0000
0000
0000
0000
0000
0000
0000
0000
0000
0000
0000
0000
0000
0000
0000
0000
0000
0000
0000
0000
0000
0000
0000
0000
0000
0000
0000
0000
0000
0000
3030
0000
0000
0000
0000
0000
0000
0000
0000
0000
0000
0000
0000
0000
0000
0000
0000
,
0000
1000
0001
0100
0010
1000
0001
0100
,
0010
1000
0001
0100
0001
0100
0010
1000
,
0000
0001
1000
0010
0100
0001
1000
0010
,
0100
0001
1000
0010
1000
0010
0100
0001
,
0000
0001
1000
0100
0010
0001
1000
0001
,
0100
0001
1000
0100
1000
0100
0010
0001
,
1001
0100
0010
1000
0001
0010
0100
0001
,
0100
1000
0010
0001
0010
0100
0001
0100
,
0110
0001
1000
0100
0010
1000
0001
0010
,
0011
0100
1000
0010
1100
0001
0010
0001
,
1000
0000
0000
0000
0000
0000
0000
0000
0010
0000
0000
0000
1000
0000
0000
0000
0002
0000
0000
0000
0000
0000
0000
0000
0000
0000
0000
0000
0000
0000
0000
0000
0000
0000
0000
0000
0000
0000
0000
0003
0000
0000
0000
0000
0000
0000
0000
0000
0000
0000
0000
0000
0000
0000
0000
0000
0010
0000
0000
0000
0000
0000
0000
0000
,
0001
0000
0000
0110
0000
0000
1000
0010
,
0200
0000
0000
0000
0000
0000
0000
0000
0000
0000
0000
0000
0000
0000
0000
0000
0000
0000
0000
0000
0000
0000
0000
0000
0001
0000
0000
0000
0000
0000
0000
0000
0000
0000
0000
0000
0000
0000
0000
0000
0000
0000
0000
0000
0000
0000
0000
0300
0000
0000
0000
0000
0000
0000
0000
0000
0001
0000
0000
0000
0000
0000
0000
0000
,
0100
0000
0000
1010
0000
0000
0001
1000
,
0020
0000
0000
0000
0000
0000
0000
0000
0000
0000
0000
0000
0000
0000
0000
0000
0000
0000
0000
0000
0000
0000
0000
0000
0100
0000
0000
0000
0000
0000
0000
0000
0000
0000
0000
0000
0000
0000
0000
0000
0000
0000
0000
0000
0000
0000
0000
0030
0000
0000
0000
0000
0000
0000
0000
0000
1000
0000
0000
0000
0000
0000
0000
0000
,
0001
0000
0000
1001
0000
0000
0100
0001
,
2000
0000
0000
0000
0000
0000
0000
0000
0000
0000
0000
0000
0000
0000
0000
0000
0000
0000
0000
0000
0000
0000
0000
0000
0001
0000
0000
0000
0000
0000
0000
0000
0000
0000
0000
0000
0000
0000
0000
0000
0000
0000
0000
0000
0000
0000
0000
3000
0000
0000
0000
0000
0000
0000
0000
0000
0100
0000
0000
0000
0000
0000
0000
0000
,
0001
0000
0000
0011
0000
0000
0100
1000
,
0002
0000
0000
0000
0000
0000
0000
0000
0000
0000
0000
0000
0000
0000
0000
0000
0000
0000
0000
0000
0000
0000
0000
0000
1000
0000
0000
0000
0000
0000
0000
0000
0000
0000
0000
0000
0000
0000
0000
0000
0000
0000
0000
0000
0000
0000
0000
0003
0000
0000
0000
0000
0000
0000
0000
0000
0100
0000
0000
0000
0000
0000
0000
0000
,
1000
0000
0000
0101
0000
0000
0001
0010
,
2000
0000
0000
0000
0000
0000
0000
0000
0000
0000
0000
0000
0000
0000
0000
0000
0000
0000
0000
0000
0000
0000
0000
0000
0010
0000
0000
0000
0000
0000
0000
0000
0000
0000
0000
0000
0000
0000
0000
0000
0000
0000
0000
0000
0000
0000
0000
3000
0000
0000
0000
0000
0000
0000
0000
0000
0010
0000
0000
0000
0000
0000
0000
0000
,
1001
0000
0000
0110
0000
0000
1010
0000
,
0202
0000
0000
0000
0000
0000
0000
0000
0000
0000
0000
0000
0000
0000
0000
0000
0000
0000
0000
0000
0000
0000
0000
0000
0000
0000
0000
0000
0000
0000
0000
0000
0000
0000
0000
0000
0000
0000
0000
0000
0000
0000
0000
0000
0000
0000
0000
0303
0000
0000
0000
0000
0000
0000
0000
0000
0000
0000
0000
0000
0000
0000
0000
0000
,
0011
0000
0000
1100
0000
0000
1001
0000
,
0220
0000
0000
0000
0000
0000
0000
0000
0000
0000
0000
0000
0000
0000
0000
0000
0000
0000
0000
0000
0000
0000
0000
0000
0000
0000
0000
0000
0000
0000
0000
0000
0000
0000
0000
0000
0000
0000
0000
0000
0000
0000
0000
0000
0000
0000
0000
0330
0000
0000
0000
0000
0000
0000
0000
0000
0000
0000
0000
0000
0000
0000
0000
0000
,
1010
0000
0000
0101
0000
0000
1100
0000
,
1001
0000
0000
0000
,
1000
0000
0001
0100
0000
0000
0010
0000
1000
0000
0001
1000
0000
0000
0100
0000
,
0001
0000
1000
0100
0000
0000
0010
0000
0001
0000
1000
0001
0000
0000
0100
0000
,
0001
0000
1000
0010
0000
0000
0100
0000
0001
0000
1000
0001
0000
0000
0010
0000
,
1000
0000
0001
0100
0000
0000
0010
0000
1000
0000
0001
1000
0000
0000
0100
0000
,
1001
0000
0001
0100
0000
0000
0010
0000
1010
0000
0001
1000
0000
0000
0100
0000
,
0110
0000
0010
0001
0000
0000
1000
0000
1100
0000
0010
0100
0000
0000
0001
0000
,
1000
0100
0001
0000
0000
0000
0000
0000
0001
0010
1000
0000
0000
0000
0000
0000
,
1000
0000
0000
0000
0000
0000
0000
0000
0100
0000
0000
0000
0000
0000
0000
0000
0010
0000
0000
0000
0000
0000
0000
0000
0001
0000
0000
0000
0000
0000
0000
0000
0220
0000
0000
0000
0000
0000
0000
0000
0000
0000
0000
0000
0000
0000
0000
0330
0000
0000
0000
0000
0000
0000
0000
0000
1001
0000
0000
0000
0000
0000
0000
0000
,
0100
0001
0010
0100
1000
0010
1000
0100
,
0001
0100
1000
0010
0100
0001
0010
0000
,
0001
1000
0010
0100
1000
0100
0001
0100
,
0010
1000
0001
0010
0100
1000
0001
0100
,
0010
0010
0100
0000
0001
0001
1000
0000
,
1000
0001
0100
0010
1000
0000
0001
1000
,
0010
0100
0001
0000
0001
0100
1000
0000
,
1000
0000
0100
0000
0001
0000
0010
0000
1000
0000
0010
0000
0001
0010
0001
0000
,
1000
0010
0001
0010
1000
0100
0010
0001
,
0100
1000
0100
0001
0010
0100
0110
0000
,
0001
0010
0100
1000
0001
0010
1000
0010
,
0001
0100
1000
0100
0010
0100
0101
0000
,
1000
0000
1000
0000
0100
1000
0000
0000
0001
0000
0001
0000
0010
0001
0000
0000
,
0100
0000
0010
0000
1000
0000
0001
0000
0100
0000
0010
1000
0010
0000
0000
0000
,
0100
0001
0100
0010
1000
0001
0000
0001
,
0100
0000
0001
0000
0010
0000
1000
0000
0010
0001
0000
0000
1000
0010
1000
0000
,
0010
1000
0100
0010
0001
0100
0001
0010
,
1000
0010
0001
0100
0010
1000
0100
0000
,
1000
0001
0100
0010
0001
0010
1000
0010
,
0100
0001
1000
0100
0010
0001
1000
0000
,
0100
0010
0001
0100
0100
0010
1000
0000
,
0001
1000
0010
0100
0001
1000
1010
0000
,
0100
0010
1000
0000
1000
0010
0001
0000
,
0001
0000
0010
0000
1000
0000
0100
0000
0001
0000
0100
0000
1000
0100
1000
0000
,
0001
0100
1000
0100
0001
0010
0100
1000
,
0010
0001
0010
1000
0100
0010
0110
0000
,
1000
0100
0010
0001
1000
0100
0001
0100
,
1000
0010
0001
0010
0100
0010
1010
0000
,
0001
0000
0001
0000
0010
0001
0000
0000
1000
0000
1000
0000
0100
1000
0000
0000
,
0010
0000
0100
0000
0001
0100
0000
0000
0010
1000
0000
0000
0100
0000
0001
0000
,
0010
0000
1000
0000
0010
0100
0010
0000
0001
0000
1000
0000
0010
0100
0010
0000
,
0010
0000
1000
0000
0100
0000
0001
0000
0100
1000
0000
0000
0001
0100
0001
0000
,
2010
0000
0000
0000
,
0200
0000
0000
0000
0000
0000
0000
0000
0000
0000
0000
0000
0000
0000
0000
0000
0000
0000
0000
0000
0000
0000
0000
0000
0000
0000
0000
0000
0000
0000
0000
0000
0000
0000
0000
0000
0000
0000
0000
0000
0000
0000
0000
0000
0000
0000
0000
3000
0000
0000
0000
0000
0000
0000
0000
0000
0000
0000
0000
0000
0000
0000
0000
0000
,
0020
0000
0000
0000
0000
0000
0000
0000
0000
0000
0000
0000
0000
0000
0000
0000
0000
0000
0000
0000
0000
0000
0000
0000
0000
0000
0000
0000
0000
0000
0000
0000
0000
0000
0000
0000
0000
0000
0000
0000
0000
0000
0000
0000
0000
0000
0000
0300
0000
0000
0000
0000
0000
0000
0000
0000
0000
0000
0000
0000
0000
0000
0000
0000
,
0000
0000
0000
0000
0000
0000
0000
0000
0000
0000
0000
0000
0000
0000
0000
0000
0000
0000
0000
0000
0000
0000
0000
0000
0000
0000
0000
0000
0000
0000
0000
0000
0000
0000
0000
0000
0000
0000
0000
0000
0000
0000
0000
0000
0000
0000
0000
0030
0000
0000
0000
0000
0000
0000
0000
0000
0000
0000
0000
0000
0000
0000
0000
0000
,
0001
1000
0001
0100
,
0001
0010
0001
1000
,
0100
0010
1000
0010
0001
1000
0100
0000
,
1000
0010
0100
0001
0000
0000
0000
0000
,
0010
0000
0100
0000
0001
0000
1000
0100
,
0010
0000
0100
0000
1000
0000
0010
0100
,
0001
0000
0100
0000
0010
0000
1000
0100
,
1000
0000
0010
0000
0100
0000
0001
1000
,
0100
0000
0010
0000
1000
0000
0001
0010
,
0100
0000
0010
0000
0001
0000
0100
0010
,
1000
0000
0010
0000
0100
0000
0001
0010
,
0001
0000
0100
0000
1000
0000
0100
1000
,
0010
0000
0101
0000
1000
0100
0010
0000
,
0010
0000
1100
0000
0001
0010
0100
0000
,
0010
0000
1001
0000
0001
0100
1000
0000
,
0100
0000
0110
0000
1000
0100
0000
0001
,
0100
0000
1010
0000
0001
0010
0100
0000
,
0100
0000
0011
0000
1000
0100
0010
0000
,
0100
0000
1001
0000
1000
0010
0001
0000
,
0010
0000
0110
0000
0001
0010
0000
1000
,
0100
0010
0001
0000
1000
0000
0001
0010
,
0100
1000
0010
0000
0110
0000
0100
0001
,
0010
0000
1100
0000
0100
1000
0000
1000
,
0010
0100
0001
0000
0011
0000
0100
1000
,
0010
0100
1000
0000
0001
0000
1000
0100
,
0010
0001
0100
0000
0110
0000
0010
1000
,
0100
0000
0011
0000
0010
0001
0000
0001
,
0200
0000
0000
0000
0000
0000
0000
0000
0000
0000
0000
0000
0000
0000
0000
0000
0000
0000
0000
0000
0000
0000
0000
0000
0000
0000
0000
0000
0000
0000
0000
0000
0000
0000
0000
0000
0000
0000
0000
0000
0000
0000
0000
0000
0000
0000
0000
0300
0000
0000
0000
0000
0000
0000
0000
0000
0000
0000
0000
0000
0000
0000
0000
0000
,
0010
0000
0000
0000
1000
0000
0001
0000
0000
0000
1000
0000
0010
0100
0000
0000
,
0001
0000
0000
0000
0010
0000
0100
0000
0000
0000
0100
0000
1000
0010
1000
0000
,
0001
0000
0000
0000
1000
0000
0100
0000
0000
0000
0010
0000
0001
0010
0000
0000
,
0100
0000
0000
0000
1000
0000
0010
0000
0100
0001
0000
0000
1000
0010
0000
0000
,
0100
0000
0000
0000
0001
0000
1000
0000
0000
0000
0001
0000
0100
0010
0000
0000
,
1000
0000
0100
0000
1000
0000
0010
0000
0100
0001
0100
0000
0001
0000
0010
0000
,
0100
0000
0000
0000
1000
0000
0010
0000
0100
0001
0100
0000
0010
0000
1000
0000
,
0100
0000
0000
0000
0101
0000
0100
0000
0010
1000
0000
0000
0001
0100
0000
0000
,
0010
0000
0000
0000
0110
0000
0000
0100
1000
0000
0010
0000
0100
0000
0001
0000
,
0010
0000
0000
0000
0011
0000
0000
0010
0001
0000
1000
0000
0010
0000
0100
0000
,
0001
0000
0000
0000
0101
0000
0000
0100
0010
0000
1000
0000
0100
0000
1000
0000
,
0010
0000
0100
0000
1000
0000
0000
0000
0001
0010
0000
0000
0001
1000
0001
0000
,
0100
0000
0000
0000
0110
0000
0000
0000
0100
0000
0010
0000
1000
0100
1000
0000
,
0100
0000
0000
0000
0011
0000
0000
0000
0010
0001
0000
0000
0001
0010
0001
0000
,
0100
0000
1010
0000
0100
0010
1000
0001
,
0010
0000
1001
0000
0100
1000
0001
0010
,
1000
0100
0010
0000
0001
0000
0100
0000
,
0010
0100
0001
0000
0001
0100
1000
0000
,
0100
0000
0001
0000
0010
0100
1000
0000
,
1000
0100
0001
0000
0001
0100
1000
0000
,
0001
0010
0100
0000
1000
0000
0010
0000
,
0100
0010
1000
0000
1000
0010
0001
0000
,
0010
1000
0001
1000
,
0010
0100
0001
0010
0100
0000
1010
0000
,
0001
0010
0100
1000
0010
0000
0100
0000
,
0001
0000
1000
0010
0100
0001
0010
0000
,
0001
0100
1000
1000
0000
0100
0001
0010
,
0100
0000
1000
0000
0010
0100
0010
0000
,
0100
0000
0001
0010
0100
1000
1010
0000
,
0000
0000
0001
0010
1000
0000
0010
0000
,
1000
0010
0100
0001
0010
0100
1000
0000
,
0001
0100
0001
0100
0001
0000
1010
0000
,
0010
0100
0001
0101
0000
0010
0100
1000
,
0010
0000
0100
0000
0001
1000
0010
0010
,
0100
0001
1000
1001
0000
0100
0010
0001
,
1000
0000
0001
0000
0010
0000
0100
0000
1000
0000
0010
1000
0010
0000
0100
0000
,
0001
0010
0100
0110
0000
1000
0001
1000
,
0110
0000
0000
1000
0000
0001
0100
1000
,
0100
0001
0010
1000
0000
0010
0001
1000
,
0010
0000
0100
0000
0001
0000
1000
0100
1000
0000
0010
0000
0100
0000
0001
0000
,
0001
1000
0010
1010
0000
0100
0001
0010
,
0100
0000
0000
0000
1000
0000
0000
0010
0000
0000
0001
0000
0000
0010
0000
0000
,
1000
0001
0100
0101
0000
0010
1000
0100
,
0010
0000
0000
0000
0001
0000
0000
0100
0000
0000
1000
0000
0000
0100
0000
0000
,
0001
1000
0100
1100
0000
0010
0001
0100
,
0010
0000
0000
0000
1000
0000
0000
0100
0000
0000
0001
0000
0000
0100
0000
0000
,
1000
0001
0010
0011
0000
0100
1000
0010
,
0100
0000
0100
0000
0001
0010
0000
0100
1000
0000
1000
0000
1000
0000
0000
0000
,
0010
0000
0100
0000
0001
0010
0000
0000
0100
0000
1000
0000
0010
0000
0100
0000
,
0001
0000
0000
0000
0001
0000
1000
0000
0100
0000
0010
0000
0001
0010
0000
0000
,
0100
1000
0000
0000
0010
0000
0110
0000
0000
0000
0100
0000
0001
0000
0010
0000
,
0100
1000
0000
0000
0010
0000
0010
0000
0100
0001
0000
0000
0010
0000
0010
0000
,
0000
0000
0100
0000
0000
1000
0000
0000
0010
0000
0010
0100
0000
0001
0000
0010
,
0000
0000
0100
0000
0000
1000
0000
0000
0010
0000
0100
0000
1000
0000
0000
0000
,
0000
0000
0010
0000
0000
0001
0000
0000
0100
0000
0100
0010
0000
1000
0000
0100
,
0000
0000
0010
0000
0000
0001
0000
0000
0100
0000
0010
0000
1000
0000
0000
0000
,
0001
0000
1000
0000
0100
0000
0000
0010
0001
0000
0100
0000
0010
0000
1000
0000
,
0100
0000
1000
0000
0001
0000
0100
0000
0010
0000
0000
1000
0010
0000
0100
0000
,
0001
0010
0000
0000
0100
0000
0100
0000
1000
0010
0000
0000
0100
0000
0100
0000
,
0001
0010
0001
0000
1000
0000
1000
0000
0010
0000
0100
0000
0001
0000
0000
0000
,
1000
0000
0001
0000
0010
0000
0000
0100
1000
0000
0010
0000
0100
0000
0001
0000
,
0010
0000
0001
0000
1000
0000
0010
0000
0100
0000
0000
0001
0100
0000
0010
0000
,
1000
0100
0000
0000
0010
0000
0010
0000
0001
0100
0000
0000
0010
0000
0010
0000
,
1000
0100
1000
0000
0001
0000
0001
0000
0100
0000
0010
0000
1000
0000
0000
0000
,
0101
0000
0000
0000
;

//---------------dance-double - ----------------
#NOTES:
     dance-double:
     :
     Beginner:
     1:
     :
00000000
00000000
00000000
00000000
,
00000000
00000000
00000000
00000000
,
00000000
00000000
00000000
00000000
,
00000000
00000000
00000000
00000000
,
00001000
00000000
00010000
00000000
,
00001000
00000000
00000100
00000000
,
00000001
00000000
00001000
00000000
,
00001000
00000000
00000100
00000000
,
00000000
00000001
00000000
00000100
,
00000000
00000100
00000000
00000000
,
00010000
00000000
00000000
00000000
,
00100000
00000000
00000000
00000000
,
00010000
00000000
00000000
00000000
,
00001000
00000000
00000000
00000000
,
00000110
00000000
00000000
00000000
,
00010000
00000000
00000000
00000000
,
00011000
00000000
00000000
00000000
,
00100000
00000000
00000000
00000000
,
00010000
00000000
10000000
00000000
,
10000000
00000000
00100000
00000000
,
01000000
00000000
00100000
00000000
,
00100000
00000000
00001000
00000000
,
00000010
00000000
00000000
00000001
,
00000000
00000001
00000000
00001000
,
00000000
00000100
00000000
00000010
,
00000000
00000000
00000000
00000110
,
00000000
00001000
00000000
00010000
,
00000000
01000000
00000000
00100000
,
00000000
01000000
00000000
00010000
,
00000000
01000000
00000000
10000000
,
00000000
00100000
00000000
00000000
,
00000100
00000000
00001000
00000000
,
00010000
00000000
00100000
00000000
,
00001000
00000000
00001000
00000000
,
00011000
00000000
00000000
00000000
,
00011000
00000000
00000000
00000000
,
00011000
00000000
00000000
00000000
,
00001000
00000000
00000000
00000000
,
00000110
00000000
00000000
00000000
,
00000001
00000000
00000000
00000000
,
00000110
00000000
00000000
00000000
,
00010000
00000000
00000000
00000000
,
10010000
00000000
00000000
00000000
,
00001000
00000000
00000000
00000000
,
00010000
00000000
00000000
00000000
,
00100000
00000000
00000000
00000000
,
10000000
00000000
00000000
00010000
,
00000000
00000000
00000000
00000000
,
00100000
00000000
00000000
00001000
,
00000000
00000000
00000000
00000000
,
00000000
00010000
00000000
00000010
,
00000000
00000100
00000000
00000001
,
00000000
00000010
00000000
00000100
,
00000000
00001000
00000000
00000100
,
00000000
00010000
00000000
00010000
,
00000000
00010000
00000000
00100000
,
00000000
01000000
00000000
00001000
,
00000000
00001000
00000000
00011000
,
00000000
00000000
01000000
00000000
,
00100000
00000000
00010000
00000000
,
10000000
00000000
01000000
00000000
,
00010000
00000000
00001000
00000000
,
00000010
00000000
00000001
00000000
,
00000100
00000000
00001000
00000000
,
00010000
00000000
00000010
00000000
,
00001000
00000000
00000001
00000000
,
00000001
00000000
00000010
00000000
,
00000100
00000000
00001000
00000000
,
00000001
00000000
00000010
00000000
,
00001000
00000000
00010000
00000000
,
01000000
00000000
10000000
00000000
,
00100000
00000000
00010000
00000000
,
00001000
00000000
01000000
00000000
,
00010000
00000000
10000000
00000000
,
00100000
00000000
00000000
00000000
,
01000000
00000000
00001000
00000000
,
00010000
00000000
00000000
00000000
,
00001000
00000000
00000001
00000000
,
00000010
00000000
00000000
00000000
,
00001000
00000000
01000000
00000000
,
10000000
00000000
00000000
00000000
,
10010000
00000000
00000000
00000000
,
01000000
00000000
00000000
00000000
,
10000000
00000000
00010000
00000000
,
00001000
00000000
00000000
00000000
,
00000010
00000000
00000001
00000000
,
00000010
00000000
00000000
00000000
,
00000100
00000000
00010000
00000000
,
00001000
00000000
00100000
00000000
,
00011000
00000000
00000000
00000000
,
00001000
00000000
00000000
00000000
,
00010000
00000000
00000000
00000000
,
00100000
00000000
00000000
00000000
,
00000000
00000000
00000000
00000000
,
10000000
00000000
01000000
00000000
,
10000000
00000000
00000000
00000000
,
00010000
00000000
10000000
00000000
,
00100000
00000000
00000000
00000000
,
00010000
00000000
00001000
00000000
,
00000010
00000000
00000100
00000000
,
00000001
00000000
00000100
00000000
,
00000010
00000000
00001000
00000000
,
00010000
00000000
00010000
00000000
,
00100000
00000000
10000000
00000000
,
01000000
00000000
00100000
00000000
,
00010000
00000000
00000000
00000000
,
00011000
00000000
00000010
00000000
,
00001000
00000000
00000010
00000000
,
00000100
00000000
00001000
00000000
,
00010000
00000000
01000000
00000000
,
10000000
00000000
01000000
00000000
,
00001000
00000000
00010000
00000000
,
00001000
00000000
00000001
00000000
,
00000110
00000000
00000000
00000000
,
00000001
00000000
00000010
00000000
,
00000100
00000000
00000010
00000000
,
00000100
00000000
00001000
00000000
,
00010000
00000000
10000000
00000000
,
01000000
00000000
10000000
00000000
,
00100000
00000000
01000000
00000000
,
00010000
00000000
00001000
00000000
,
00010000
00000000
00000000
00000000
,
00001000
00000000
00000001
00000000
,
00000100
00000000
00010000
00000000
,
00011000
00000000
00010000
00000000
,
01000000
00000000
10000000
00000000
,
00100000
00000000
01000000
00000000
,
00100000
00000000
01000000
00000000
,
01000000
00000000
00010000
00000000
,
00001000
00000000
00000010
00000000
,
00000100
00000000
00001000
00000000
,
00000001
00000000
00000010
00000000
,
00010000
00000000
00100000
00000000
,
10000000
00000000
01000000
00000000
,
00010000
00000000
10000000
00000000
,
00100000
00000000
00001000
00000000
,
00000010
00000000
00001000
00000000
,
00000100
00000000
00000010
00000000
,
00001000
00000000
00100000
00000000
,
01000000
00000000
00100000
00000000
,
01000000
00000000
00010000
00000000
,
01000000
00000000
00001000
00000000
,
00000010
00000000
00000001
00000000
,
00000100
00000000
00001000
00000000
,
00000100
00000000
00000001
00000000
,
00000010
00000000
00001000
00000000
,
00010000
00000000
00100000
00000000
,
10000000
00000000
01000000
00000000
,
00100000
00000000
00010000
00000000
,
10000000
00000000
01000000
00000000
,
00010000
00000000
00001000
00000000
,
00000010
00000000
00000001
00000000
,
00001000
00000000
00000001
00000000
,
00001001
00000000
00000000
00000000
,
00000100
00000000
00010000
00000000
,
00100000
00000000
00100000
00000000
,
10000000
00000000
00010000
00000000
,
01000000
00000000
01000000
00000000
,
00010000
00000000
00000010
00000000
,
00000001
00000000
00000001
00000000
,
00000010
00000000
00001000
00000000
,
00000100
00000000
00000100
00000000
,
00000010
00000000
00000110
00000000
,
00000100
00000000
00010000
00000000
,
01000000
00000000
01100000
00000000
,
01000000
00000000
00100000
00000000
,
01000000
00000000
01100000
00000000
,
10000000
00000000
00010000
00000000
,
00001000
00000000
00011000
00000000
,
00010000
00000000
00000100
00000000
,
00000001
00000000
00000100
00000000
,
00000010
00000000
00001000
00000000
,
00010000
00000000
00001000
00000000
,
00010000
00000000
10000000
00000000
,
10000000
00000000
00100000
00000000
,
01000000
00000000
00001000
00000000
,
00010000
00000000
00000010
00000000
,
00000100
00000000
00000010
00000000
,
00000100
00000000
00000010
00000000
,
00000100
00000000
00010000
00000000
,
00100000
00000000
10000000
00000000
,
01000000
00000000
00100000
00000000
,
10000000
00000000
00100000
00000000
,
00010000
00000000
00000010
00000000
,
00000001
00000000
00000100
00000000
,
00000010
00000000
00000100
00000000
,
00001001
00000000
00000000
00000000
;

//---------------dance-double - ----------------
#NOTES:
     dance-double:
     :
     Easy:
     3:
     :
00000000
00000000
00000000
00000000
,
00000000
00000000
00000000
00000000
,
00000000
00000000
00000000
00000000
,
00000000
00000000
00000000
00000000
,
00001000
00000000
00010000
00000000
,
00001000
00000000
00000100
00000010
,
00000001
00000000
00001000
00000000
,
00001000
00010000
00000100
00000000
,
00000000
00000001
00000010
00000100
,
00000010
00000100
00002000
00003000
,
00020000
00000000
00000000
00030000
,
00200000
00000000
00000000
00300000
,
00020000
00000000
00000000
00030000
,
00002000
00000000
00000000
00003000
,
00000201
00000000
00000000
00000300
,
00020000
00000000
00000000
00030000
,
00012000
00000000
00000000
00003000
,
00200000
00000000
00000000
00300000
,
00010000
00000000
10000000
00010000
,
10000000
00000000
00100000
01000000
,
01000000
00000000
00100000
00010000
,
00100000
00000000
00001000
00000100
,
00000010
00000100
00000000
00000001
,
00000010
00000001
00000000
00001000
,
00000001
00000100
00000000
00000010
,
00000110
00000000
00000000
00000110
,
00000000
00001000
00001000
00010000
,
00000000
01000000
00010000
00100000
,
00000000
01000000
00010000
00010000
,
00000000
01000000
00100000
10000000
,
01000000
00100000
00010000
00000000
,
00000100
00001000
00001000
00000000
,
00010000
00100000
00100000
00000000
,
00001000
00000100
00001000
00000000
,
00021000
00000000
00000000
00030000
,
00012000
00000000
00000000
00003000
,
00020100
00000000
00000000
00030000
,
00002000
00000000
00000000
00003000
,
00000120
00000000
00000000
00000030
,
00000002
00000000
00000000
00000003
,
00001200
00000000
00000000
00000300
,
00020000
00000000
00000000
00030000
,
00210000
00000000
00000000
00300000
,
00002000
00000000
00000000
00003000
,
00020000
00000000
00000000
00030000
,
00200000
00000000
00000000
00300000
,
10000000
00000000
00000000
01000000
00000000
00000000
00010000
00000000
,
00002000
00000000
00000000
00003000
,
00100000
00000000
00000000
00010000
00000000
00000000
00001000
00000000
,
00022000
00000000
00000000
00033000
,
00000000
00010000
00001000
00000010
,
00000000
00000100
00001000
00000001
,
00000000
00000010
00001000
00000100
,
00000000
00001000
00000001
00000100
,
00000000
00010000
00001000
00010000
,
00000000
00010000
01000000
00100000
,
00000000
01000000
00010000
00001000
,
00010000
00001000
00000000
00011000
,
00100000
00000000
01000000
00000000
,
00100000
00010000
00010000
00000000
,
10000000
00000000
01000000
00000000
,
00010000
00001000
00001000
00000000
,
00000010
00000000
00000001
00000000
,
00000100
00001000
00001000
00000000
,
00020000
00000000
00030010
00000000
,
00001000
00000100
00000001
00000000
,
00000001
00000000
00000010
00000000
,
00000100
00001000
00001000
00000000
,
00000001
00000000
00000010
00000000
,
00001000
00010000
00010000
00000000
,
01000000
00000000
10000000
00000000
,
00100000
00010000
00010000
00000000
,
00002000
00000000
01003000
00000000
,
00010000
00100000
10000000
00000000
,
00200000
00000000
00000000
00300000
,
01000000
00010000
00001000
00000000
,
00020000
00000000
00000000
00030000
,
00001000
00000100
00000001
00000000
,
00000020
00000000
00000000
00000030
,
00001000
00010000
01000000
00000000
,
10000000
00000000
00000000
00000000
,
10010000
00000000
00000000
00000000
,
02000000
00000000
00000000
03000000
,
10000000
01000000
00010000
00000000
,
00002000
00000000
00000000
00003000
,
00000010
00000001
00000001
00000000
,
00000020
00000000
00000000
00000030
,
00000100
00010000
00010000
00000000
,
00001000
00000000
00100000
00000000
,
00022000
00000000
00000000
00033000
,
00002000
00000000
00000000
00003000
,
00020000
00000000
00000000
00030000
,
00200000
00000000
00000000
00000000
,
00000000
00000000
00000000
00300000
,
10000000
00000000
01000000
00000000
,
10000000
00000000
00000000
00000000
,
00010000
00000000
10000000
00000000
,
00100000
00000000
00000000
00000000
,
00010000
00000000
00001000
00000000
,
00000010
00000000
00000100
00000000
,
00000001
00000000
00000100
00000000
,
00000010
00000000
00001000
00000000
,
00010000
00000000
00010000
00000000
,
00100000
00000000
10000000
00000000
,
01000000
00000000
00100000
00000000
,
00010000
00000000
00000000
00000000
,
00011000
00000100
00000010
00000000
,
00001000
00000001
00000010
00000000
,
00000100
00010000
00001000
00000000
,
00010000
00000000
01000000
00000000
,
10000000
00100000
01000000
00000000
,
00001000
00000000
00010000
00000000
,
00001000
00000100
00000001
00000000
,
00000110
00000000
00000000
00000000
,
00000001
00000000
00000010
00000000
,
00000100
00001000
00000010
00000000
,
00000100
00000000
00001000
00000000
,
00010000
00100000
10000000
00000000
,
01000000
00000000
10000000
00000000
,
00100000
10000000
01000000
00000000
,
00010000
00000000
00001000
00000000
,
00010000
00000000
00000000
00000000
,
00001000
00000010
00000001
00000000
,
00000100
00000010
00010000
00000000
,
00011000
00000000
00010000
00000000
,
01000000
00000000
10000000
00000000
,
00100000
00000000
01000000
00010000
,
00100000
00000000
01000000
10000000
,
01000000
00000000
00010000
00000000
,
00001000
00000000
00000010
00000001
,
00000100
00000000
00001000
00000100
,
00000001
00000000
00000010
00001000
,
00010000
00000000
00100000
00000000
,
10000000
00000000
01000000
00100000
,
00010000
00000000
10000000
00000000
,
00100000
00010000
00001000
00000000
,
00000010
00000001
00001000
00000000
,
00000100
00000000
00000010
00000000
,
00001000
00000000
00100000
00000000
,
01000000
00100000
00100000
00000000
,
01000000
00000000
00010000
00000000
,
01000000
00010000
00001000
00000000
,
00000010
00000000
00000001
00000000
,
00000100
00001000
00001000
00000000
,
00000100
00000000
00000001
00000000
,
00000010
00001000
00001000
00000000
,
00010000
00000000
00100000
00000000
,
10000000
01000000
01000000
00000000
,
00100000
00000000
00010000
00000000
,
10000000
01000000
01000000
00000000
,
00010000
00000000
00001000
00000000
,
00000010
00000001
00000001
00000000
,
00001000
00000000
00000001
00000000
,
00001001
00000000
00000000
00000000
,
00000100
00001000
00010000
00000000
,
00100000
00100000
00100000
00000000
,
10000000
01000000
00010000
00000000
,
01000000
01000000
01000000
00000000
,
00010000
00001000
00000010
00000000
,
00000001
00000001
00000001
00000000
,
00000010
00000000
00001000
00000000
,
00000100
00000100
00000100
00000000
,
00000010
00000000
00000110
00000000
,
00000100
00001000
00010000
00000000
,
01000000
00000000
01100000
00000000
,
01000000
10000000
00100000
00000000
,
01000000
00000000
01100000
00000000
,
10000000
01000000
00010000
00000000
,
00001000
00000000
00011000
00000000
,
00010000
00000010
00000100
00000000
,
00000001
00000000
00000100
00000000
,
00000010
00000000
00001000
00000000
,
00010000
00000000
00001000
00000000
,
00010000
01000000
10000000
00000000
,
10000000
00000000
00100000
00000000
,
01000000
00000000
00001000
00000000
,
00010000
00000000
00000010
00000000
,
00000100
00000001
00000010
00000000
,
00000100
00001000
00000010
00000000
,
00000100
00001000
00010000
00000000
,
00100000
00000000
10000000
00000000
,
01000000
10000000
00100000
00000000
,
10000000
00000000
00100000
00000000
,
00010000
00001000
00000010
00000000
,
00000001
00000000
00000100
00000000
,
00000010
00001000
00000100
00000000
,
00001001
00000000
00000000
00000000
;

//---------------dance-double - ----------------
#NOTES:
     dance-double:
     :
     Medium:
     6:
     :
00000000
00000000
00000000
00000000
,
00000000
00000000
00000000
00000000
,
00000000
00000000
00000000
00000000
,
00000000
00000000
00000000
00000000
,
10000000
00000000
00010000
00000000
,
00001000
00001000
00000100
00000010
,
00000001
00000010
00000000
00000001
00000100
00000010
00000100
00000000
,
00001000
00010000
00001000
00000000
00011000
00000000
01100000
00000000
,
00010000
00100000
00010000
00000000
00100000
10000000
01000000
00000000
,
00010000
00100000
00010000
00000000
22000000
00000000
33000000
00000000
,
00010000
00000000
00000000
00001000
00000000
00000000
00010000
00000000
,
00002000
00000000
00000000
00003000
,
01000000
00000000
00000000
10000000
00000000
00000000
00010000
00000000
,
02000000
00000000
00000000
00000000
00000000
00000000
00000000
03000000
,
01000000
00000000
00000000
00010000
00000000
00000000
00011000
00000000
,
00020000
00000000
00000000
00030000
,
00000010
00000000
00000000
00001000
00000000
00000000
00011000
00000000
,
00002000
00000000
00000000
00003000
,
00011000
00000000
01000000
00010000
00100000
00000000
00110000
00000000
,
00011000
00000000
00001000
00010000
00100000
00000000
00011000
00000000
,
00001100
00000000
00010000
01000000
01000000
00000000
00110000
00000000
,
00011000
00000000
00000100
00001000
00000010
00000000
00011000
00000000
,
00000210
00000001
00000010
00000301
,
00001010
00000000
00100000
00010000
01000000
00000000
01010000
00000000
,
01010000
00000000
00100000
00010000
00001000
00000000
00011000
00000000
,
00011000
00000000
00010000
00010000
00100000
00000000
00110000
00000000
,
00010000
00001000
00000100
00000000
00010000
00001000
00000100
00000000
,
00001000
00000100
00000010
00000000
00000100
00000010
00000001
00000000
,
00000100
00000010
00000100
00000000
00000001
00001000
00000001
00000000
,
00000001
00001000
00000100
00000000
00000010
00000001
00001000
00000000
,
00000100
00001000
00100000
00000000
00010000
00100000
00001000
00000000
,
00000100
00000010
00010000
00000000
00010000
00001000
00001000
00000000
,
00010000
00010000
00000100
00000000
00000100
00001000
00000100
00000000
,
00001000
00001000
00000100
00000000
00001000
00010000
00100000
00000000
,
01000000
00000000
00000000
00011000
00000000
00000000
00010000
00001000
,
00020000
00000000
00000000
00001000
00000000
00000000
00030000
00000000
,
00001000
00000000
00000000
00011000
00000000
00000000
00010000
01000000
,
00200000
00000000
00000000
01000000
00000000
00000000
00300000
00000000
,
10000000
00000000
00000000
00110000
00000000
00000000
01000000
00010000
,
02000000
00000000
00000000
10000000
00000000
00000000
03000000
00000000
,
00000000
00000000
00000000
00001000
00000000
00000000
00000100
00000010
,
00000002
00000000
00000000
00000010
00000000
00000000
00000003
00000000
,
00100100
00000000
00000000
00001100
00000000
00000000
00000010
00000010
,
00002000
00000000
00000000
00003000
,
00110000
00000000
00000000
01000000
00000000
00000000
10000000
00000000
,
00220000
00000000
00000000
00330000
,
01100000
00000000
00000000
00001000
00000000
00000000
00010000
00000000
,
00022000
00000000
00000000
00033000
,
00000110
00000000
00000000
00000001
00000000
00000000
00001000
00000000
,
00000220
00000000
00000000
00000330
,
00000001
00000100
00001000
00000010
,
00001000
00000100
00000001
00001000
,
00010000
00001000
00100000
01000000
,
00010000
10000000
00010000
01000000
,
10010000
01100000
00110000
00011000
,
00000110
00000011
00001010
00001100
,
00001000
00010000
00100000
00000000
01000000
00010000
00100000
00000000
,
01000000
00010000
00100000
00000000
01100000
00000000
00000000
00011000
,
00000100
00000000
00001000
00000000
00010000
01000000
00000000
01000000
,
10000000
00100000
01000000
00110000
,
10000000
00000000
01000000
00000000
00010000
00001000
00000000
00001000
,
00000010
00000001
00000100
00001010
,
00000001
00000000
00000100
00000000
00001000
00010000
00000000
00010000
,
01000000
00000000
10000000
00000000
00100000
00010000
00000000
00010000
,
00001000
00000000
00000010
00000000
00000001
00000100
00000000
00000100
,
00000010
00001000
00000010
00000000
00000100
00000000
00001001
00000000
,
00000100
00010000
00001000
00000000
00010000
01000000
10000000
00000000
,
00100000
00000000
01000000
00000000
10000000
01000000
00010000
00000000
,
00100000
00001000
00010000
00000000
00001000
00000100
00000001
00000000
,
00000010
00000000
00000100
00000000
00001000
00000010
00000100
00000000
,
00001000
00010000
00001000
00000000
00100000
00000000
11000000
00000000
,
01000000
00100000
00010000
00000000
00100000
00000000
00011000
00000000
,
00000010
00000100
00000001
00000000
00000100
00000010
00001000
00000000
,
00000100
00000010
00000001
00000100
00001000
00000000
00011000
00000000
,
00100000
00000000
00010000
00000000
00001000
00000010
00000000
00000010
,
00000001
00000100
00000010
00001100
,
00000001
00000000
00000010
00000000
00001000
00010000
00000000
00010000
,
01000000
10000000
00100000
01010000
,
10000000
00000000
00100000
00000000
00010000
00001000
00000000
00001000
,
00000010
00000000
00000001
00000000
00000100
00001000
00000000
00001000
,
00010000
00000000
01000000
00000000
10000000
00100000
00000000
00100000
,
01000000
00010000
01000000
00000000
00100000
00000000
10010000
00000000
,
00100000
00001000
00010000
00000000
00001000
00000010
00000001
00000000
,
00000100
00000000
00000010
00000000
00000001
00000010
00001000
00000000
,
00000100
00010000
00001000
00000000
00010000
00100000
10000000
00000000
,
01000000
00000000
00100000
00000000
00010000
01000000
00100000
00000000
,
00010000
00001000
00010000
00001000
00000100
00000000
00000011
00000000
,
00000010
00000100
00001000
00000100
00001000
00000000
00011000
00000000
,
01000000
10000000
00100000
00000000
00100000
01000000
00010000
00000000
,
10000000
01000000
00010000
00001000
00010000
00001000
00000010
00000000
,
00010000
00000000
00000000
00000000
,
00100000
00000000
00000000
00000000
,
00010000
00000000
00000000
00000000
,
00001000
00000000
00000000
00000000
,
00000100
00010000
00000010
00000000
,
00010000
00001000
00000010
00000000
,
00000010
00000001
00000100
00001000
,
00010000
00001000
00000000
00000000
,
00011000
00000000
00000000
00000000
00010000
00000000
00000000
00100000
00000000
00000000
10000000
00000000
00000000
00000000
00000000
00000000
,
10000000
01000000
00100000
01000000
,
00010000
00000000
00000000
00000000
00001000
00000000
00000000
00000010
00000000
00000000
00000001
00000000
00000000
00000000
00000000
00000000
,
00000010
00000000
00000100
00000000
00001000
00000010
00001000
00000010
,
00000100
00000000
00000000
00000000
00001000
00000000
00000000
00010000
00000000
00000000
00100000
00000000
00000000
00000000
00000000
00000000
,
10000000
01000000
00010000
00001000
,
00000100
00000000
00000000
00000000
00000001
00000000
00000000
00000010
00000000
00000000
00000100
00000000
00000000
00000000
00000100
00000000
,
00001000
00000000
00000000
00000000
,
00000001
00000000
00001000
00000000
00000010
00000100
00001000
00000000
,
00010000
00000000
01000000
00000000
10000000
00100000
01000000
00000000
,
00010000
00100000
10000000
00000000
00000000
00100000
00010000
00000000
,
00101000
00011000
00010010
00002010
,
00003001
00000010
00001000
00000000
00010000
00000000
00001000
00000000
,
00010000
00100000
10000000
00000000
01000000
00000000
00010000
00000000
,
01000000
10000000
00100000
00000000
01000000
00010000
00100000
00000000
,
00101000
00000000
00011000
00000000
00001000
00010000
00000100
00000000
,
00000010
00000000
00000001
00000010
00000100
00000000
00001000
00000000
,
00000010
00000000
00000100
00000001
00000010
00000000
00001000
00000000
,
00010000
00000000
00001000
00010000
01000000
00000000
10000000
00000000
,
02200000
00000000
00000000
03300000
,
11000000
00000000
00100000
01000000
00010000
00000000
00100000
00000000
,
01100000
00000000
01000000
00010000
00001000
00000000
00000010
00000000
,
00000001
00000000
00001000
00000100
00000001
00000000
00000100
00000000
,
00001000
00000000
00000000
00000000
,
00000010
00000000
00000100
00000000
00001000
00010000
00001000
00000000
,
00010000
00000000
00100000
00000000
01000000
00100000
10000000
00000000
,
01000000
00000000
00010000
00000000
00001000
00010000
00001000
00000010
,
00001000
00000000
00010000
00000000
00001000
00000100
00000100
00000000
,
00000001
00000010
00000100
00000000
00001000
00000100
00000001
00000100
,
00001000
00000000
00000010
00000000
00000100
00001000
00010000
00001000
,
00010000
00000000
00011000
00000000
00010000
00100000
10000000
01000000
,
10000000
00000000
00010000
00000000
00100000
01000000
10000000
00100000
,
01000000
00100000
10000000
00000000
01000000
00000000
00010000
00000000
,
00001000
00010000
00000010
00000000
00000100
00000001
00000010
00000000
,
00000100
00000000
00000010
00000000
00000001
00000100
00001000
00000000
,
00010000
00000000
00001000
00000000
00100000
00010000
01000000
10000000
,
01000000
00000000
00001000
00000000
00010000
00001000
00000100
00001000
,
00010000
00000000
00000010
00000000
00000100
00000010
00000100
00000010
,
00000100
00000000
00000001
00000000
00000010
00000100
00010000
00001000
,
00100000
00000000
01000000
00000000
10000000
01000000
00010000
00001000
,
00010000
01000000
00010000
00000000
00100000
00000000
01000000
00000000
,
01100000
00000000
10000000
00000000
00100000
10000000
01000000
00000000
,
00010000
01000000
00100000
00000000
10000000
01000000
00010000
00000000
,
00010000
00000000
00000010
00000000
00001000
00000010
00000001
00000000
,
00000001
00000010
00001000
00000000
00000100
00000000
00000010
00000000
,
00000110
00000000
00000001
00000000
00000100
00000001
00000010
00000000
,
00000001
00000010
00001000
00010000
,
00000010
00000100
00001000
00000000
00001000
00000000
00100000
00000000
,
00100000
10000000
00010000
00000000
10000000
00000000
00100000
00000000
,
10000000
01000000
00010000
00000000
01000000
00000000
10000000
00000000
,
00010000
10000000
00010000
00000000
00100000
01000000
00100000
00000000
,
01000000
00001000
00010000
00001000
,
00000100
00000001
00000010
00000000
00000100
00001000
00000010
00000000
,
00000001
00000010
00001000
00000000
00000010
00000000
00000001
00000000
,
00001000
00000001
00001000
00000000
00000100
00000010
00000100
00000000
,
00000010
00010000
00001000
00010000
,
00100000
00000000
10000000
01000000
00000000
00000000
00100000
00000000
,
00010000
01000000
10000000
00000000
01000000
00000000
00001000
00000000
,
00010000
00000000
00001000
00000100
00000000
00000000
00000001
00000000
,
00000010
00000100
00001000
00000001
00000010
00000000
00000110
00000000
,
00001000
00000010
00000100
00000000
00000001
00000100
00001000
00000000
,
00010000
00000000
01000000
10000000
00100000
00000000
01000000
00000000
,
00010000
01000000
00010000
00000000
00100000
01000000
10000000
00000000
,
01000000
00010000
00001000
00000010
,
00000001
00000010
00000100
00000000
00000100
00001000
00000010
00000000
,
00001000
00000010
00000001
00000010
00001000
00000100
00010000
00000000
,
01000000
10000000
00100000
00000000
01000000
00010000
00100000
00000000
,
01000000
10000000
01000000
00010000
00001000
00000000
00011000
00000000
,
00001000
00000010
00000001
00000000
00001000
00000100
00000001
00000000
,
00000100
00001000
00000010
00000100
00001000
00000000
00011000
00000000
,
01000000
10000000
00100000
00000000
01000000
00010000
00100000
00000000
,
00000000
00000000
00000000
00000000
,
10000000
01000000
00100000
01100000
00000000
10000000
01000000
00000000
,
00010000
00000000
00001000
00000000
00000100
00000001
00000010
00000000
,
00000100
00001000
00000010
00001010
00000000
00000100
00000001
00000000
,
00000100
00010000
00001000
01000000
,
00100000
10000000
01000000
00010000
00000000
00001000
00010000
00000000
,
00000010
00000100
00000001
00000100
00001000
00000100
00000010
00000000
,
00001000
00000001
00000010
00001000
00000000
00010000
01000000
00000000
,
01000000
10000000
00100000
00000000
00100000
01000000
01010000
00000000
,
00100000
10000000
01000000
00000000
00100000
00000000
10000000
01000000
,
00010000
00000000
00001000
00000000
00000000
00010000
00000000
00000000
00000010
00000000
00000000
00000100
00000000
00000000
00000001
00000000
,
00000010
00000100
00001000
00000000
00000010
00000100
00000001
00000000
,
00000100
00000000
00001000
00000000
00000000
00010000
00000000
00000000
00100000
00000000
00000000
01000000
00000000
00000000
00010000
00000000
,
00100000
01000000
10000000
00000000
10000000
00000000
01000000
00000000
,
00010000
00000000
00001000
00000000
00000010
00000000
00000000
00000000
00001000
00000000
00000000
00000100
00000000
00000000
00000001
00000000
,
00000100
00000010
00001000
00000010
,
00010000
00100000
10000000
01000000
,
11000000
00000000
00000000
00000000
;

//---------------dance-double - ----------------
#NOTES:
     dance-double:
     :
     Hard:
     7:
     :
00000000
00000000
00000000
00000000
,
00000000
00000000
00000000
00000000
,
00000000
00000000
00000000
00000000
,
00000000
00000000
00000000
00000000
,
00000001
00000000
00001000
00000000
,
00000000
00000001
00001000
00000100
00000000
00001000
00010000
00100000
,
00001000
00010000
00001000
00000000
01000000
00000000
01000000
00000000
00010000
00001000
00010000
00000000
00100000
00000000
00100000
00000000
,
01000000
00100000
01000000
00000000
10000000
00000000
10000000
00000000
00100000
00010000
00100000
00000000
00001000
00000000
00010000
00000000
,
00001000
00010000
00001000
00000000
00000100
00000000
00000100
00000000
00001000
00000100
00001000
00000000
00000010
00000000
00000010
00000000
,
00000001
00000100
00000001
00000000
00001000
00000000
00001000
00000000
00001000
00000010
00001000
00000000
00010000
00000000
01000000
00000000
,
10000000
00000000
00000000
00010000
00000000
00000000
10000000
00000000
,
20000000
00000000
00000000
30000000
,
00100000
00000000
00000000
01000000
00000000
00000000
00010000
00000000
,
00020000
00000000
00000000
00030000
,
00001000
00000000
00000000
00000100
00000010
00000000
00000100
00000000
00000010
00000000
00001000
00000000
00000001
00001000
00000000
00000000
,
00000100
00000000
00000000
00010000
00001000
00000000
00010000
00000000
00001000
00000000
00000010
00000000
00000100
00000010
00000000
00000000
,
00010000
00000000
00000000
00001000
00010000
00000000
00001000
00000000
01000000
00000000
00100000
00000000
00010000
00100000
00000000
00000000
,
00100000
00000000
00000000
00010000
01000000
00000000
00100000
00000000
00000000
01000000
00010000
00000000
10000000
00010000
00000000
00000000
,
10000000
00000000
00000000
01000000
00100000
00000000
00010000
00000000
00001000
00000000
00000000
00000100
00010000
00000000
00001000
00000000
,
00010000
00000000
00000000
00000100
00000010
00000000
00000100
00000000
00010000
00000000
00000000
00001000
00010000
00000000
00000010
00000000
,
00001000
00000000
00000000
00000010
00000100
00000000
00000001
00000000
00001000
00000000
00000000
00000010
00000100
00000000
00001000
00000000
,
00000000
00011000
00000000
01010000
00000000
00011000
00000000
00000000
,
00002020
00000000
00000000
00003030
,
00000000
00010000
00001000
01000000
00100000
00001000
00010000
01000000
,
00100000
00010000
00001000
01000000
00100000
00001000
00010000
10000000
,
00000000
00010000
00001000
00100000
01000000
00010000
00001000
00100000
,
01000000
00010000
00001000
00100000
01000000
00010000
00001000
00100000
,
00000000
00010000
10000000
01000000
00100000
00010000
00001000
00010000
,
00000100
00010000
00001000
00000100
00001000
00000100
00000010
00000100
,
00001001
00000100
00000010
00001000
00010000
00100000
00001000
00010000
,
00001000
01000000
00100000
00010000
00100000
01000000
00010000
01000000
,
00011000
00001000
00100000
00010000
00100000
01000000
00010000
00100000
,
00110000
01000000
10000000
00100000
11000000
00010000
00100000
00010000
,
00001000
00000000
00000010
00000100
00020000
00000000
00000000
00000000
00000000
00000000
00030000
00000000
00000000
00000000
00001000
00000000
,
00000100
00000000
00000000
00011000
00000000
00000000
00000100
00000010
,
00002000
00000000
00000000
00010000
00000000
00000000
00003000
00010000
,
00000100
00000000
00000000
00001010
00000000
00000000
00000100
00010000
,
00200000
00000000
00000000
00001000
00000000
00000000
00300000
00001000
,
00000010
00000000
00000000
00011000
00000000
00000000
01000000
00010000
,
20000000
00000000
00000000
00010000
00000000
00000000
30000000
01000000
,
00010000
00000000
00000000
00011000
00000000
00000000
00000100
00000001
,
00002000
00000000
00000000
00000001
00000000
00000000
00003000
00000100
,
00001000
00000000
00000000
00000101
00000000
00000000
00000100
00001000
,
00020000
00000000
00000000
00001000
00000000
00000000
00030000
00100000
,
00011000
00000000
00000000
00110000
00000000
00000000
10100000
00000000
,
02020000
00000000
00000000
03030000
,
00110000
00000000
00000000
00011000
00000000
00000000
00001010
00000000
,
00000220
00000000
00000000
00000330
,
00000101
00000000
00000000
00001010
00000000
00000000
00011000
00000000
,
00220000
00000000
00000000
00330000
,
10000000
00000000
00010000
01000000
00000000
00000000
00100000
00000000
10000000
00000000
00010000
10000000
00000000
00000000
01000000
00000000
,
00010000
00000000
10000000
01000000
00000000
00000000
00100000
00000000
00010000
00000000
00001000
00000100
00000000
00000000
00010000
00000000
,
00001000
00000000
00010000
00001000
00000000
00000000
00010000
00000000
00000100
00000000
00000010
00001000
00000000
00000000
00000010
00000000
,
00001000
00000000
00000001
00000100
00000000
00000000
00000010
00000000
00001000
00000000
00000001
00001000
00000000
00000000
00000100
00000000
,
00011000
00000000
00010000
00001000
00000000
00000000
00100000
00000000
00011000
00000000
00010000
00001000
00000000
00000000
01000000
00000000
,
01100000
00000000
00100000
00010000
00000000
00000000
00010000
00000000
00011000
00000000
00000100
00000010
00000000
00000000
00010000
00000000
,
00001000
00010000
00001000
00000000
00000000
00000000
00000000
00000000
00001000
00000100
00000001
00000000
00000000
00000000
00000000
00000000
,
00000001
00000010
00000100
00001000
00022000
00000000
00033000
00110000
,
00001000
00000010
00000100
00000001
00000000
00000100
00001000
00010000
,
00000000
00010000
01000000
10000000
00100000
01000000
00010000
00000000
,
10000000
00100000
00010000
00100000
00000000
00100000
10000000
01000000
,
00000000
01000000
00010000
00001000
00000100
00000010
00001000
00000001
,
00000001
00000010
00000000
00000100
00010000
00001000
00001000
00000010
,
00000000
00000000
00000011
00000000
00000001
00000100
00000000
00000100
,
00001000
00010000
00100000
00000000
00100000
10000000
00010000
00000000
,
00100000
00000000
01000000
00000000
10000000
00000000
01000000
00000000
00010000
00000000
00001000
00000000
00010000
00001000
00010000
00000000
,
00000010
00000100
00000001
00000010
00000000
00000001
00000100
00001000
,
00000000
00001000
00010000
00100000
10000000
00010000
01000000
00000000
,
10000000
01000000
00010000
00100000
00000000
01000000
10000000
01000000
,
00000000
01000000
00010000
00001000
00000100
00000001
00000010
00000100
,
00001000
00000010
00000001
00000000
00000001
00000010
00001000
00000000
,
00000001
00000100
00001000
00010000
01000000
00100000
00001000
00010000
,
01000000
10000000
00100000
01000000
00000000
01000000
00010000
00100000
,
00000000
10000000
00100000
00000000
00001000
00010000
00011000
00000000
,
00000010
00000001
00000100
00000001
00000000
00000010
00001000
00010000
,
00000000
00010000
01000000
00000000
10000000
00100000
01000000
00000000
,
01000000
00010000
00100000
10000000
00000000
00100000
00010000
01000000
,
00010000
10000000
00100000
00010000
00001000
00000010
00000001
00000001
,
00000100
00000010
00000100
00000001
00000000
00001000
00000010
00000001
,
00000000
00000001
00000010
00001000
00000001
00000100
00001000
00000000
,
00010000
01000000
10000000
00100000
00000000
00100000
10000000
01000000
,
00000000
00000000
01000000
00000000
00010000
00000000
00001000
00000000
00100000
00000000
00001000
00000000
00010000
00001000
00010000
00000000
,
00000010
00001000
00000000
00001000
00000100
00000001
00000000
00000001
,
00000100
00010000
00001000
00000100
00000000
00000100
00000001
00000010
,
00001000
00010000
00000000
00010000
01000000
10000000
00000000
10000000
,
00100000
01000000
00001000
00100000
01000000
00010000
00002000
00000000
,
00003010
00000100
00010000
00001000
00000100
00000001
00000010
00001000
,
00010000
01000000
10000000
01000000
00010000
00001000
00210000
00000000
,
10300000
00100000
10000000
00000000
00100000
00000000
00010000
00000000
10000000
00010000
10000000
00000000
01000000
00000000
00010000
00000000
,
00001000
00000000
00000010
00000100
00000010
00000000
00000100
00000000
00001000
00000100
00001000
00000000
00000001
00000010
00000001
00000000
,
00002000
00000000
00000000
00000000
00000000
00000000
00000000
00000000
00000000
00000000
00000000
00000000
00000000
00000000
00000000
00000000
00000000
00000000
00000000
00000000
00000000
00000000
00000000
00000000
00000000
00000000
00000000
00000000
00000000
00000000
00000000
00000000
00000000
00000000
00000000
00000000
00000000
00000000
00000000
00000000
00000000
00000000
00000000
00000000
00000000
00000000
00000000
00000000
00000000
00000000
00000000
00000000
00000000
00000000
00000000
00000000
00000000
00000000
00000000
00000000
00000000
00000000
00000000
00003000
,
00020000
00000000
00000000
00000000
,
02030000
00000000
00000000
00000000
,
03020000
00000000
00000000
00030000
,
00001000
00000100
00000001
00000010
,
00000100
00000010
00001000
00001000
,
00000010
00001000
00000001
00000000
00000000
00000100
00000010
00000100
,
00001000
00010000
01000000
10000000
10000000
00000000
00000000
00000000
,
00100000
00000000
00000000
00000000
10000000
00000000
00000000
01000000
00000000
00000000
00010000
00000000
00001000
00000000
00000000
00000000
,
00010000
00000000
00000000
00000000
00001000
00000000
00000000
00000100
00000000
00000000
00000100
00000000
00000001
00000000
00000000
00000000
,
00000010
00000000
00000000
00000000
00000100
00000000
00000000
00001000
00000000
00000000
00001000
00000000
00000010
00000000
00000000
00000000
,
00000100
00000000
00000001
00000000
00000010
00000100
00010000
00000000
,
00001000
00000000
00000000
00000000
00010000
00000000
00000000
01000000
00000000
00000000
00100000
00000000
00010000
00000000
00010000
00000000
,
10000000
00000000
00000000
00000000
00100000
00000000
00000000
01000000
00000000
00000000
00010000
00000000
00100000
00000000
00100000
00000000
,
01000000
00000000
00000000
00000000
10000000
00000000
00000000
00100000
00000000
00000000
00010000
00000000
00001000
00000000
00001000
00000000
,
00011000
00000000
00000000
00000000
,
00001000
00000010
00000001
00000100
00000000
00000100
00000010
00000000
,
00000100
00000001
00000100
00001000
00000000
00010000
00100000
00000000
,
10000000
01000000
00010000
01000000
00000000
00100000
00010000
00000000
,
10100000
00000000
00110000
00000000
01000000
10000000
00100000
00000000
,
10000000
01000000
00010000
01000000
00000000
10000000
00100000
00000000
,
00010000
00001000
00000010
00000100
00000000
00001000
00000010
00000000
,
00000001
00000010
00001000
00000010
00000000
00000001
00000100
00000000
,
00000101
00000000
00001100
00000000
00000010
00000001
00000100
00000000
,
00000001
00000000
00001000
00000100
00000010
00000001
00000100
00000010
,
00001000
00000000
00000100
00010000
00000000
00001000
00100000
01000000
,
00020000
00000000
00000000
01030000
20000000
00000000
00000000
30100000
,
02000000
00000000
00000000
00000000
00000000
03000000
00000000
00000000
,
01100000
00000000
00000000
00000000
11000000
00000000
00000000
10000000
00000000
00000000
01000000
00000000
00010000
00000000
00010000
00000000
,
00001000
00000000
00000000
00000000
00000010
00000000
00000000
00000001
00000000
00000000
00000100
00000000
00000010
00000000
00000010
00000000
,
00000100
00000000
00000000
00000000
00001000
00000000
00000000
00010000
00000000
00000000
00010000
00000000
01000000
00000000
01000000
00000000
,
10010000
00000000
00000000
00000000
10000000
10000000
00010000
00010000
,
10000000
00000000
00000000
00000000
01000000
00000000
00000000
00100000
01000000
00000000
10000000
00000000
00100000
00000000
01000000
00000000
,
00001000
00000000
00000000
00000000
00010000
00000000
00000000
00001000
00010000
00000000
00001000
00000000
00000100
00000000
00000001
00000000
,
00000010
00000000
00000000
00000000
00000100
00000000
00000000
00001000
00000001
00000000
00000010
00000000
00000100
00000000
00000100
00000000
,
00001000
00000000
00000000
00000000
00000001
00000000
00000000
00000100
00000010
00001000
00000000
00000000
00000100
00000000
00000100
00000000
,
00000001
00000000
00000000
00000000
00000010
00000000
00000000
00000100
00000010
00000000
00000001
00000000
00000100
00000000
00000010
00000000
,
00010000
00000000
00000000
00000000
00001000
00000000
00000000
00010000
00001000
00000000
00010000
00000000
00100000
00000000
00100000
00000000
,
10000000
00000000
00000000
00000000
10010000
00000000
00000000
00010000
00100000
00000000
00100000
00000000
01000000
00000000
10000000
00000000
,
00010000
00000000
00000000
00000000
10000000
00000000
00000000
00100000
01000000
00000000
00010000
00000000
10000000
00000000
01000000
00000000
,
01000000
00000000
10000000
00000000
00100000
00000000
00000000
10000000
01000000
00000000
00010000
00000000
01000000
00000000
00010000
00000000
,
00001000
00000000
00010000
00000000
00001000
00000000
00000000
00001000
00000010
00000000
00000001
00000000
00000100
00000000
00000100
00000000
,
00000010
00000000
00000100
00000000
00001000
00000000
00000000
00001000
00010000
00000000
01000000
00000000
10000000
00000000
10000000
00000000
,
00100000
00000000
01000000
00000000
00100000
00000000
00000000
00000000
10000000
01000000
00000000
00000000
10000000
00000000
01000000
00000000
,
00010000
00000000
00001000
00000000
00000010
00000000
00000000
00000001
00000100
00000000
00000010
00000000
00001000
00000000
00000100
00000000
,
00010000
00000000
00100000
00000000
10000000
00000000
00000000
10000000
01000000
00000000
00000000
10000000
01000000
00000000
10000000
00000000
,
00100000
00000000
00000000
00000000
01100000
00000000
00000000
01000000
00010000
01000000
00000000
00000000
00001000
00000000
00010000
00000000
,
00001000
00000000
00000000
00000000
00011000
00000000
00000000
00000000
00010000
00000100
00000000
00000000
00000100
00000000
00001000
00000000
,
00000010
00000000
00000001
00000000
00001000
00000010
00000100
00000000
,
00000001
00000100
00001000
00000000
00001000
00000100
00000001
00000000
,
00000010
00000000
00000100
00000000
00010000
00001000
00001000
00000000
,
01000000
00000000
00100000
00000000
10000000
01000000
00100000
00000000
,
00010000
00100000
10000000
00000000
10000000
00100000
00010000
00000000
,
01000000
00000000
00001000
00000000
00000010
00000001
00001000
00000000
,
00000010
00000000
00001000
00000000
,
00000001
00000000
00000100
00000000
00001000
00010000
00100000
00000000
,
10000000
00000000
01000000
00000000
00100000
00010000
10000000
00000000
,
01000000
00000000
00010000
00000000
00001000
00000100
00000001
00000010
,
00000100
00000000
00001000
00000000
00000001
00000010
00000100
00000000
,
00001000
00000010
00000100
00000000
00001000
00010000
01000000
00000000
,
10000000
00100000
01000000
00000000
00010000
10000000
01000000
00000000
,
00100000
00000000
00001000
00000000
00010000
00001000
00000010
00000000
,
00000001
00000000
00001000
00000000
00000010
00000100
00001000
00000000
,
00010000
00000000
00100000
00000000
10000000
00100000
01000000
00000000
,
00010000
00100000
10000000
01100000
00000000
01000000
00010000
00001000
,
00000010
00000000
00000001
00000100
00000001
00000100
00000010
00000000
,
00000100
00000010
00001000
00000110
00000000
00000001
00000100
00000000
,
00001000
00010000
00100000
10000000
01000000
00010000
01000000
10000000
,
00100000
00010000
00100000
10100000
00000000
00000000
01000000
00000000
,
00010000
00001000
00000100
00000000
00000001
00000010
00000100
00000000
,
00001000
00000001
00000100
00000101
00000000
00000010
00000100
00000000
,
00000001
00000010
00001000
00010000
00100000
10000000
10100000
00000000
,
10000000
01000000
00100000
01100000
00000000
00010000
10000000
00000000
,
10000000
00000000
00000000
00000000
01000000
00000000
00000000
01000000
00000000
00000000
00010000
00000000
00000000
00010000
00000000
00000000
,
00001000
00000010
00000100
00001100
00000000
00000010
00000001
00000000
,
00000100
00000000
00000010
00000000
00001000
00000000
00000000
00000010
00000000
00000000
00000100
00000000
00000000
00000001
00000000
00000000
,
00000010
00000100
00001000
00001010
00000000
00010000
00001000
00000000
,
00100000
00000000
01000000
00000000
10000000
00000000
00000000
00010000
00000000
00000000
01000000
00000000
00000000
00100000
00000000
00000000
,
10000000
01000000
00100000
00110000
00000000
00010000
01000000
00000000
,
00100000
10000000
01000000
00000000
00010000
00001000
00010000
00001000
,
00000010
00000001
00000001
00000000
00000100
00000010
00000010
00000000
,
00000100
00000000
00001000
00000000
00010000
00100000
10000000
00000000
,
01000000
00010000
00010000
00000000
00001000
00000010
00000010
00000000
,
00000001
00000000
00000100
00000000
00000010
00001000
00000010
00000000
,
00000100
00000001
00000010
00000000
00000001
00000010
00001000
00000000
,
00010000
00000000
00100000
00000000
10000000
01000000
01000000
00000000
,
10000000
01000000
00010000
00000000
01000000
00010000
00001000
00000000
,
00000010
00000001
00000100
00000000
00000010
00001000
00000100
00000000
,
00000010
00000100
00000001
00000100
00010000
00000000
00001000
00000000
,
00100000
10000000
00100000
00010000
00100000
00000000
10000000
00000000
,
01000000
00010000
00001000
00010000
00001000
00000000
00000100
00000000
,
00000001
00000010
00001000
00000010
00000001
00000010
00000100
00000000
,
00001000
00000001
00000100
00001000
00010000
01000000
10000000
00000000
,
00100000
10000000
01000000
00010000
00001000
00000100
00000010
00000000
,
00001000
00000010
00000001
00000000
00000001
00000010
00001000
00000000
,
00000110
00000000
00000010
00010000
00001000
00100000
01000000
00000000
,
11000000
00000000
00000000
00000000
;
