#TITLE:Makes Me Cry (Drew Campbell Remix);
#ARTIST:Binghi Ghost feat. Turbulence;
#BANNER:Makes Me Cry (Drew Campbell Remix).png;
#BACKGROUND:Makes Me Cry (Drew Campbell Remix)-bg.png;
#CDTITLE:./CDTITLES/DanceDanceRevolution UNIVERSE2.png;
#MUSIC:Makes Me Cry (Drew Campbell Remix).ogg;
#SAMPLESTART:71.057;
#SAMPLELENGTH:15;
#BPMS:0=151.99;

//---------------dance-single - ----------------
#NOTES:
     dance-single:
     :
     Beginner:
     1:
     :
0000
0000
0000
0000
,
0000
0000
0000
0000
,
0000
0000
0000
0000
,
0000
0000
0000
0000
,
0010
0000
0000
0000
,
1000
0000
0000
0000
,
0001
0000
0100
0000
,
0001
0000
0000
0000
,
0010
0000
0000
0000
,
0100
0000
0000
0000
,
0010
0000
1000
0000
,
0100
0000
0000
0000
,
0001
0000
1000
1000
,
0001
0000
0100
0000
,
0010
0000
0000
0000
,
1000
0000
0010
0000
,
0100
0000
0000
0100
,
0100
0000
0010
0000
,
1000
0000
0000
0000
,
0001
0000
0000
0000
,
1000
0000
0000
0000
,
0001
0000
0001
0000
,
0010
0000
0000
0000
,
1000
0000
1000
0000
,
0100
0000
0000
0000
,
0010
0000
0010
0000
,
0100
0000
0000
0000
,
1000
0000
1000
0000
,
0001
0000
0000
0000
,
0001
0000
0000
0000
,
0010
0000
0100
0000
,
1000
0000
0000
0000
,
0010
0000
0100
0000
,
0001
0000
0000
0000
,
1000
0000
0001
1000
,
0001
0000
0000
0000
,
0100
0000
0010
0000
,
1000
0000
0000
0000
,
0100
0000
0000
0000
,
0001
0000
0000
0000
,
0100
0000
0000
0000
,
0010
0000
0000
0000
,
0100
0000
0000
0000
,
1000
0000
1000
0000
,
0001
0000
0001
0000
,
1001
0000
0000
0000
,
0010
0000
0100
0000
,
1000
0000
0000
0000
,
0001
0000
0100
0000
,
0010
0000
0000
0000
,
0010
0000
0100
0000
,
0010
0000
0000
0000
,
1000
0000
0100
0000
,
0010
0000
0001
0000
,
0100
0000
1000
0000
,
0001
0000
0000
0000
,
1000
0000
0000
0000
,
0001
0000
0000
0000
,
0100
0000
0010
0000
,
1000
0000
0000
0000
,
0100
0000
0010
0000
,
0100
0000
0000
0000
,
0010
0000
0000
0000
,
0001
0000
0000
0000
,
1000
0000
0000
0000
,
0100
0000
0000
0000
;

//---------------dance-single - ----------------
#NOTES:
     dance-single:
     :
     Easy:
     3:
     :
0000
0000
0000
0000
,
0000
0000
0000
0000
,
0000
0000
0000
0000
,
0000
0000
0000
0000
,
1001
0000
0000
0000
,
0200
0300
0010
0001
,
1000
0000
0100
0000
,
0001
0001
0001
0010
,
0200
0000
0300
0000
,
1000
1000
1000
0010
,
0200
0000
0300
0000
,
0010
1000
0010
0001
,
0100
0000
0000
0000
,
0020
0030
0100
1000
,
0001
0000
0100
0000
,
1000
0100
0010
1000
,
0001
0000
0100
0100
,
0200
0000
0300
0000
,
1000
1000
0001
0000
,
0001
0001
0010
1000
,
0000
1001
0000
0110
,
1000
1000
0001
0001
,
0200
0000
0300
0000
,
0010
0010
0100
0100
,
0002
0000
0003
0000
,
0100
0100
0001
0001
,
2000
0000
3000
0000
,
0100
0100
0010
0100
,
2002
0000
3003
0000
,
1000
0010
0100
0010
,
0001
0100
1000
0010
,
0100
0100
0010
0100
,
1000
0000
0000
0010
,
0001
0100
0010
0100
,
1000
0010
0001
0100
,
0010
0010
0100
0010
,
0001
1000
0100
0010
,
0001
1001
0000
1001
,
0000
0220
0000
0330
,
0000
1001
0000
1001
,
0000
0110
0000
0000
,
0000
1001
0000
0110
,
0000
2002
0000
3003
,
0000
0110
0000
0110
,
0010
1000
0100
0001
,
0200
0300
0010
1000
,
0001
0000
0100
0000
,
1000
1000
1000
0010
,
0200
0010
0300
0010
,
0001
0001
0001
0010
,
0200
1000
0300
1000
,
0010
0001
0010
1000
,
0100
0000
0000
0000
,
0020
0030
0100
0001
,
1000
0000
0100
0000
,
0001
0100
0010
0001
,
1000
0000
0100
0100
,
0200
1000
0300
1000
,
0001
0001
1000
0000
,
1000
1000
0010
0001
,
0200
0000
0000
0300
,
0000
0010
0000
0010
,
0000
0100
0000
1000
,
0001
0010
0000
0010
,
0000
1000
0000
0001
,
1001
0000
0000
0000
;

//---------------dance-single - ----------------
#NOTES:
     dance-single:
     :
     Medium:
     6:
     :
0000
0000
0000
0000
,
0000
0000
0000
0000
,
0000
0000
0000
0000
,
0000
0000
0000
0000
,
2002
0000
3003
0010
,
1000
1000
0001
0010
,
1000
0100
0001
0000
1000
0000
0010
0100
,
0000
1000
0000
0001
0000
1000
0000
0001
,
0000
0010
0000
0001
0100
0000
0010
0000
,
1000
0010
0001
0100
,
0020
0031
0020
1030
,
0010
0001
0100
0000
1000
0000
0010
0000
,
0110
0000
0000
0000
0000
0000
0010
0100
,
0001
0001
1000
0010
,
0001
0100
1000
0000
0001
0000
0010
0100
,
0000
0001
0000
1000
0000
0001
0000
1000
,
0000
0010
0000
1000
0100
0000
0010
0000
,
0001
0010
1000
0100
,
0020
1030
0020
0031
,
0010
1000
0100
0000
0001
0000
0010
0000
,
1001
0100
1001
0100
,
1000
0000
0010
0000
0100
0000
0001
0100
,
0001
0000
0000
0010
,
0001
0000
0010
0000
0100
0000
0010
0001
,
0100
0000
0000
1000
,
0001
0000
1000
0000
0001
0000
0010
1000
,
0001
0000
0000
0100
,
0010
1000
0100
0001
,
0010
0100
1000
0000
0010
0100
1000
0000
,
0001
1000
0000
0010
0000
1000
0000
0001
,
0000
0100
0000
0010
0000
0001
1000
0001
,
1000
0001
0000
1000
0000
0100
0000
0001
,
0000
0100
0000
0010
0000
1000
0000
0100
,
0000
1000
0000
0010
0000
0001
0000
0100
,
0000
0010
0000
0001
0000
1000
0100
1000
,
0100
1000
0000
0001
0000
0010
0000
0100
,
0000
1000
0000
0010
0000
0100
0000
0001
,
0000
1100
0000
0101
,
0000
0010
0100
1000
,
0001
1001
0000
0110
,
0000
1000
0010
0100
,
0001
0101
0000
1100
,
0000
0010
0100
0100
,
0010
1000
0100
0010
,
0001
0010
0001
0000
1000
0010
1000
0000
,
0001
0001
1000
0100
,
0001
0010
1000
0000
0001
0000
0100
0010
,
0000
0001
0000
1000
0000
0001
0000
1000
,
0000
0100
0000
1000
0010
0000
0100
0000
,
0001
0100
1000
0010
,
0200
1300
0200
0301
,
0100
1000
0010
0000
0001
0000
0100
0000
,
0110
0000
0000
0000
0000
0000
0100
0010
,
1000
1000
0001
0100
,
1000
0010
0001
0000
1000
0000
0100
0010
,
0000
1000
0000
0001
0000
1000
0000
0001
,
0000
0100
0000
0001
0010
0000
0100
0000
,
1000
0100
0001
0010
,
0200
0301
0200
1300
,
0100
0001
0010
0000
1000
0000
0100
0000
,
0000
1000
0000
0001
0000
0010
0100
1000
,
0001
0100
1000
0010
,
0100
0000
0010
0000
1000
0001
0100
0000
,
0010
0001
0100
1000
,
0010
0000
0100
0000
0010
0001
0100
0000
,
0110
0000
0000
0000
;

//---------------dance-single - ----------------
#NOTES:
     dance-single:
     :
     Hard:
     8:
     :
0000
0000
0000
0000
,
0000
0000
0000
0000
,
0000
0000
0000
0000
,
0000
0000
0000
0000
,
1001
0000
1001
0000
1000
0010
0100
0001
,
0010
0000
0100
1000
0010
0000
0100
0000
,
0101
1000
1100
0010
,
0100
0001
0010
0000
0001
0100
1000
0000
,
0101
1100
0101
1100
,
0010
0000
0100
0000
0010
0001
0100
0000
,
1100
0000
0101
0000
1000
0001
0101
0000
,
0010
1000
0100
0000
0010
0001
0100
0000
,
0010
0000
0000
1000
0000
0000
0100
0000
0000
0010
0000
0000
0100
0000
0001
0000
,
1000
0000
0100
1000
0001
0000
0010
0000
,
0110
1000
1001
0100
,
0010
0100
1000
0000
0001
0100
1000
0000
,
0200
0000
0310
0000
1000
0100
1000
0100
,
0020
0032
2003
3100
,
0010
1000
0010
0000
0100
0001
0100
0000
,
0010
0000
0000
0000
0100
0000
0000
0000
1000
0000
0000
0001
0100
0000
0000
0000
,
1000
0001
1000
0000
0001
1000
0001
0010
,
0001
0100
0000
0000
0001
0100
0000
0000
1000
0100
0000
0000
1000
0100
0000
0000
,
1001
0100
1001
0100
,
1000
0100
0000
0000
1000
0100
0000
0000
0001
0100
0000
0000
0001
0100
0000
0000
,
1001
0000
0010
0000
1001
0000
0001
0100
,
0010
1000
0000
0000
0010
1000
0000
0000
0010
0100
0000
0000
0010
0100
0000
0000
,
1100
0000
0011
0000
0010
0001
0100
0010
,
1010
1001
0101
0011
,
0100
1000
0010
0100
0001
1000
0100
0010
,
0001
0000
0100
1000
0010
0000
1000
0100
,
0010
0000
0100
0000
1000
0010
0001
0000
,
1000
0000
0100
0001
0010
0000
0001
0100
,
0010
0000
1001
0000
0010
0001
0010
0100
,
1000
0000
0001
0100
0010
0000
0100
0001
,
0010
0000
0100
0000
1000
0010
1000
0000
,
0001
0000
1000
0100
0010
0000
0100
1000
,
0010
0200
0302
0103
,
0010
0101
0010
1100
,
0001
0200
0010
0310
,
1000
0101
1000
0110
,
2000
0000
0001
0000
3001
0000
0010
0100
,
1000
0110
0001
0110
,
1000
0000
0010
0000
0001
0000
0000
0100
,
0010
1001
0100
1001
,
0100
0010
0001
1000
0010
1000
0100
1000
,
0100
0000
0010
0001
0100
0000
0010
0000
,
1010
0001
0011
0100
,
0010
1000
0100
0000
1000
0010
0001
0000
,
1010
0011
1010
0011
,
0100
0000
0010
0000
0100
1000
0010
0000
,
0011
0000
1010
0000
0001
1000
1010
0000
,
0100
0001
0010
0000
0100
1000
0010
0000
,
0100
0000
0000
0001
0000
0000
0010
0000
0000
0100
0000
0000
0010
0000
1000
0000
,
0001
0000
0010
0001
1000
0000
0100
0000
,
0110
0001
1001
0010
,
0100
0010
0001
0000
1000
0010
0001
0000
,
0020
0000
0130
0000
0001
0010
0001
0010
,
0200
2300
3002
0013
,
0100
0001
0100
0000
0010
1000
0010
0000
,
0100
0000
0000
0000
0010
0000
0000
0000
0001
0000
0000
1000
0010
0000
0000
0000
,
0100
0000
0000
0010
0000
0000
1000
0000
0000
0001
0000
0000
0010
0000
0100
0000
,
2000
3010
0002
0013
,
2100
0000
3010
0000
0100
1000
0100
0000
,
0002
0013
0200
0301
,
1000
0000
0010
0000
0100
0000
0001
1000
,
0110
0000
0000
0000
;

//---------------dance-double - ----------------
#NOTES:
     dance-double:
     :
     Beginner:
     1:
     :
00000000
00000000
00000000
00000000
,
00000000
00000000
00000000
00000000
,
00000000
00000000
00000000
00000000
,
00000000
00000000
00000000
00000000
,
00000100
00000000
00000000
00000000
,
00000001
00000000
00000000
00000000
,
00000100
00000000
00000010
00000000
,
00010000
00000000
00000000
00000000
,
00001000
00000000
00000000
00000000
,
01000000
00000000
00000000
00000000
,
00100000
00000000
00010000
00000000
,
10000000
00000000
00000000
00000000
,
00010000
00000000
00000000
00000000
,
00100000
00000000
00001000
00000000
,
00000010
00000000
00000000
00000000
,
00000001
00000000
00000100
00000000
,
00000010
00000000
00000000
00000000
,
00001000
00000000
00010000
00000000
,
00100000
00000000
00000000
00000000
,
01000000
00000000
00000000
00000000
,
00010000
00000000
00000000
00000000
,
10000000
00000000
10000000
00000000
,
00100000
00000000
00000000
00000000
,
01000000
00000000
01000000
00000000
,
00001000
00000000
00000000
00000000
,
00010000
00000000
00010000
00000000
,
00000100
00000000
00000000
00000000
,
00000010
00000000
00000010
00000000
,
00000001
00000000
00000000
00000000
,
00000010
00000000
00000000
00000000
,
00001000
00000000
00000010
00000000
,
00010000
00000000
00000000
00000000
,
00001000
00000000
00100000
00000000
,
01000000
00000000
00000000
00000000
,
10000000
00000000
00100000
00000000
,
01000000
00000000
00000000
00000000
,
00010000
00000000
00100000
00000000
,
00001000
00000000
00000000
00000000
,
00000100
00000000
00000000
00000000
,
00001000
00000000
00000000
00000000
,
00000100
00000000
00000000
00000000
,
00000010
00000000
00000000
00000000
,
00000001
00000000
00000000
00000000
,
00001000
00000000
00000000
00000000
,
00000020
00000000
00000000
00000030
,
00000010
00000000
00000000
00000000
,
00010000
00000000
00001000
00000000
,
01000000
00000000
00000000
00000000
,
00100000
00000000
10000000
00000000
,
01000000
00000000
00000000
00000000
,
00010000
00000000
00001000
00000000
,
00000100
00000000
00000000
00000000
,
00000010
00000000
00001000
00000000
,
00000001
00000000
00000100
00000000
,
00001000
00000000
00010000
00000000
,
01000000
00000000
00000000
00000000
,
10000000
00000000
00000000
00000000
,
00100000
00000000
00000000
00000000
,
01000000
00000000
00010000
00000000
,
00100000
00000000
00000000
00000000
,
00001000
00000000
00010000
00000000
,
00001000
00000000
00000000
00000000
,
00000100
00000000
00000000
00000000
,
00000010
00000000
00000000
00000000
,
00001000
00000000
00000000
00000000
,
00000001
00000000
00000000
00000000
;

//---------------dance-double - ----------------
#NOTES:
     dance-double:
     :
     Easy:
     3:
     :
00000000
00000000
00000000
00000000
,
00000000
00000000
00000000
00000000
,
00000000
00000000
00000000
00000000
,
00000000
00000000
00000000
00000000
,
00011000
00000000
00000000
00000000
,
00000200
00000300
00000010
00000001
,
00000100
00000000
00000000
00000000
,
00001000
00001000
00001000
00010000
,
02000000
00000000
03000000
00000000
,
00100000
00100000
00100000
00010000
,
20000000
00000000
30000000
00000000
,
00100000
01000000
00100000
01000000
,
00001000
00000000
00000000
00000000
,
00020000
00030000
00000100
00000010
,
00000001
00000000
00001000
00000000
,
00000001
00000100
00001000
00010000
,
01000000
00000000
00100000
00100000
,
00020000
00000000
00030000
00000000
,
00100000
00100000
01000000
00000000
,
10000000
10000000
01000000
00100000
,
00000000
01100000
00000000
10010000
,
00010000
00010000
00100000
00100000
,
00002000
00000000
00003000
00000000
,
00000100
00000100
00000010
00000010
,
00002000
00000000
00003000
00000000
,
00000001
00000001
00000010
00000010
,
00002000
00000000
00003000
00000000
,
00010000
00010000
00001000
00010000
,
00022000
00000000
00033000
00000000
,
00100000
00010000
00100000
01000000
,
10000000
00010000
00100000
01010000
,
00001000
00001000
00000100
00000010
,
00000001
00000000
00000000
00001000
,
00000100
00010000
00000100
00010000
,
00001000
01000000
00100000
10000000
,
01000000
01000000
10000000
00010000
,
00100000
00001000
00010000
00000100
,
00000010
00000110
00000000
00000110
,
00000000
00002002
00000000
00003003
,
00000000
00001000
00000000
00010000
,
00000000
00100000
00000000
01000000
,
00000000
01000000
00000000
00100000
,
00000000
20020000
00000000
30030000
,
00000000
00100000
00000000
00001000
,
00010000
00000010
00000100
00000001
,
00002000
00003000
00000100
00000000
,
00010000
00000000
00001000
00000000
,
01000000
01000000
01000000
00100000
,
20000000
00010000
30000000
00010000
,
00100000
00100000
00100000
00010000
,
00002000
00000100
00003000
00000100
,
00000010
00000001
00000010
00000100
,
00001000
00000000
00000000
00000000
,
00000020
00000030
00000100
00001000
,
00010000
00000000
00001000
00000000
,
00100000
00010000
01000000
00100000
,
01000000
00000000
00010000
00010000
,
20000000
00100000
30000000
00100000
,
01000000
01000000
00010000
00000000
,
00100000
00100000
00001000
00010000
,
00002000
00000000
00000000
00003000
,
00000000
00000100
00000000
00000100
,
00000000
00000010
00000000
00001000
,
00000001
00000100
00000000
00000100
,
00000000
00000010
00000000
00000100
,
00000110
00000000
00000000
00000000
;

//---------------dance-double - ----------------
#NOTES:
     dance-double:
     :
     Medium:
     6:
     :
00000000
00000000
00000000
00000000
,
00000000
00000000
00000000
00000000
,
00000000
00000000
00000000
00000000
,
00000000
00000000
00000000
00000000
,
00022000
00000000
00033000
00001000
,
00010000
00010000
00000100
00000010
,
00000001
00000100
00001000
00000000
00000100
00000000
00000010
00010000
,
00000000
00001000
00000000
01000000
00000000
00100000
00000000
10000000
,
00000000
01000000
00000000
00100000
00010000
00000000
10000000
00000000
,
00100000
01000000
00010000
00100000
,
00002000
00013000
00020000
00031000
,
00010000
00001000
00000100
00000000
00000010
00000000
00001000
00000000
,
00001001
00000000
00000000
00000000
00000000
00000000
00000100
00000010
,
00000001
00001000
00000010
00000100
,
00010000
01000000
00100000
00000000
10000000
00000000
00010000
10000000
,
00000000
01000000
00000000
00001000
00000000
00000100
00000000
00000010
,
00000000
00000001
00000000
00000100
00000010
00000000
00010000
00000000
,
00001000
00000100
00010000
00001000
,
00200000
00310000
00200000
01300000
,
00100000
00010000
01000000
00000000
00100000
00000000
10000000
00000000
,
10100000
00100000
01010000
00010000
,
00100000
00000000
00001000
00000000
00010000
00000000
00001000
00010000
,
00001000
00000000
00000000
00010000
,
00001000
00000000
00000100
00000000
00000010
00000000
00001000
00000100
,
00000010
00000000
00000000
00000001
,
00001000
00000000
00000010
00000000
00000100
00000000
00000010
00010000
,
00001000
00000000
00000000
00010000
,
00001000
01000000
00100000
10000000
,
00010000
00100000
00001000
00000000
00010000
00001000
00000100
00000000
,
00000010
00001000
00000000
00000001
00000000
00000100
00000000
00000010
,
00000000
00000100
00000000
00001000
00000000
00010000
00001000
00010000
,
00001000
00010000
00000000
01000000
00000000
00100000
00000000
10000000
,
00000000
00010000
00000000
01000000
00000000
00100000
00000000
00010000
,
00000000
10000000
00000000
01000000
00000000
00010000
00000000
00001000
,
00000000
00000100
00000000
00000001
00000000
00001000
00000010
00001000
,
00000010
00001000
00000000
00000001
00000000
00000100
00000000
00010000
,
00000000
01000000
00000000
00100000
00000000
10000000
00000000
01000000
,
00000000
01100000
00000000
00011000
,
00000000
00001000
00000100
00000010
,
00000100
00000110
00000000
00001001
,
00000000
00000001
00000010
00000100
,
00001000
00001100
00000000
01010000
,
00000000
01000000
00100000
10000000
,
01000000
00010000
10000000
00100000
,
01000000
00010000
01000000
00000000
00001000
00010000
00001000
00000000
,
00010000
00010000
00000100
00000010
,
00000001
00000100
00001000
00000000
00000100
00000000
00000010
00001000
,
00000000
00000100
00000000
00010000
00000000
00001000
00000000
01000000
,
00000000
00100000
00000000
10000000
00010000
00000000
10000000
00000000
,
00100000
01000000
00001000
00010000
,
00002000
00013000
00020000
00031000
,
00000100
00000010
00001000
00000000
00000100
00000000
00000010
00000000
,
00000110
00000000
00000000
00000000
00000000
00000000
00000100
00000010
,
00001000
00001000
00000001
00000100
,
00000010
00010000
00001000
00000000
00010000
00000000
00001000
01000000
,
00000000
00100000
00000000
10000000
00000000
00100000
00000000
01000000
,
00000000
00010000
00000000
00100000
00001000
00000000
00010000
00000000
,
00001000
00000100
00000010
00001000
,
00000002
00000103
00000002
00000013
,
00000100
00000010
00000001
00000000
00001000
00000000
00000100
00000000
,
00000000
00010000
00000000
00001000
00000000
01000000
00100000
10000000
,
01000000
10000000
00100000
01000000
,
00100000
00000000
10000000
00000000
00010000
00100000
00001000
00000000
,
00010000
00001000
00000100
00000010
,
00000100
00000000
00000001
00000000
00001000
00000100
00000010
00000000
,
00001001
00000000
00000000
00000000
;

//---------------dance-double - ----------------
#NOTES:
     dance-double:
     :
     Hard:
     8:
     :
00000000
00000000
00000000
00000000
,
00000000
00000000
00000000
00000000
,
00000000
00000000
00000000
00000000
,
00000000
00000000
00000000
00000000
,
00011000
00000000
00011000
00000000
00010000
00000100
00000010
00000001
,
00000100
00000000
00000010
00001000
00000100
00000000
00010000
00000000
,
00011000
00100000
01100000
10000000
,
00100000
10000000
01000000
00000000
00010000
00001000
00000010
00000000
,
00000011
00001010
00110000
10100000
,
01000000
00000000
00010000
00000000
00100000
01000000
10000000
00000000
,
10010000
00000000
00011000
00000000
00001000
00000100
00000110
00000000
,
00000010
00001000
00000100
00000000
00000010
00000001
00001000
00000000
,
00000010
00000000
00000000
00000100
00000000
00000000
00010000
00000000
00000000
01000000
00000000
00000000
00100000
00000000
10000000
00000000
,
00100000
00000000
01000000
00010000
00100000
00000000
00001000
00000000
,
00011000
00000010
00000110
00001000
,
00000100
00010000
00001000
00000000
00000100
00000001
00000010
00000000
,
00000200
00000000
00001300
00000000
00000010
00000100
00000010
00000100
,
00002000
00023000
02030000
03100000
,
00010000
10000000
00010000
00000000
10000000
01000000
10000000
00000000
,
01000000
00000000
00000000
00000000
00100000
00000000
00000000
00000000
00001000
00000000
00000000
00010000
00001000
00000000
00000000
00000000
,
00000100
00010010
00000100
00000000
00001000
00000100
00000010
00000001
,
00001000
00000010
00000000
00000000
00001000
00000010
00000000
00000000
00010000
00001000
00000000
00000000
00010000
00001000
00000000
00000000
,
00011000
01000000
01100000
10000000
,
00010000
01000000
00000000
00000000
00010000
01000000
00000000
00000000
00001000
00010000
00000000
00000000
00001000
00010000
00000000
00000000
,
00011000
00000000
00000100
00000000
00000110
00000000
00000001
00001000
,
00000001
00000100
00000000
00000000
00000001
00000100
00000000
00000000
00001000
00000100
00000000
00000000
00001000
00000100
00000000
00000000
,
00001010
00000000
00110000
00000000
00010000
01000000
00100000
10000000
,
10010000
00011000
00001001
00000110
,
00000001
00000100
00001000
00010000
00001000
00100000
00010000
01000000
,
10000000
00000000
01000000
00010000
00100000
00000000
10000000
01000000
,
00010000
00000000
00001000
00000000
00000100
00000010
00001000
00000000
,
00000100
00000000
00000010
00000001
00000100
00000000
00000010
00000100
,
00010000
00000000
01100000
00000000
00010000
01000000
00100000
10000000
,
00010000
00000000
10000000
01000000
10000000
00000000
00010000
00100000
,
00001000
00000000
00010000
00000000
00000100
00000010
00000100
00000000
,
00010000
00000000
00000100
00000010
00000001
00000000
00001000
00000010
,
00000001
00000020
00000230
00001300
,
00010000
00010100
00001000
01001000
,
00100000
00020000
10000000
10030000
,
00100000
01100000
00010000
00011000
,
00001020
00000000
00000100
00000000
00000130
00000000
00000001
00000100
,
00001000
00000110
00010000
00001010
,
00000100
00000000
00001000
00000000
00010000
00000000
00000000
00001000
,
00010000
00110000
10000000
10100000
,
01000000
00010000
00100000
00001000
00010000
01000000
00100000
00010000
,
00001000
00000000
00000100
00000010
00000001
00000000
00001000
00000000
,
00001100
00010000
01010000
00100000
,
10000000
01000000
00010000
00000000
01000000
10000000
00100000
00000000
,
11000000
01010000
00001100
00000101
,
00000010
00000000
00000001
00000000
00000100
00000010
00001000
00000000
,
00011000
00000000
01010000
00000000
00010000
00100000
01100000
00000000
,
01000000
10000000
00010000
00000000
00100000
00010000
10000000
00000000
,
01000000
00000000
00000000
00010000
00000000
00000000
00001000
00000000
00000000
00000100
00000000
00000000
00000010
00000000
00000100
00000000
,
00000001
00000000
00001000
00000100
00000010
00000000
00000001
00000000
,
00001001
00000100
00001100
00010000
,
00001000
01000000
00100000
00000000
10000000
01000000
00010000
00000000
,
20000000
00000000
30100000
00000000
01000000
00010000
01000000
00010000
,
00200000
00302000
00003020
00000130
,
00001000
00000010
00001000
00000000
00000100
00000001
00000100
00000000
,
00000010
00000000
00000000
00000000
00000001
00000000
00000000
00000000
00000100
00000000
00000000
00001000
00010000
00000000
00000000
00000000
,
01000000
00000000
00000000
00100000
00000000
00000000
00010000
00000000
00000000
10000000
00000000
00000000
00010000
00000000
00100000
00000000
,
00002000
00103000
00002000
00003100
,
00000102
00000000
00000013
00000000
00001000
00000100
00001000
00000000
,
00020000
01030000
20000000
30100000
,
10000000
00000000
01000000
00000000
00010000
00000000
00001000
00010000
,
00011000
00000000
00000000
00000000
;
