
//----- song ID: kygs -----//
#TITLE:I Know You Got Soul;
#ARTIST:Jason Nevins vs. Eric B. & Rakim;
#BANNER:I Know You Got Soul.png;
#BACKGROUND:I Know You Got Soul-bg.png;
#CDTITLE:./CDTITLES/DanceDanceRevolution UNIVERSE2.png;
#MUSIC:I Know You Got Soul.ogg;
#SAMPLESTART:15.484;
#SAMPLELENGTH:15;
#BPMS:0=124;

//---------------dance-single - ----------------
#NOTES:
     dance-single:
     :
     Beginner:
     1:
     :
0000
0000
0000
0000
,
0000
0000
0000
0000
,
0000
0000
0000
0000
,
0000
0000
0000
0000
,
0000
0000
0000
0000
,
1001
0000
0000
0000
,
0010
0000
0100
0000
,
1000
0000
0000
0000
,
0110
0000
0000
0000
,
0001
0000
1000
0000
,
0100
0000
0000
0000
,
0010
0000
0000
0000
,
1001
0000
0000
0000
,
0010
0000
0001
0000
,
0100
0000
0010
0000
,
1000
0000
0001
0000
,
1001
0000
0000
0000
,
0100
0000
0000
0000
,
1000
0000
0010
0000
,
0100
0000
0000
0000
,
0001
0000
1000
0000
,
0001
0001
0001
0000
,
0100
0000
0000
0000
,
0010
0000
0000
0000
,
0110
0000
0000
0000
,
1000
0000
0001
0000
,
0100
0000
0000
0000
,
1000
0000
0000
0000
,
1001
0000
0000
0000
,
0100
0000
1000
0000
,
0001
0000
0100
0000
,
0010
0010
0010
0000
,
0100
0000
0000
0000
,
0001
0000
0000
0000
,
1000
0000
0000
0000
,
0010
0000
0010
0000
,
0010
0010
0000
0000
,
0100
0000
1000
0000
,
0001
0001
0000
0000
,
0100
0000
0010
0000
,
1000
0000
0000
0000
,
0001
0000
0000
0000
,
0010
0000
0010
0000
,
0100
0000
0100
0000
,
1000
0000
0000
0000
,
0100
0000
0000
0000
,
0001
0000
0000
0000
,
0010
0000
0000
0000
,
0100
0100
0000
0000
,
1000
0000
0001
0000
,
0100
0000
0000
0000
,
0010
0000
0000
0000
,
0110
0000
0000
0000
,
1000
0000
0001
0000
,
0100
0000
0001
0000
,
1000
0000
0010
0010
;

//---------------dance-single - ----------------
#NOTES:
     dance-single:
     :
     Easy:
     4:
     :
0000
0000
0000
0000
,
0000
0000
0000
0000
,
0000
0000
0000
0000
,
0000
0000
0000
0000
,
0000
0000
0000
0000
,
1000
0010
0001
0000
,
0100
1000
0100
0000
,
0001
0000
1000
0010
,
0100
0001
1000
0000
,
0001
0100
0001
0000
,
1000
0000
0001
0010
,
0100
1000
0001
1000
,
1001
0000
0100
1000
,
0010
0100
0100
0000
,
0001
0000
0100
0000
,
0010
0010
1000
0100
,
0010
0000
0100
1000
,
0001
1000
0000
0001
,
0100
0010
1000
0001
,
0100
0000
0010
0010
,
0100
0000
0010
0100
,
0010
0100
0001
0100
,
1000
0100
0001
0100
,
1000
1000
0001
1000
,
1001
0000
0010
1000
,
0100
0010
0001
1000
,
0100
1000
0010
0100
,
0001
0000
0010
0100
,
1000
0000
1000
0001
,
0100
0000
0100
0010
,
1000
0000
1000
0100
,
0001
0000
0001
0100
,
1000
0000
1000
0010
,
0100
0000
0001
0000
,
1000
0100
1000
0100
,
0010
0010
0010
0000
,
0100
0100
1000
0001
,
0010
0100
1000
0010
,
0100
0000
0001
0000
,
1000
0000
0001
0100
,
1000
0000
0100
0010
,
1000
0000
0001
0100
,
1000
0000
0100
0001
,
0010
0010
0100
0000
,
1000
0010
0001
0000
,
1000
0010
0001
0000
,
0001
0100
0010
0000
,
0100
0000
1000
0001
,
0100
0000
0100
1000
,
0100
0010
0100
0001
,
1000
0000
0100
0010
,
0001
0000
1000
0001
,
1001
0000
0100
0010
,
1000
0000
0100
0001
,
0010
0000
0010
0001
,
0100
0000
1000
0001
;

//---------------dance-single - ----------------
#NOTES:
     dance-single:
     :
     Medium:
     6:
     :
0000
0000
0000
0000
,
0000
0000
0000
0000
,
0000
0000
0000
0000
,
0000
0000
0000
0000
,
0000
0000
0000
0000
,
0010
0000
1000
0001
1000
0000
0010
0000
,
0100
0001
0001
1000
,
0010
0000
0001
0000
1000
0100
1000
0000
,
0010
0001
0100
1000
,
0100
0000
0100
0000
0001
0010
0001
0000
,
1000
0001
1100
0101
,
1001
0000
0000
0000
0100
1000
0100
0000
,
0010
0000
1000
0000
0100
0010
0100
0000
,
1000
0100
0010
0001
,
1000
0000
0001
0010
,
0100
0000
1000
0000
0010
0100
0010
0000
,
0100
1000
1001
0000
,
0010
0001
1001
0000
,
0020
1030
0020
0031
,
1000
0000
0001
0000
1000
0010
1000
0000
,
0001
0100
2010
3100
,
0010
0001
0010
0000
0100
0010
0100
0000
,
2000
3000
0020
0030
,
1000
0001
0000
0000
,
0010
0000
1000
0000
0100
1000
0100
0000
,
0010
0000
0001
0100
,
0010
0001
1000
0100
,
1000
0000
0000
0000
1000
0010
0001
0000
,
2000
3002
2003
3002
,
0103
0001
0010
0100
,
1000
0000
0001
0000
1000
0001
1000
0000
,
0010
0100
0010
1000
,
0010
0000
0100
0000
0001
0010
0001
0000
,
1000
0000
0000
0000
0000
0010
0000
0100
,
0010
0000
0000
0000
0000
0001
0000
1000
,
0001
0100
1000
0100
,
0010
1000
0001
0100
,
0010
0001
0010
0000
1000
0100
1000
0000
,
0001
0000
0100
0000
0010
1000
0010
0000
,
0100
0000
0001
0010
,
0100
1000
0001
1000
,
0010
1000
0010
0000
0100
0000
0100
0000
,
0001
0001
1000
0100
,
1000
0010
0100
0001
,
1000
0000
0001
1000
,
0010
0100
0110
0110
,
1000
0100
0010
1000
,
0001
0100
0010
1000
,
0001
0000
0000
0000
0100
0010
1000
0000
,
0100
0000
0100
0000
0010
0001
0100
0000
,
1000
0000
0001
1000
,
0001
1000
0010
0100
,
0020
2030
3200
0320
,
0031
0000
1000
0000
0010
1000
0100
0000
,
0010
0001
1000
0100
,
0010
0100
0010
0000
1000
0001
1000
0000
;

//---------------dance-single - ----------------
#NOTES:
     dance-single:
     :
     Hard:
     7:
     :
0000
0000
0000
0000
,
0000
0000
0000
0000
,
0000
0000
0000
0000
,
0000
0000
0000
0000
,
0000
0000
0000
0000
,
0110
0000
1000
0100
0010
0001
1000
0010
,
0100
0000
0000
0000
0001
0000
0000
1000
0001
0000
0010
0000
0001
0000
0100
0000
,
0010
0000
0000
0000
1000
0000
0000
0010
1000
0000
0010
0000
0100
0000
1000
0000
,
0001
0100
1000
0010
,
1000
0000
0001
0000
0010
0100
0001
0000
,
0001
0100
1000
0000
0001
1000
0001
1000
,
0110
0000
0000
0000
1001
0000
0000
0000
0001
0100
0000
0010
1000
0000
0100
0000
,
1100
0010
0001
1000
,
0010
0000
0100
0000
0100
0010
0000
0000
,
1000
0000
0001
1000
0100
0010
1000
0000
,
0001
0000
0010
0000
1000
0000
0000
0001
1000
0000
0000
0000
1001
0000
0000
0000
,
0110
0000
0010
0000
1000
0000
0000
0100
0010
0000
0000
0100
0001
0000
0000
0000
,
1000
0010
0110
0000
1000
0100
0110
0000
,
0001
0100
0010
0001
0010
0000
0100
0000
,
1000
0000
0010
0000
0100
0001
0010
0000
,
1000
0000
0001
0000
0100
0000
0000
0000
0010
0000
0000
0100
0001
0000
1000
0000
,
0100
0000
0001
0000
1000
0010
0110
0000
,
0010
0001
0010
0100
1000
0001
0100
0000
,
1100
0000
0000
1000
0001
1000
0001
1000
,
0110
0000
1001
0000
0010
0001
0100
1000
,
0100
0001
1000
0000
0100
0000
1000
0000
,
0011
0110
1100
0101
,
0100
1000
0010
0000
1000
0010
0100
0001
,
0011
0000
0000
0000
1010
0000
0000
0000
1100
0000
0000
0000
0101
0000
0000
0001
,
1000
0100
0010
0000
0100
0000
1000
0000
,
0011
0000
0001
0000
0100
0000
0000
0000
1010
0000
1000
0000
0100
0000
0000
1000
,
0000
0000
0010
0000
0001
0000
0000
0001
0000
0000
0100
0000
1000
0000
0000
0010
,
0000
0000
1000
0000
0100
0000
0000
0010
0000
0000
0100
0000
0001
0000
0000
0000
,
1001
0000
0000
0000
0000
0010
0000
0010
,
1001
0000
0000
0000
0000
0100
0000
0100
,
1000
0010
0100
0000
0001
0010
0100
0000
,
1001
2010
3100
0101
,
0001
1000
1100
0000
0100
0010
0011
0000
,
0100
0000
0000
0000
0010
0000
0000
0001
1000
0000
0000
0000
0010
0000
0000
0000
,
0100
1000
0001
0000
0100
0010
1001
0000
,
0110
0000
0000
0000
0001
0000
0000
0000
1000
0000
0000
0001
0010
0000
0000
0000
,
0100
1000
0010
1000
0100
0010
0001
0000
,
1000
0010
0100
0000
0001
1000
0001
1000
,
0100
0010
0000
0000
1100
0100
0101
0000
,
1000
0000
0010
0000
0100
0000
0000
1000
0100
0000
0000
1000
0010
0000
0000
0000
,
0100
0000
0010
0000
0100
0001
0011
0010
,
0100
1000
0001
0100
1000
0100
0010
0000
,
1000
0000
0100
0000
0011
0001
1001
0000
,
0010
0000
0000
0000
1000
0000
0000
0001
1000
0000
0000
0001
0100
0000
0000
0000
,
0010
1000
0100
0000
0010
0001
0100
0000
,
1100
0110
0011
1100
,
0010
0000
1000
0000
0100
0000
0000
0000
0000
0000
0010
0001
1000
0000
0100
0000
,
0011
0000
0000
0000
1010
0000
0000
1000
0100
0000
0000
0000
0101
0000
0000
0000
,
1010
0000
0000
0000
0011
0000
0000
0001
0100
0000
0000
0000
1100
0000
0000
0000
,
0010
0000
0001
0000
1000
0000
0010
0001
0000
0000
0100
0000
0000
0000
0000
0000
,
1000
0000
0001
0010
0001
0000
1000
0100
0000
0100
1000
0000
0001
0100
0000
0000
;

//---------------dance-double - ----------------
#NOTES:
     dance-double:
     :
     Beginner:
     1:
     :
00000000
00000000
00000000
00000000
,
00000000
00000000
00000000
00000000
,
00000000
00000000
00000000
00000000
,
00000000
00000000
00000000
00000000
,
00000000
00000000
00000000
00000000
,
00011000
00000000
00000000
00000000
,
00001000
00000000
00000100
00000000
,
00001000
00000000
00000000
00000000
,
00000110
00000000
00000000
00000000
,
00000001
00000000
00000100
00000000
,
00001000
00000000
00000000
00000000
,
00010000
00000000
00000000
00000000
,
00011000
00000000
00000000
00000000
,
00010000
00000000
00100000
00000000
,
00010000
00000000
01000000
00000000
,
00100000
00000000
01000000
00000000
,
01100000
00000000
00000000
00000000
,
10000000
00000000
00000000
00000000
,
00010000
00000000
00100000
00000000
,
00001000
00000000
00000000
00000000
,
00010000
00000000
00001000
00000000
,
00010000
00010000
00010000
00000000
,
00000100
00000000
00000000
00000000
,
00001000
00000000
00000000
00000000
,
00000110
00000000
00000000
00000000
,
00000010
00000000
00000100
00000000
,
00000001
00000000
00000000
00000000
,
00001000
00000000
00000000
00000000
,
00001001
00000000
00000000
00000000
,
00000100
00000000
00010000
00000000
,
00001000
00000000
00100000
00000000
,
00010000
00010000
00010000
00000000
,
10000000
00000000
00000000
00000000
,
01000000
00000000
00000000
00000000
,
00010000
00000000
00000000
00000000
,
00001000
00000000
00000010
00000000
,
00000001
00000001
00000000
00000000
,
00000100
00000000
00000010
00000000
,
00010000
00010000
00000000
00000000
,
00001000
00000000
00100000
00000000
,
01000000
00000000
00000000
00000000
,
00010000
00000000
00000000
00000000
,
10000000
00000000
10000000
00000000
,
00010000
00000000
00010000
00000000
,
00100000
00000000
00000000
00000000
,
00001000
00000000
00000000
00000000
,
00010000
00000000
00000000
00000000
,
00000100
00000000
00000000
00000000
,
00001000
00001000
00000000
00000000
,
00000010
00000000
00000001
00000000
,
00000100
00000000
00000000
00000000
,
00000010
00000000
00000000
00000000
,
00000110
00000000
00000000
00000000
,
00010000
00000000
00001000
00000000
,
00100000
00000000
00010000
00000000
,
00100000
00000000
01000000
01000000
;

//---------------dance-double - ----------------
#NOTES:
     dance-double:
     :
     Easy:
     4:
     :
00000000
00000000
00000000
00000000
,
00000000
00000000
00000000
00000000
,
00000000
00000000
00000000
00000000
,
00000000
00000000
00000000
00000000
,
00000000
00000000
00000000
00000000
,
00000010
00000100
00000001
00000000
,
00000100
00001000
00000100
00000000
,
00000010
00000000
00010000
00001000
,
01000000
00100000
00010000
00000000
,
10000000
01000000
10000000
00000000
,
00100000
00000000
01000000
00100000
,
00001000
00000100
00000010
00000100
,
00000110
00000000
00000001
00000010
,
00001000
00000100
00000100
00000000
,
00010000
00000000
00001000
00000000
,
01000000
01000000
00010000
00100000
,
01000000
00000000
10000000
00100000
,
10000000
00100000
00000000
00010000
,
00100000
00001000
00000100
00000001
,
00001000
00000000
00000010
00000010
,
00000100
00000000
00010000
00001000
,
00010000
00001000
00100000
00010000
,
01000000
10000000
01000000
00010000
,
00100000
00100000
00001000
00010000
,
00011000
00000000
00000100
00000010
,
00001000
00000100
00000010
00000001
,
00000100
00000001
00001000
00000010
,
00010000
00000000
00001000
00010000
,
01000000
00000000
00100000
10000000
,
01000000
00000000
00100000
00010000
,
01000000
00000000
00001000
00010000
,
00001000
00000000
00000010
00001000
,
00000100
00000000
00001000
00000010
,
00000001
00000000
00000100
00000000
,
00000010
00001000
00000010
00010000
,
00001000
00001000
00001000
00000000
,
00100000
00100000
01000000
00010000
,
10000000
00100000
01000000
10000000
,
00010000
00000000
00100000
00000000
,
00001000
00000000
00000100
00000010
,
00001000
00000000
00000001
00000010
,
00000001
00000000
00001000
00000100
,
00000010
00000000
00010000
00001000
,
01000000
01000000
00100000
00000000
,
00010000
01000000
10000000
00000000
,
01000000
10000000
00010000
00000000
,
00100000
00010000
00001000
00000000
,
00010000
00000000
00000100
00001000
,
00000010
00000000
00000100
00000001
,
00001000
00000100
00000010
00010000
,
00001000
00000000
00100000
01000000
,
10000000
00000000
01000000
00100000
,
01100000
00000000
01000000
00010000
,
00001000
00000000
00000010
00000001
,
00000100
00000000
00001000
00000100
,
00000001
00000000
00001000
00000100
;

//---------------dance-double - ----------------
#NOTES:
     dance-double:
     :
     Medium:
     6:
     :
00000000
00000000
00000000
00000000
,
00000000
00000000
00000000
00000000
,
00000000
00000000
00000000
00000000
,
00000000
00000000
00000000
00000000
,
00000000
00000000
00000000
00000000
,
01000000
00000000
00100000
00010000
00100000
00000000
00001000
00000000
,
00010000
00000100
00000100
00001000
,
00000010
00000000
00000001
00000000
00000100
00000010
00000100
00000000
,
00000001
00000100
00001000
00010000
,
01000000
00000000
01000000
00000000
00100000
01000000
00100000
00000000
,
10000000
00100000
01100000
00011000
,
00000110
00000000
00000000
00000000
00001000
00000100
00001000
00000000
,
00000001
00000000
00000010
00000000
00000001
00001000
00000001
00000000
,
00000100
00000010
00010000
00001000
,
00010000
00000000
01000000
00100000
,
00010000
00000000
10000000
00000000
00100000
10000000
00100000
00000000
,
00010000
00100000
00110000
00000000
,
00001000
00010000
00011000
00000000
,
00000200
00001300
00000200
00000310
,
00000001
00000000
00000100
00000000
00000010
00001000
00000010
00000000
,
00010000
00001000
00021000
00030100
,
00010000
00001000
00010000
00000000
01000000
10000000
01000000
00000000
,
00200000
00300000
20000000
30000000
,
00010000
00100000
00000000
00000000
,
00001000
00000000
00000100
00000000
00000010
00001000
00000010
00000000
,
00000100
00000000
00000001
00001000
,
00000001
00000010
00001000
00000100
,
00010000
00000000
00000000
00000000
00001000
00010000
00001000
00000000
,
00002000
00203000
00320000
20030000
,
30100000
10000000
01000000
00010000
,
00001000
00000000
00000010
00000000
00000100
00000010
00000100
00000000
,
00001000
00000001
00001000
00000010
,
00000001
00000000
00001000
00000000
00000100
00010000
00001000
00000000
,
00010000
00000000
00000000
00000000
00000000
00001000
00000000
00001000
,
01000000
00000000
00000000
00000000
00000000
00100000
00000000
00100000
,
10000000
00010000
00100000
10000000
,
00010000
01000000
00001000
00010000
,
00001000
00010000
00001000
00000000
00000100
00000010
00000100
00000000
,
00000001
00000000
00001000
00000000
00000001
00000100
00000001
00000000
,
00000010
00000000
00000100
00010000
,
00001000
01000000
00100000
10000000
,
00010000
00100000
00010000
00000000
01000000
00000000
01000000
00000000
,
00001000
00001000
00010000
00000100
,
00001000
00000100
00000010
00000001
,
00001000
00000000
00000010
00001000
,
00010000
00001000
00011000
00011000
,
00010000
01000000
00100000
00010000
,
10000000
00100000
01000000
00010000
,
00100000
00000000
00000000
00000000
00001000
00010000
01000000
00000000
,
00100000
00000000
00100000
00000000
00001000
00010000
00000100
00000000
,
00001000
00000000
00000010
00000100
,
00000001
00000100
00000010
00001000
,
00000020
00000230
00020300
02030000
,
03100000
00000000
10000000
00000000
00100000
00010000
01000000
00000000
,
00001000
00010000
00001000
00000100
,
00001000
00000010
00001000
00000000
00000100
00000010
00000100
00000000
;

//---------------dance-double - ----------------
#NOTES:
     dance-double:
     :
     Hard:
     7:
     :
00000000
00000000
00000000
00000000
,
00000000
00000000
00000000
00000000
,
00000000
00000000
00000000
00000000
,
00000000
00000000
00000000
00000000
,
00000000
00000000
00000000
00000000
,
00011000
00000000
00001000
00000100
00000010
00001000
00000100
00000001
,
00000100
00000000
00000000
00000000
00010000
00000000
00000000
00001000
01000000
00000000
10000000
00000000
01000000
00000000
00100000
00000000
,
10000000
00000000
00000000
00000000
01000000
00000000
00000000
00100000
00010000
00000000
10000000
00000000
01000000
00000000
00010000
00000000
,
00001000
00000010
00000001
00001000
,
00000010
00000000
00000001
00000000
00000100
00001000
00000010
00000000
,
00010000
00001000
00010000
00000000
00001000
01000000
00100000
00010000
,
00110000
00000000
00000000
00000000
10100000
00000000
00000000
00000000
00100000
10000000
00000000
01000000
00100000
00000000
00010000
00000000
,
00110000
00001000
00000100
00000010
,
00000001
00000000
00001000
00000000
00001000
00000001
00000000
00000000
,
00000100
00000000
00000010
00010000
00001000
00000100
00000010
00000000
,
00010000
00000000
00001000
00000000
01000000
00000000
00000000
00100000
01000000
00000000
00000000
00000000
11000000
00000000
00000000
00000000
,
00110000
00000000
00010000
00000000
01000000
00000000
00000000
00100000
10000000
00000000
00000000
00100000
01000000
00000000
00000000
00000000
,
00001000
00010000
00011000
00000000
00001000
00000100
00001100
00000000
,
00000010
00001000
00000100
00000010
00000001
00000000
00000100
00000000
,
00010000
00000000
01000000
00000000
00100000
01000000
00010000
00000000
,
00100000
00000000
01000000
00000000
10000000
00000000
00000000
00000000
00010000
00000000
00000000
01000000
00100000
00000000
10000000
00000000
,
00010000
00000000
00100000
00000000
00001000
00000100
00000110
00000000
,
00001000
00000100
00000001
00000100
00001000
00000010
00000001
00000000
,
00000110
00000000
00000000
00010000
00001000
00010000
00001000
00010000
,
00011000
00000000
10010000
00000000
00100000
10000000
01000000
00100000
,
10000000
01000000
00010000
00000000
00001000
00000000
00000100
00000000
,
00000110
00000011
00001010
00000101
,
00000100
00000001
00000010
00000000
00001000
00000100
00010000
01000000
,
01100000
00000000
00000000
00000000
10010000
00000000
00000000
00000000
01010000
00000000
00000000
00000000
11000000
00000000
00000000
10000000
,
00100000
01000000
00010000
00000000
00100000
00000000
00001000
00000000
,
00011000
00000000
00001000
00000000
00000100
00000000
00000000
00000000
00001010
00000000
00000010
00000000
00000100
00000000
00000000
00000001
,
00000000
00000000
00000100
00000000
00001000
00000000
00000000
00010000
00000000
00000000
01000000
00000000
10000000
00000000
00000000
10000000
,
00000000
00000000
00100000
00000000
00010000
00000000
00000000
00001000
00000000
00000000
00000100
00000000
00000001
00000000
00000000
00000000
,
00001001
00000000
00000000
00000000
00000000
00010000
00000000
00001000
,
00011000
00000000
00000000
00000000
00000000
00100000
00000000
01000000
,
10000000
00010000
01000000
00000000
10000000
00100000
01000000
00000000
,
00110000
00021000
00030100
00001010
,
00000100
00000010
00001010
00000000
00000001
00001000
00001100
00000000
,
00000001
00000000
00000000
00000000
00000100
00000000
00000000
00000010
00000100
00000000
00000000
00000000
00010000
00000000
00000000
00000000
,
01000000
00010000
10000000
00000000
00100000
01000000
10100000
00000000
,
01010000
00000000
00000000
00000000
00100000
00000000
00000000
00000000
00001000
00000000
00000000
00010000
00001000
00000000
00000000
00000000
,
00010000
00001000
00000100
00000010
00000001
00000010
00000001
00000000
,
00001000
00000100
00010000
00000000
00001000
00000100
00001000
00000100
,
00000010
00010000
00000000
00000000
00011000
00010000
10010000
00000000
,
01000000
00000000
00100000
00000000
10000000
00000000
00000000
00010000
01000000
00000000
00000000
00010000
00100000
00000000
00000000
00000000
,
00001000
00000000
00000100
00000000
00000010
00000100
00000110
00000001
,
00001000
00000100
00000010
00000100
00001000
00000001
00000100
00000000
,
00010000
00000000
00100000
00000000
10100000
10000000
10010000
00000000
,
00010000
00000000
00000000
00000000
00100000
00000000
00000000
00001000
00010000
00000000
00000000
00001000
00000100
00000000
00000000
00000000
,
00000010
00001000
00000100
00000000
00000100
00001000
00000001
00000000
,
00001001
00011000
10010000
00011000
,
00100000
00000000
00010000
00000000
01000000
00000000
00000000
00000000
00000000
00000000
10000000
01000000
00100000
00000000
00010000
00000000
,
00110000
00000000
00000000
00000000
00011000
00000000
00000000
00001000
00000100
00000000
00000000
00000000
00001001
00000000
00000000
00000000
,
00001100
00000000
00000000
00000000
00011000
00000000
00000000
00010000
01000000
00000000
00000000
00000000
10010000
00000000
00000000
00000000
,
00100000
00000000
00001000
00000000
00010000
00000000
00000100
00000010
00000000
00000000
00001000
00000000
00000000
00000000
00000000
00000000
,
00000001
00000000
00001000
00000100
00001000
00000000
00000001
00000010
00000000
00000010
00000001
00000000
00001000
00000010
00000000
00000000
;
