
//----- song ID: dors -----//
#TITLE:Dorset Perception;
#ARTIST:Shpongle;
#BANNER:Dorset Perception.png;
#BACKGROUND:Dorset Perception-bg.png;
#CDTITLE:./CDTITLES/DanceDanceRevolution UNIVERSE2.png;
#MUSIC:Dorset Perception.ogg;
#SAMPLESTART:58;
#SAMPLELENGTH:15;
#BPMS:0=120;

//---------------dance-single - ----------------
#NOTES:
     dance-single:
     :
     Beginner:
     1:
     :
0000
0000
0000
0000
,
0000
0000
0000
0000
,
0000
0000
0000
0000
,
0000
0000
0000
0000
,
0000
0000
0000
0000
,
0010
0000
0000
0000
,
0001
0000
0000
0000
,
0100
0000
0000
0000
,
1000
0000
0010
0000
,
0100
0000
0000
0000
,
0001
0000
0000
0000
,
0010
0000
0000
0000
,
1000
0000
0001
0001
,
0100
0000
0010
0000
,
1000
0000
0000
0000
,
0100
0000
0010
0000
,
0001
0000
0001
0001
,
0001
0000
1000
0000
,
0100
0000
0000
0000
,
1000
0000
0000
0000
,
0001
0000
0000
0000
,
1000
0000
0100
0000
,
0001
0000
0010
0010
,
0010
0000
0100
0000
,
1000
0000
0001
0000
,
0100
0000
0010
0000
,
1000
0000
1000
1000
,
1000
0000
0100
0000
,
0001
0000
0010
0010
,
0010
0000
0100
0000
,
1000
0000
0000
0000
,
0001
0000
0000
0000
,
0100
0000
0000
0000
,
0010
0000
0100
0000
,
1000
0000
0000
0000
,
0001
0000
0000
0000
,
0100
0000
0000
0000
,
0020
0000
0000
0030
,
0010
0000
0000
0000
,
0200
0000
0000
0300
,
0100
0000
0000
0000
,
2000
0000
0000
3000
,
1000
0000
0000
0000
,
0002
0000
0000
0003
,
0001
0000
0000
0000
,
1001
0000
0000
0000
,
0100
0000
0000
0000
,
0020
0000
0000
0030
;

//---------------dance-single - ----------------
#NOTES:
     dance-single:
     :
     Easy:
     3:
     :
0000
0000
0000
0000
,
0000
0000
0000
0000
,
0000
0000
0000
0000
,
0000
0000
0000
0000
,
0000
0000
0000
0000
,
1000
0000
0001
0000
,
1000
0100
0001
0000
,
0001
0000
1000
0000
,
0010
0000
1000
0010
,
1000
0000
0001
0000
,
1000
0010
0001
0000
,
0010
0000
0100
0000
,
1000
0000
0010
0100
,
0001
0000
0100
0000
,
1000
1000
0100
0000
,
0100
0000
0010
0000
,
0010
0010
0001
0000
,
0100
0100
1000
0000
,
0100
0100
0001
0000
,
0100
0100
1000
0000
,
0010
0000
0000
0000
,
1000
0100
0000
0000
,
0001
0100
0000
0010
,
1000
0010
0100
0001
,
1000
1000
0001
0001
,
0001
0100
0000
0000
,
1000
0100
0000
0000
,
0100
0001
0000
0000
,
1000
0001
0100
0001
,
1000
0100
0020
0000
,
0000
0000
0130
1000
,
0001
0100
0001
0000
,
1000
0100
1000
0000
,
0001
0010
0200
0000
,
0000
0000
0310
0001
,
1000
0000
0010
0000
,
0100
0000
0001
0001
,
1000
0000
0100
0010
,
0001
0000
0100
1000
,
0010
0000
0100
0100
,
0001
0000
0100
0100
,
1000
0000
0010
0010
,
0100
0000
0010
0001
,
1000
0000
0100
0000
,
0001
0000
0010
0100
,
2000
0000
0000
3000
,
0002
0000
0000
0003
,
1001
0000
0000
0000
;

//---------------dance-single - ----------------
#NOTES:
     dance-single:
     :
     Medium:
     5:
     :
0000
0000
0000
0000
,
0000
0000
0000
0000
,
0000
0000
0000
0000
,
0000
0000
0000
0000
,
0000
0000
0000
0000
,
1000
0100
1000
0000
0000
0000
0001
0000
,
0010
1000
0100
0000
0000
0000
1000
0000
,
0001
0100
0001
0000
0000
0000
0010
0000
,
0100
1000
0001
0100
,
1000
0100
1000
0000
0010
0000
0100
0000
,
0001
0010
0001
0000
0100
0000
0010
0000
,
1000
0000
0100
0000
1000
0010
0100
0000
,
0001
0100
0010
1000
,
0002
0000
0010
1003
,
0100
1000
0010
0001
,
0100
0010
0000
1000
,
0100
0010
0000
1001
,
0001
0100
1000
0000
0000
0000
0001
0000
,
1000
0100
0001
0000
0000
0000
1000
0000
,
0010
0100
0010
1000
,
0001
0000
0000
0100
,
1001
0000
1000
0000
0001
1000
0001
0000
,
1000
0000
0001
0000
1000
0001
1000
0000
,
0010
1000
0100
0010
,
0002
0000
1000
0103
,
0001
1000
0000
0001
0000
1000
0000
0010
,
0000
1000
0000
0001
0000
0100
0000
0001
,
0010
0100
0000
1000
0000
0010
0000
0100
,
0000
0001
0000
1000
0000
0100
1000
0010
,
0100
0000
0110
0000
1001
0000
0001
1000
,
0100
1000
0010
0100
,
0002
0000
2003
0000
,
3200
0000
0310
0001
,
0100
0000
0110
0000
1001
0000
1000
0010
,
0100
0001
0010
0001
,
1000
0100
0010
0000
0001
0000
0001
0000
,
1000
0001
0100
1000
,
1001
0000
0000
0000
1000
0001
1000
0010
,
1001
0000
0001
1000
,
0020
0000
1000
0130
,
0101
0000
0000
1010
,
1000
0000
0100
0000
0010
0000
0001
0010
,
0100
1000
0001
0100
,
0010
1000
0010
0000
0010
0001
0010
0000
,
0100
0000
0010
1000
,
0001
0000
0100
1000
,
0010
0000
0100
0001
,
0020
0000
0000
0030
;

//---------------dance-single - ----------------
#NOTES:
     dance-single:
     :
     Hard:
     7:
     :
0000
0000
0000
0000
,
0000
0000
0000
0000
,
0000
0000
0000
0000
,
0000
0000
0000
0000
,
0000
0000
0000
0000
,
1000
0000
0000
0000
0001
0000
0000
0100
0000
0000
0001
0000
0010
0000
0000
0000
,
0001
0000
0000
0000
1000
0000
0000
0010
0000
0000
0001
0000
1000
0000
0001
0000
,
0100
0000
0000
0000
0010
0000
0000
1000
0000
0000
0001
0000
0100
0000
0000
0000
,
0010
0000
0000
0000
0001
0000
0000
0100
0000
0000
1000
0000
0010
0000
0000
0000
,
0001
0000
0000
0000
1000
0000
0000
0010
0000
0000
1000
0000
0100
0000
0000
0000
,
1000
0000
0000
0000
0001
0000
0000
0100
0000
0000
1000
0000
0001
0000
1000
0000
,
0010
0000
0000
0000
0100
0000
0000
0001
0000
0000
1000
0000
0010
0000
0000
0000
,
0100
0000
0000
0000
1000
0000
0000
0010
0000
0000
0001
0000
0100
0000
0000
0000
,
1001
0000
0000
0000
0010
0100
0000
0010
0000
0000
1000
0000
0100
0000
1000
0000
,
0010
0100
0001
0000
0000
1000
0100
0000
,
0010
0000
0001
0000
0100
0001
0000
2000
0000
0000
0000
3001
0000
0000
0000
0000
,
0100
0000
0010
0000
1000
0010
0000
0000
0000
0000
0100
0000
1000
0000
0000
0000
,
0001
0110
1000
0110
,
0001
0000
0110
0000
0000
1000
0001
0000
,
1000
0000
0010
1000
0000
0100
0000
0000
0000
0001
0100
0000
0010
0000
0000
0000
,
1001
0000
0000
0000
,
0010
0001
0010
0100
1000
0100
1000
0010
,
0100
0000
0100
0001
0000
0010
0000
0200
0000
0000
1000
0000
1300
0000
0000
0000
,
1100
0000
0101
0000
1100
0000
0110
0010
,
1000
0000
0001
0100
0000
0100
0001
0000
0001
1000
0000
0000
0100
0000
0010
0000
,
1000
0100
0110
0000
0001
0100
0110
0000
,
1000
0000
1000
0001
0000
0010
0000
0200
0000
0000
1000
0000
1300
0000
0000
0000
,
0010
0001
0101
0000
0010
1000
1100
0000
,
0010
0000
0010
0100
0000
0100
0010
0000
0010
1000
0000
0000
0110
0000
0000
0000
,
1000
0000
0000
0010
0100
0000
0100
0000
0001
0000
0000
0010
0100
0000
0100
0000
,
1000
0000
0000
0001
1000
0000
1000
0000
0010
0000
0000
0100
0000
0000
0001
0000
,
1000
0010
0001
0100
,
1000
0000
0010
0100
0000
0100
0010
0000
0010
1000
0000
1000
0100
0000
0010
0000
,
0001
0000
0000
0100
0010
0000
0010
0000
1000
0000
0000
0100
0010
0000
0010
0000
,
0001
0000
0000
1000
0001
0000
0001
0000
0100
0000
0000
0010
0000
0000
1000
0000
,
0001
0100
1000
0010
,
0200
0000
0302
0000
2003
0010
3010
0000
,
2000
3010
0020
0130
0200
0301
0002
1003
,
0010
0000
0000
0100
0001
0000
0010
0000
0100
0000
0000
0001
0000
0000
0100
0000
,
0010
0000
0000
1000
0000
0000
0100
0000
1000
0000
0000
0001
0000
0000
0100
0000
,
0110
0000
0000
0000
,
0020
1030
2000
3001
0002
0103
0200
0310
,
1000
0000
0000
0001
0010
0000
0100
0000
0010
0000
0000
0001
0000
0000
0100
0000
,
0102
0000
0013
0000
,
0001
0100
1000
0100
,
0001
0000
0000
0010
0000
0000
0100
0000
0000
0000
0000
0000
0110
0000
0000
0000
,
1000
0000
0100
0000
1000
0000
0001
0100
,
2000
0000
0000
3000
;

//---------------dance-double - ----------------
#NOTES:
     dance-double:
     :
     Beginner:
     1:
     :
00000000
00000000
00000000
00000000
,
00000000
00000000
00000000
00000000
,
00000000
00000000
00000000
00000000
,
00000000
00000000
00000000
00000000
,
00000000
00000000
00000000
00000000
,
00001000
00000000
00000000
00000000
,
00010000
00000000
00000000
00000000
,
00000100
00000000
00000000
00000000
,
00000010
00000000
00000000
00000000
,
00001000
00000000
00000000
00000000
,
00000001
00000000
00000000
00000000
,
00001000
00000000
00000000
00000000
,
00000100
00000000
00010000
00000000
,
00010000
00000000
00001000
00000000
,
01000000
00000000
00000000
00000000
,
00100000
00000000
00000000
00000000
,
10000000
00000000
00010000
00000000
,
00010000
00000000
00100000
00000000
,
00001000
00000000
00000000
00000000
,
00010000
00000000
00000000
00000000
,
00001000
00000000
00000000
00000000
,
00000100
00000000
00000000
00000000
,
00000010
00000000
00000001
00000000
,
00000001
00000000
00001000
00000000
,
00000010
00000000
00000100
00000000
,
00000010
00000000
00010000
00000000
,
00001000
00000000
00010000
00010000
,
00010000
00000000
00001000
00000000
,
00100000
00000000
00010000
00010000
,
00010000
00000000
00100000
00000000
,
01000000
00000000
00000000
00000000
,
10000000
00000000
00000000
00000000
,
00010000
00000000
00000000
00000000
,
10000000
00000000
01000000
00000000
,
00100000
00000000
00000000
00000000
,
00001000
00000000
00000000
00000000
,
00010000
00000000
00000000
00000000
,
00002000
00000000
00000000
00003000
,
00000000
00000000
00000000
00000000
,
00020000
00000000
00000000
00030000
,
00000000
00000000
00000000
00000000
,
00000020
00000000
00000000
00000030
,
00000000
00000000
00000000
00000000
,
00000200
00000000
00000000
00000300
,
00000000
00000000
00000000
00000000
,
00000110
00000000
00000000
00000000
,
00000000
00000000
00000000
00000000
,
00001001
00000000
00000000
00000000
;

//---------------dance-double - ----------------
#NOTES:
     dance-double:
     :
     Easy:
     2:
     :
00000000
00000000
00000000
00000000
,
00000000
00000000
00000000
00000000
,
00000000
00000000
00000000
00000000
,
00000000
00000000
00000000
00000000
,
00000000
00000000
00000000
00000000
,
00100000
00000000
00010000
00000000
,
10000000
00000000
00010000
00000000
,
00100000
00000000
00001000
00000000
,
00010000
00001000
00000000
00001000
,
00010000
00000000
00000100
00000000
,
00000010
00000000
00001000
00000000
,
00000100
00000000
00000001
00000000
,
00000100
00000010
00000000
00000010
,
00000100
00000000
00000000
00010000
,
00001000
00010000
00000000
00001000
,
02000000
00000000
03000000
00000000
,
00100000
00000000
01000000
00010000
,
10000000
00010000
00000000
00010000
,
00100000
00000000
00001000
00000000
,
00010000
00000000
00000000
00000000
,
00011000
00000000
00000000
00000000
,
00001000
00000000
00000100
00000000
,
00010000
00001000
00000000
00000000
,
00000100
00000000
00000010
00000000
,
00001000
00000100
00000001
00000000
,
00000001
00000000
00001000
00000000
,
00000010
00000000
00000001
00000000
,
00000100
00001000
00010000
00100000
,
01000000
00000000
10000000
00000000
,
00010000
00000000
00100000
00000000
,
01000000
10000000
00010000
01000000
,
10000000
00000000
00000000
00000000
,
00010000
00000000
00100000
00000000
,
00001000
00000000
00010000
00000000
,
00000100
00000010
00000001
00001000
,
00000100
00000000
00000001
00000000
,
00000010
00000000
00000000
00000000
,
00001000
00000000
00000100
00010000
,
00000100
00000000
00010000
00000000
,
00001000
00100000
00001000
00000000
,
00010000
00001000
00010000
00000000
,
01000000
00000000
00100000
00010000
,
00100000
00000000
00010000
00000000
,
01000000
00000000
00000000
00000000
,
00100000
00000000
10000000
00000000
,
01000000
00000000
00010000
00000000
,
00001000
00000000
00000100
00000000
,
00000002
00000000
00000000
00000003
;

//---------------dance-double - ----------------
#NOTES:
     dance-double:
     :
     Medium:
     5:
     :
00000000
00000000
00000000
00000000
,
00000000
00000000
00000000
00000000
,
00000000
00000000
00000000
00000000
,
00000000
00000000
00000000
00000000
,
00000000
00000000
00000000
00000000
,
00000010
00000001
00000010
00000000
00000000
00000000
00001000
00000000
,
00000100
00000010
00000001
00000000
00000000
00000000
00001000
00000000
,
00000100
00010000
00000100
00000000
00000000
00000000
00010000
00000000
,
00000010
00000100
00010000
01000000
,
00100000
10000000
00100000
00000000
01000000
00000000
00010000
00000000
,
10000000
01000000
10000000
00000000
00010000
00000000
01000000
00000000
,
00100000
00000000
00001000
00000000
00010000
00001000
00000100
00000000
,
00000010
00001000
00000100
00000010
,
00000002
00000000
00000100
00001003
,
00000010
00000001
00000100
00000010
,
00010000
00001000
00000000
00010000
,
01000000
10000000
00000000
01100000
,
00100000
10000000
01000000
00000000
00000000
00000000
00100000
00000000
,
00100000
00010000
01000000
00000000
00000000
00000000
01000000
00000000
,
00100000
10000000
00100000
01000000
,
00001000
00000000
00000000
00010000
,
00011000
00000000
00001000
00000000
00010000
00001000
00010000
00000000
,
00001000
00000000
00010000
00000000
00001000
00010000
00001000
00000000
,
00010000
00000100
00000010
00000001
,
00002000
00000000
00000010
00003001
,
00000100
00000010
00000000
00000100
00000000
00000001
00000000
00001000
,
00000000
00000001
00000000
00000100
00000000
00000010
00000000
00010000
,
00001000
00000100
00000000
00010000
00000000
00001000
00000000
01000000
,
00000000
00100000
00000000
10000000
00000000
00010000
01000000
00100000
,
10000000
00000000
10100000
00000000
01010000
00000000
01000000
00010000
,
00100000
00001000
00010000
00000100
,
00020000
00000000
00032000
00000000
,
00023000
00000000
00031000
00000100
,
00001000
00000000
00001100
00000000
00001001
00000000
00001000
00000010
,
00000100
00000001
00000010
00000001
,
00001000
00000100
00000010
00000000
00000100
00000000
00000001
00000000
,
00000100
00010000
01000000
00100000
,
01100000
00000000
00000000
00000000
00100000
10000000
01000000
10000000
,
11000000
00000000
00100000
00010000
,
20000000
00000000
00010000
31000000
,
11000000
00000000
00000000
01010000
,
00100000
00000000
00001000
00000000
00010000
00000000
00000100
00000010
,
00000001
00000100
00001000
00000100
,
00000010
00000001
00000010
00000000
00000010
00000100
00000010
00000000
,
00000001
00000000
00000100
00000010
,
00001000
00000000
00000001
00001000
,
00000100
00000000
00010000
00001000
,
00020000
00000000
00000000
00030000
;

//---------------dance-double - ----------------
#NOTES:
     dance-double:
     :
     Hard:
     7:
     :
00000000
00000000
00000000
00000000
,
00000000
00000000
00000000
00000000
,
00000000
00000000
00000000
00000000
,
00000000
00000000
00000000
00000000
,
00000000
00000000
00000000
00000000
,
00000100
00000000
00000000
00000000
00000010
00000000
00000000
00000100
00000000
00000000
00000001
00000000
00001000
00000000
00000000
00000000
,
00000010
00000000
00000000
00000000
00000100
00000000
00000000
00010000
00000000
00000000
00001000
00000000
00010000
00000000
00001000
00000000
,
00100000
00000000
00000000
00000000
01000000
00000000
00000000
00100000
00000000
00000000
00010000
00000000
10000000
00000000
00000000
00000000
,
00100000
00000000
00000000
00000000
01000000
00000000
00000000
00010000
00000000
00000000
10000000
00000000
01000000
00000000
00000000
00000000
,
10000000
00000000
00000000
00000000
00100000
00000000
00000000
01000000
00000000
00000000
00010000
00000000
00100000
00000000
00000000
00000000
,
00001000
00000000
00000000
00000000
00010000
00000000
00000000
00001000
00000000
00000000
00010000
00000000
00001000
00000000
00000100
00000000
,
00000010
00000000
00000000
00000000
00000001
00000000
00000000
00001000
00000000
00000000
00000100
00000000
00001000
00000000
00000000
00000000
,
00000010
00000000
00000000
00000000
00000100
00000000
00000000
00000010
00000000
00000000
00001000
00000000
00000100
00000000
00000000
00000000
,
00001100
00000000
00000000
00000000
00000100
00000010
00000000
00000100
00000000
00000000
00001000
00000000
00000001
00000000
00001000
00000000
,
00000010
00000100
00000001
00000000
00000000
00001000
00000100
00000000
,
00010000
00000000
00001000
00000000
01000000
00100000
00000000
00100000
00000000
00000000
00000000
01000000
00000000
00000000
00000000
00000000
,
10000000
00000000
01000000
00000000
10000000
00010000
00000000
00000000
00000000
00000000
00100000
00000000
01000000
00000000
00000000
00000000
,
10000000
01100000
00010000
00011000
,
00010000
00000000
00000110
00000000
00000000
00000100
00010000
00000000
,
00001000
00000000
00010000
00001000
00000000
00100000
00000000
00000000
00000000
01000000
10000000
00000000
00100000
00000000
00000000
00000000
,
01100000
00000000
00000000
00000000
,
00010000
00001000
00010000
00001000
00000100
00000010
00000100
00000001
,
00001000
00000000
00001000
00000010
00000000
00000100
00000000
00000020
00000000
00000000
00001000
00000000
00001030
00000000
00000000
00000000
,
00001010
00000000
00000011
00000000
00000101
00000000
00001100
00000100
,
00010000
00000000
00001000
00100000
00000000
00100000
00010000
00000000
00010000
01000000
00000000
00000000
00100000
00000000
10000000
00000000
,
00010000
01000000
01100000
00000000
10000000
01000000
01100000
00000000
,
00100000
00000000
00100000
00010000
00000000
01000000
00000000
00020000
00000000
00000000
00100000
00000000
00130000
00000000
00000000
00000000
,
00001000
00010000
00011000
00000000
00010000
00000100
00001100
00000000
,
00000100
00000000
00000100
00000010
00000000
00000010
00000001
00000000
00000001
00000100
00000000
00000000
00000101
00000000
00000000
00000000
,
00001000
00000000
00000000
00000100
00000010
00000000
00000010
00000000
00000001
00000000
00000000
00000100
00000010
00000000
00000010
00000000
,
00001000
00000000
00000000
00000100
00010000
00000000
00010000
00000000
00001000
00000000
00000000
00010000
00000000
00000000
01000000
00000000
,
00100000
10000000
00100000
00010000
,
10000000
00000000
01000000
00100000
00000000
00100000
00010000
00000000
00010000
10000000
00000000
10000000
00100000
00000000
01000000
00000000
,
00010000
00000000
00000000
00100000
00001000
00000000
00001000
00000000
00010000
00000000
00000000
00000010
00001000
00000000
00001000
00000000
,
00000100
00000000
00000000
00000010
00000001
00000000
00000001
00000000
00000100
00000000
00000000
00000010
00000000
00000000
00001000
00000000
,
00000100
00001000
00000010
00000001
,
00000200
00000000
00000320
00000000
00002030
00000100
00003100
00000000
,
00020000
00130000
02000000
13000000
20000000
30100000
00200000
01300000
,
00010000
00000000
00000000
10000000
01000000
00000000
01000000
00000000
10000000
00000000
00000000
00100000
00000000
00000000
00010000
00000000
,
01000000
00000000
00000000
00100000
00000000
00000000
10000000
00000000
00010000
00000000
00000000
00100000
00000000
00000000
00001000
00000000
,
00011000
00000000
00000000
00000000
,
00020000
00031000
00002000
00003100
00000200
00000310
00000020
00001030
,
00000001
00000000
00000000
00001000
00000100
00000000
00000100
00000000
00000010
00000000
00000000
00001000
00000000
00000000
00000001
00000000
,
00002001
00000000
00003100
00000000
,
00000001
00000100
00010000
00100000
,
01000000
00000000
00000000
10000000
00000000
00000000
00100000
00000000
00000000
00000000
00000000
00000000
01010000
00000000
00000000
00000000
,
00100000
00000000
01000000
00000000
10000000
00000000
01000000
10000000
,
00200000
00000000
00000000
00300000
;
