#TITLE:Breathing More;
#ARTIST:Larissa Lam;
#BANNER:Breathing More.png;
#BACKGROUND:Breathing More-bg.png;
#CDTITLE:./CDTITLES/DanceDanceRevolution UNIVERSE2.png;
#MUSIC:Breathing More.ogg;
#SAMPLESTART:62.286;
#SAMPLELENGTH:15;
#BPMS:0=140;

//---------------dance-single - ----------------
#NOTES:
     dance-single:
     :
     Beginner:
     1:
     :
0000
0000
0000
0000
,
0000
0000
0000
0000
,
0000
0000
0000
0000
,
0000
0000
0000
0000
,
0000
0000
0000
0000
,
1001
0000
0100
0000
,
1000
0000
0001
0000
,
0010
0000
0100
0000
,
0001
0000
1000
0000
,
1001
0000
0010
0000
,
1000
0000
0001
0000
,
0100
0000
0010
0000
,
1001
0000
0000
0000
,
0001
0000
0100
0000
,
1000
0000
0001
0000
,
0100
0000
0010
0000
,
0001
0000
1000
0000
,
1001
0000
0100
0000
,
0010
0000
0100
0000
,
0010
0000
1000
0000
,
0001
0000
1000
0000
,
0001
0000
1000
0000
,
0010
0000
1000
0000
,
0001
0000
0100
0000
,
0001
0000
1000
0000
,
0100
0000
1000
0000
,
0010
0000
0001
0000
,
1000
0000
0100
0000
,
0001
0000
1000
0000
,
0001
0000
0100
0000
,
0100
0000
1000
0000
,
0001
0000
0001
0000
,
0100
0000
1000
0000
,
0001
0000
0010
0000
,
1000
0000
0010
0000
,
0001
0000
0010
0000
,
1000
0000
0001
0000
,
1001
0000
0010
0000
,
0100
0000
0010
0000
,
0001
0000
1000
0000
,
0010
0000
0100
0000
,
1001
0000
0100
0000
,
0001
0000
1000
0000
,
0100
0000
0001
0000
,
0010
0000
0100
0000
,
1001
0000
0010
0000
,
1000
0000
0001
0000
,
1001
0000
0100
0000
,
0001
0000
1000
0000
,
0100
0000
0110
0000
,
0001
0000
0100
0000
,
1000
0000
0001
0000
,
1000
0000
0001
0000
,
1001
0000
0000
0000
;

//---------------dance-single - ----------------
#NOTES:
     dance-single:
     :
     Easy:
     3:
     :
0000
0000
0000
0000
,
0000
0000
0000
0000
,
0000
0000
0000
0000
,
0000
0000
0000
0000
,
0000
0000
0000
0000
,
1001
0000
0100
0000
,
1000
0010
0001
0000
,
0010
0000
0100
0000
,
0001
0000
1000
0000
,
1001
0000
0010
0000
,
1000
0100
0001
0000
,
0100
0000
0010
0000
,
2002
0000
0000
3003
,
0001
0000
0100
0000
,
1000
0100
0001
0000
,
0100
0000
0010
0000
,
0001
0010
1000
0000
,
1001
0000
0100
0000
,
0010
0001
0100
0000
,
0010
0000
1000
0000
,
0002
0000
2000
3003
,
0001
0100
1000
0100
,
0010
0000
1000
0000
,
0001
0010
0100
1000
,
0001
0000
1000
0000
,
0200
0000
1300
0000
,
0020
0000
0031
0000
,
1000
0000
0100
0000
,
0001
0010
1000
0100
,
0001
1000
0100
0010
,
0100
0000
1000
0000
,
0001
0100
0001
0010
,
0100
0000
1000
0000
,
0002
0000
0013
0000
,
2000
0000
3010
0000
,
0001
0100
0010
0000
,
1000
0000
0001
0000
,
1001
0000
0010
0000
,
0100
0001
0010
0000
,
0001
0000
1000
0000
,
0010
0000
0100
0000
,
1001
0000
0100
0000
,
0001
0100
1000
0000
,
0100
0000
0001
0000
,
0010
0000
0100
0000
,
1001
0100
0010
0001
,
1000
0100
0001
0000
,
1001
1000
0100
0010
,
0001
0100
1000
0000
,
0100
0010
0110
0000
,
0001
0000
0100
0000
,
1000
0100
0001
0010
,
1000
0010
0001
0100
,
1001
0000
0000
0000
;

//---------------dance-single - ----------------
#NOTES:
     dance-single:
     :
     Medium:
     5:
     :
0000
0000
0000
0000
,
0000
0000
0000
0000
,
0000
0000
0000
0000
,
0000
0000
0000
0000
,
0000
0000
0000
0000
,
1100
0001
0010
0100
,
1000
0010
0001
0010
,
2000
0000
3001
0100
,
0002
0000
1003
0100
,
1100
0010
0001
1000
,
0010
0100
1000
0100
,
0001
1000
0010
0100
,
0220
0000
0000
0330
,
1010
0100
0001
0010
,
0001
1000
0001
0100
,
0011
1000
0100
0010
,
0001
0100
1000
0100
,
0001
2000
0000
0002
0000
0000
3003
0000
,
0001
0100
1000
0010
,
0001
1000
0100
0001
,
0010
2000
0002
3003
,
1001
1000
1010
0010
,
0200
1000
0010
0301
,
0100
0001
0010
1000
,
0020
0001
0100
1030
,
0100
1100
0010
0001
,
0100
0101
0010
1000
,
0002
0100
0010
1003
,
0200
0001
0000
0310
,
0110
0000
0010
0000
0010
0001
1000
0000
,
0001
0000
1000
0000
0010
0100
1000
0000
,
0100
0000
1000
0000
0100
0001
0010
0000
,
0001
0000
1001
0000
0001
0010
0000
0200
,
0000
0000
1300
0001
0000
0010
0000
0200
,
0000
0000
1300
0001
0000
1000
0000
0010
,
0000
1000
0100
0000
0010
0000
0001
0000
,
1000
0100
0010
0001
,
1001
0010
0100
1000
,
0001
0010
0100
1000
,
0002
0103
2000
3010
,
0100
0001
1000
0100
,
1001
0100
0010
0001
,
0100
0010
1000
0100
,
0010
0100
1000
0001
,
0100
0001
1000
0100
,
0110
0001
1000
0100
,
0001
0010
1000
0100
,
0110
0001
1000
0010
,
1000
0001
1000
0100
,
1100
0001
0010
0000
,
0001
0010
0100
1000
,
0010
0001
0100
1000
,
0100
0001
0010
0100
,
1001
0000
0000
0000
;

//---------------dance-single - ----------------
#NOTES:
     dance-single:
     :
     Hard:
     7:
     :
0000
0000
0000
0000
,
0000
0000
0000
0000
,
0000
0000
0000
0000
,
0000
0000
0000
0000
,
0000
0000
0000
0010
1000
0100
0000
1000
,
0000
0010
0000
0001
0000
0010
0000
1000
,
0000
0100
0000
0001
0000
0100
0000
1000
,
0001
0100
1000
0100
,
0010
0000
1000
0100
1000
0010
0000
1000
,
0000
0001
0000
0100
0000
0010
0000
1000
,
0000
0100
0000
0010
0000
0001
0000
0100
,
0000
0010
0000
1000
0000
0001
0000
0100
,
0020
0000
0000
0000
0000
0000
0030
0100
,
0000
0001
0000
1000
0000
0100
0000
0010
,
0000
0001
0000
1000
0000
0010
0001
0010
,
0100
0010
0000
1000
0000
0100
0000
0001
,
0000
0100
0000
1000
0000
0001
0010
0001
,
0100
0001
0000
1000
0000
0000
1001
1000
,
0010
0100
0000
0001
0000
0010
0000
0100
,
1000
1100
0001
0011
,
0010
1000
0100
0001
,
0110
0000
0100
0000
0010
0001
0010
0000
,
0001
0000
0001
0000
1000
0010
1000
0000
,
0010
0000
0010
0000
0100
0001
0100
0000
,
0001
0000
0001
0000
1000
0100
1000
0000
,
0010
0101
0010
1000
,
0100
0011
0100
1000
,
0010
0001
0100
0001
,
0010
1000
0100
0001
,
2000
3100
0002
0103
,
2000
3010
0002
0013
,
2000
3001
0020
0031
,
0002
1003
0200
1300
,
2000
3020
0032
0013
,
0020
2030
3200
0310
,
0100
1000
0100
0000
0010
0001
0010
0000
,
0110
0000
0000
0010
0001
0100
0000
0001
,
0010
0100
0010
1000
0010
0100
0010
0001
,
0000
0100
0000
1000
0000
0100
0000
0010
,
0100
0010
0000
1000
0001
1000
0000
0100
,
0010
0100
0000
0010
0001
0010
0000
0100
,
1000
0001
1000
0010
1000
0001
1000
0100
,
0000
0010
0000
0001
0000
0100
0000
0010
,
1000
0010
0000
0010
0100
0010
0000
0010
,
0001
0010
0000
1000
0010
1000
0000
0010
,
1000
0001
1000
0100
1000
0001
1000
0010
,
0000
0100
0000
0001
0000
1000
0001
0010
,
0001
1000
0001
0100
0001
1000
0001
0010
,
0000
0100
0000
1000
0000
0010
0001
0010
,
1000
0001
0000
1000
0000
0000
1001
1000
,
0100
0010
0000
0001
0000
0100
0000
0010
,
1000
0100
0001
0010
,
1000
0001
0100
0010
,
1001
0000
0000
0000
;

//---------------dance-double - ----------------
#NOTES:
     dance-double:
     :
     Beginner:
     1:
     :
00000000
00000000
00000000
00000000
,
00000000
00000000
00000000
00000000
,
00000000
00000000
00000000
00000000
,
00000000
00000000
00000000
00000000
,
00000000
00000000
00000000
00000000
,
10010000
00000000
00000000
00000000
,
10000000
00000000
00000000
00000000
,
01000000
00000000
00000000
00000000
,
00100000
00000000
00000000
00000000
,
01100000
00000000
00000000
00000000
,
00100000
00000000
00000000
00000000
,
00001000
00000000
00000000
00000000
,
00022000
00000000
00033000
00000000
,
00001000
00000000
00000000
00000000
,
00000010
00000000
00000000
00000000
,
00000001
00000000
00000000
00000000
,
00000100
00000000
00000000
00000000
,
00000110
00000000
00000000
00000000
,
00000100
00000000
00000000
00000000
,
00001000
00000000
00000000
00000000
,
00010000
00000000
00000000
00000000
,
00011000
00000000
00000000
00000000
,
00010000
00000000
00000000
00000000
,
00100000
00000000
00000000
00000000
,
01000000
00000000
00000000
00000000
,
10000000
00000000
00000000
00000000
,
01000000
00000000
00000000
00000000
,
00010000
00000000
00000000
00000000
,
00100000
00000000
00000000
00000000
,
01100000
00000000
00000000
00000000
,
00100000
00000000
00000000
00000000
,
00001000
00000000
00000000
00000000
,
00010000
00000000
00000000
00000000
,
00000010
00000000
00000000
00000000
,
00000100
00000000
00000000
00000000
,
00000001
00000000
00000000
00000000
,
00001000
00000000
00000000
00000000
,
00001001
00000000
00000000
00000000
,
00000001
00000000
00000000
00000000
,
00000100
00000000
00000000
00000000
,
00000010
00000000
00000000
00000000
,
00000110
00000000
00000000
00000000
,
00000010
00000000
00000000
00000000
,
00010000
00000000
00000000
00000000
,
00001000
00000000
00000000
00000000
,
00011000
00000000
00000000
00000000
,
00010000
00000000
00000000
00000000
,
00100000
00000000
00000000
00000000
,
10000000
00000000
00000000
00000000
,
10010000
00000000
00000000
00000000
,
10000000
00000000
00000000
00000000
,
01000000
00000000
00000000
00000000
,
00010000
00000000
00000000
00000000
,
00011000
00000000
00000000
00000000
;

//---------------dance-double - ----------------
#NOTES:
     dance-double:
     :
     Easy:
     3:
     :
00000000
00000000
00000000
00000000
,
00000000
00000000
00000000
00000000
,
00000000
00000000
00000000
00000000
,
00000000
00000000
00000000
00000000
,
00000000
00000000
00000000
00000000
,
10010000
00000000
01000000
00000000
,
10000000
00100000
00010000
00000000
,
00100000
00000000
01000000
00000000
,
00001000
00000000
00010000
00000000
,
00011000
00000000
00000010
00000000
,
00001000
00000100
00000001
00000000
,
00000100
00000000
00000010
00000000
,
00002002
00000000
00000000
00003003
,
00000001
00000000
00000100
00000000
,
00001000
00000010
00000001
00000000
,
00000100
00000000
00001000
00000000
,
00010000
00100000
10000000
00000000
,
10010000
00000000
01000000
00000000
,
00100000
00010000
01000000
00000000
,
00100000
00000000
00010000
00000000
,
00002000
00000000
00020000
00033000
,
00001000
00000100
00000001
00000010
,
00000100
00000000
00001000
00000000
,
00000010
00010000
00001000
00100000
,
00010000
00000000
01000000
00000000
,
00200000
00000000
10300000
00000000
,
02000000
00000000
03010000
00000000
,
00001000
00000000
00000100
00000000
,
00000001
00000010
00001000
00000100
,
00000001
00001000
00000100
00000010
,
00000100
00000000
00010000
00000000
,
00001000
01000000
00010000
00100000
,
01000000
00000000
00010000
00000000
,
00002000
00000000
00003010
00000000
,
00020000
00000000
00130000
00000000
,
10000000
01000000
00100000
00000000
,
00001000
00000000
00010000
00000000
,
00011000
00000000
00000010
00000000
,
00000100
00000001
00000010
00000000
,
00001000
00000000
00010000
00000000
,
00000010
00000000
00000100
00000000
,
00001001
00000000
00000100
00000000
,
00001000
00010000
01000000
00000000
,
00100000
00000000
00010000
00000000
,
01000000
00000000
00100000
00000000
,
10010000
01000000
00100000
00010000
,
10000000
01000000
00010000
00000000
,
00011000
00001000
00000100
00000010
,
00001000
00000100
00000001
00000000
,
00000100
00000010
00000110
00000000
,
00000001
00000000
00000100
00000000
,
00001000
00010000
00100000
10000000
,
01000000
00010000
00001000
00000010
,
00001001
00000000
00000000
00000000
;

//---------------dance-double - ----------------
#NOTES:
     dance-double:
     :
     Medium:
     5:
     :
00000000
00000000
00000000
00000000
,
00000000
00000000
00000000
00000000
,
00000000
00000000
00000000
00000000
,
00000000
00000000
00000000
00000000
,
00000000
00000000
00000000
00000000
,
11000000
00010000
00100000
01000000
,
10000000
00100000
00010000
00001000
,
00020000
00000000
00031000
01000000
,
00002000
00000000
00013000
00000100
,
00001100
00000010
00000001
00001000
,
00000010
00000100
00001000
00010000
,
01000000
00100000
00010000
10000000
,
20020000
00000000
00000000
30030000
,
10100000
01000000
00010000
00100000
,
00001000
00010000
00001000
00000010
,
00000011
00001000
00000100
00000010
,
00000001
00000100
00001000
00010000
,
00001000
00020000
00000000
00002000
00000000
00000000
00033000
00000000
,
00010000
01000000
10000000
00100000
,
00010000
00001000
00000100
00000001
,
00000010
00002000
00020000
00033000
,
00011000
00010000
00110000
00100000
,
20000000
00100000
00010000
31000000
,
10000000
01000000
00010000
00001000
,
00020000
00000010
00001000
00030100
,
00001000
00001100
00000010
00000001
,
00000100
00000101
00000010
00001000
,
00000200
00000001
00000010
00001300
,
00020000
00000100
00000000
00031000
,
00011000
00000000
00001000
00000000
00001000
00000100
00000010
00000000
,
00000100
00000000
00000010
00000000
00001000
00000001
00000010
00000000
,
00000001
00000000
00000010
00000000
00001000
00010000
00100000
00000000
,
00010000
00000000
00011000
00000000
00010000
00100000
00000000
02000000
,
00000000
00000000
03001000
00010000
00000000
00000010
00000000
00000200
,
00000000
00000000
00001300
00010000
00000000
00001000
00000000
00100000
,
00000000
00010000
01000000
00000000
00001000
00000000
00010000
00000000
,
00000010
00001000
00000100
00010000
,
00011000
00000010
00000100
00001000
,
00010000
00100000
01000000
00010000
,
20000000
31000000
00020000
00130000
,
01000000
10000000
00010000
01000000
,
00011000
00000100
00000010
00000001
,
00000100
00000010
00010000
00001000
,
00100000
01000000
10000000
00010000
,
01000000
00001000
00010000
01000000
,
01100000
00010000
00001000
00000100
,
00000001
00000010
00001000
00000100
,
00000110
00000001
00001000
00000010
,
00010000
00001000
00100000
01000000
,
11000000
00010000
00100000
00000000
,
00001000
00000010
00000100
00000001
,
00000010
00001000
00000100
00000001
,
00000100
00010000
00001000
00100000
,
10010000
00000000
00000000
00000000
;

//---------------dance-double - ----------------
#NOTES:
     dance-double:
     :
     Hard:
     7:
     :
00000000
00000000
00000000
00000000
,
00000000
00000000
00000000
00000000
,
00000000
00000000
00000000
00000000
,
00000000
00000000
00000000
00000000
,
00000000
00000000
00000000
00100000
10000000
01000000
00000000
10000000
,
00000000
00100000
00000000
00010000
00000000
00100000
00000000
10000000
,
00000000
01000000
00000000
00010000
00000000
00001000
00000000
00000010
,
00000001
00001000
00000100
00000010
,
00000001
00000000
00001000
00000010
00001000
00000100
00000000
00001000
,
00000000
00000010
00000000
00010000
00000000
00001000
00000000
01000000
,
00000000
00010000
00000000
00100000
00000000
00010000
00000000
10000000
,
00000000
01000000
00000000
00100000
00000000
00010000
00000000
01000000
,
00200000
00000000
00000000
00000000
00000000
00000000
00300000
01000000
,
00000000
00100000
00000000
00010000
00000000
00001000
00000000
00000010
,
00000000
00000100
00000000
00001000
00000000
00000001
00000100
00000001
,
00000010
00001000
00000000
00010000
00000000
00100000
00000000
01000000
,
00000000
00010000
00000000
10000000
00000000
01000000
00010000
01000000
,
10000000
00100000
00000000
00010000
00000000
00000000
00011000
00001000
,
00000010
00000100
00000000
00001000
00000000
00000010
00000000
00000100
,
00000001
00000101
00001000
00001010
,
00000001
00000100
00001000
00010000
,
00011000
00000000
00010000
00000000
00100000
10000000
00100000
00000000
,
10000000
00000000
10000000
00000000
00010000
01000000
00010000
00000000
,
01000000
00000000
01000000
00000000
00001000
00010000
00001000
00000000
,
00010000
00000000
00010000
00000000
00000010
00001000
00000010
00000000
,
00001000
00000000
00001000
00000000
00000001
00000100
00000001
00000000
,
00000100
00000000
00000100
00000000
00000010
00000100
00000010
00000000
,
00001000
00000100
00000001
00000010
,
00001000
00010000
01000000
10000000
,
00020000
00130000
02000000
13000000
,
00200000
00310000
00002000
00013000
,
00000200
00001300
00000020
00000130
,
00000002
00000000
00001003
00000100
00000010
00001000
00000000
00000020
,
00000000
00000000
00001030
00010000
00000000
00100000
00000000
20000000
,
00000000
00000000
30100000
00010000
00000000
00001000
00000000
00000200
,
00000000
00000301
00000100
00000000
00000010
00000000
00010000
00000000
,
00001000
00000000
00100000
00010000
01000000
00010000
00000000
10000000
,
01000000
00100000
01000000
00010000
01000000
00100000
01000000
10000000
,
00000000
00100000
00000000
00010000
00000000
00001000
00000000
00000010
,
00000100
00000010
00000000
00000001
00001000
00000001
00000000
00000100
,
00000010
00000100
00000000
00000001
00000010
00000001
00000000
00001000
,
00000010
00000100
00000010
00000001
00000010
00000100
00000010
00001000
,
00000000
00000100
00000000
00010000
00000000
00001000
00000000
00100000
,
00010000
00100000
00000000
00100000
01000000
00100000
00000000
00100000
,
10000000
00100000
00000000
00010000
00100000
00010000
00000000
00100000
,
00001000
00010000
00001000
01000000
00001000
00010000
00001000
00100000
,
00000000
00001000
00000000
00010000
00000000
00000010
00000100
00000001
,
00000100
00000010
00000100
00001000
00000100
00000010
00000100
00000001
,
00000000
00000010
00000000
00001000
00000000
00010000
00100000
10000000
,
01000000
10000000
00000000
00010000
00000000
00000000
10010000
10000000
,
01000000
00100000
00000000
00001000
00000000
00010000
00000000
00000100
,
00001000
00000010
00000001
00000100
,
00001000
00010000
00100000
01000000
,
10010000
00000000
00000000
00000000
;
