#TITLE:Wraith;
#ARTIST:Monolithic;
#BANNER:Wraith.png;
#BACKGROUND:Wraith-bg.png;
#CDTITLE:./CDTITLES/Dance Dance Revolution UNIVERSE.png;
#MUSIC:Wraith.ogg;
#SAMPLESTART:9.184;
#SAMPLELENGTH:15;
#BPMS:0=130;

//---------------dance-single - ----------------
#NOTES:
     dance-single:
     :
     Beginner:
     1:
     :
0000
0000
0000
0000
,
0000
0000
0000
0000
,
0000
0000
0000
0000
,
0000
0000
0000
0000
,
0000
0000
0000
0000
,
0001
0000
0000
0000
,
0001
0000
0000
0000
,
0100
0000
0000
0000
,
0010
0000
0000
0000
,
1000
0000
0000
0000
,
1000
0000
0000
0000
,
0001
0000
0001
0000
,
1001
0000
0000
0000
,
0100
0100
0000
0000
,
0010
0010
0000
0000
,
0100
0100
0000
0000
,
0010
0010
0000
0000
,
1000
1000
0000
0000
,
0001
0001
0000
0000
,
1000
0000
1000
0000
,
1001
0000
0000
0000
,
0100
0000
0000
0001
,
0001
0000
0000
1000
,
1000
0000
0000
0000
,
0000
0000
0000
0000
,
0010
0000
0000
1000
,
1000
0000
0000
0001
,
0001
0000
0000
0000
,
0000
0000
0000
0000
,
0100
0100
0100
0000
,
0000
0000
0000
0010
,
0010
0000
0001
0000
,
0000
0000
1000
0000
,
1000
1000
0000
0000
,
0100
0000
0100
0000
,
0001
0001
0000
0000
,
1000
0000
1000
0000
,
1001
0000
0000
0100
,
0100
0000
0100
0000
,
0001
0000
0000
0000
,
1000
0000
0000
0000
,
0010
0010
0000
0000
,
1000
0000
1000
0000
,
1001
0000
0000
0000
,
0000
0000
0000
0000
,
0001
0000
0000
0000
,
0010
0000
0000
0000
,
1000
0000
0000
0000
,
0100
0000
0000
0100
,
0100
0000
0000
0000
,
1001
0000
0000
0000
,
0001
0000
0000
1000
,
1000
0000
1000
0000
,
0001
0000
0000
0000
,
0100
0000
0000
0010
,
0010
0000
0100
0000
,
0100
0000
1000
0000
,
1001
0000
0000
0000
;

//---------------dance-single - ----------------
#NOTES:
     dance-single:
     :
     Easy:
     3:
     :
0000
0000
0000
0000
,
0000
0000
0000
0000
,
0000
0000
0000
0000
,
0000
0000
0000
0000
,
0000
0000
0000
0000
,
0100
0000
0100
0000
,
0010
0000
0010
0000
,
1000
0000
0001
0000
,
1000
0000
0001
0000
,
0100
0000
0010
0000
,
0100
0000
1000
0000
,
0001
0000
1000
0001
,
1000
0000
0000
0000
,
0001
0100
0001
0000
,
1000
0010
1000
0000
,
0010
0100
0010
0000
,
1000
0100
1000
0000
,
0001
1000
0001
0000
,
0010
0001
0010
0000
,
0002
0003
0200
0300
,
0020
0000
0000
0030
,
1000
0000
0001
0000
,
1000
0000
1000
0000
,
1001
0000
0000
0000
,
0110
0000
0000
0000
,
0001
0000
0100
0000
,
0001
0000
0001
0000
,
0110
0000
0000
0000
,
1001
0000
0100
0010
,
0100
0000
0001
0000
,
0100
0100
0100
0000
,
1000
0000
0100
0000
,
0001
0001
0001
0000
,
1001
0000
0000
0000
,
0010
0000
0100
0000
,
0010
0000
0000
0000
,
1000
0000
0001
0000
,
1000
0100
0000
0001
,
0100
0000
1000
0010
,
1000
0000
0001
0000
,
1000
1000
0100
0000
,
0001
0100
0000
1000
,
0100
0000
0001
0010
,
0002
0000
0000
0003
,
0000
0000
0000
0000
,
0110
0000
1000
0000
,
0001
0000
1000
0000
,
0110
0000
0000
0000
,
1001
0000
0000
0000
,
0110
0000
1000
0000
,
0001
0000
1000
0000
,
0110
0000
0000
0000
,
1001
0000
0000
0000
,
0001
0000
0100
0000
,
0001
0000
0001
0000
,
1000
0000
0010
0000
,
0100
0001
0100
1000
;

//---------------dance-single - ----------------
#NOTES:
     dance-single:
     :
     Medium:
     6:
     :
0000
0000
0000
0000
,
0000
0000
0000
0000
,
0000
0000
0000
0000
,
0000
0000
0000
0000
,
0000
0000
0000
0000
,
1000
0001
0100
0000
0001
0000
0100
0000
,
1000
0010
0100
0100
,
0001
1000
0100
0000
0010
0000
0100
0000
,
0001
0100
1000
1000
,
0010
1000
0100
0000
0010
0000
1000
0000
,
0010
0001
0100
0000
1000
0000
0100
0000
,
0001
0000
1000
0001
0000
1000
0000
0200
,
0000
0000
0000
0300
,
0001
0100
0000
0010
0000
0000
1100
0000
,
1000
0100
0000
0001
0000
0000
0110
0000
,
0100
0001
0000
1000
0000
0000
0011
0000
,
0100
0010
0000
1000
0000
0000
1001
0000
,
0100
1000
0000
0010
0000
0000
0101
0000
,
1000
0001
0000
0100
0000
0010
0000
0100
,
1000
0000
0100
0010
0000
0100
0000
0002
,
0000
1000
1000
1003
,
0110
0000
0000
2000
0000
0000
0100
0000
,
3010
0000
0000
0002
0000
0000
0100
0000
,
0013
0000
0100
0010
0000
0000
0100
0010
,
0000
0000
1000
0010
0000
0000
0000
0000
,
1001
0000
0000
0020
0000
0000
0100
0000
,
1030
0000
0000
0200
0000
0000
0001
0000
,
0310
0000
0000
0000
0001
0000
0000
0010
,
0000
0000
0001
0100
0000
0001
1000
0000
,
0100
0010
0001
0100
,
0001
0010
0000
0001
1000
0000
0100
0000
,
0001
0100
1000
0010
,
0100
0001
0000
0100
1000
0000
0100
0000
,
0010
1000
0001
0000
0000
0100
0010
0000
,
1000
0001
0100
0000
0000
0001
0010
0000
,
0001
1000
0100
0000
0000
1000
0010
0000
,
0100
0001
1000
0000
0000
0100
0010
0000
,
0001
0010
0100
0000
0000
1000
0100
0010
,
0000
0000
1000
0000
0010
0100
0010
0000
,
1000
0000
0010
0100
0010
0000
0000
0000
,
0100
0000
0001
1000
0001
0000
0100
0000
,
0001
1000
0001
0000
0000
0100
0010
0100
,
0000
0000
0001
1000
0010
0000
0100
0000
,
1001
0000
0000
0000
,
0010
0100
0000
0010
1000
0000
0100
0000
,
0110
0000
0000
2000
0000
0000
0100
0000
,
3010
0000
0000
0002
0000
0000
0100
0000
,
0013
0000
0100
0010
0000
0000
0100
0010
,
0000
0000
0100
1000
0000
0000
0000
0000
,
1001
0000
0000
0020
0000
0000
1000
0000
,
0130
0000
0000
0200
0000
0000
0001
0000
,
0310
0000
0000
0000
0100
0000
0000
0010
,
0000
0000
0100
0010
0000
0100
1000
0000
,
0100
0000
0000
0011
0000
0000
0101
0000
,
0001
0000
0010
0000
0100
0000
1000
0010
,
0100
0000
0010
0100
0000
0001
0100
0000
,
0010
1000
0010
0000
0100
0001
0100
0000
,
1001
0000
0000
0000
;

//---------------dance-single - ----------------
#NOTES:
     dance-single:
     :
     Hard:
     7:
     :
0000
0000
0000
0000
,
0000
0000
0000
0000
,
0000
0000
0000
0000
,
0000
0000
0000
0000
,
0000
0000
0000
0000
,
0010
1000
0100
0002
0000
1003
0010
0000
,
0100
1000
0010
0200
0000
0301
0100
0000
,
0010
1000
0100
0002
0000
1003
0010
0000
,
0100
0001
0100
2000
0000
3010
0001
0000
,
1000
0100
0001
0200
0000
0310
0100
0000
,
1000
0010
0100
0002
0000
0103
0010
0100
,
1000
0000
0001
0200
0000
0010
0000
0001
,
0000
0010
0000
0301
0000
1000
0101
0000
,
1100
0000
0010
0000
0100
0000
1000
0100
0000
0000
0000
0000
0001
0000
0100
0000
,
1001
0000
0100
0000
0001
0000
0100
0010
0000
0000
0000
0000
0010
0000
1000
0000
,
0110
1000
0100
1000
0000
0100
0010
0000
,
0101
1000
0010
1000
0000
0100
1000
0000
,
1001
0000
0100
0000
0001
0000
0100
0010
0000
0000
1000
0000
0010
0000
0000
0000
,
0110
0000
0001
0000
0100
0000
0010
0100
0000
0000
1000
0000
0100
0000
0010
0000
,
1000
0002
0000
0100
0000
0010
0000
0103
,
0000
0000
0000
1000
0001
1000
0001
1000
,
0201
0000
0000
0310
0000
0000
0110
0000
,
1002
0000
0000
0103
0000
0000
1100
0000
,
1000
0100
0100
1000
0001
0010
0010
0001
,
0100
1000
1000
0100
0010
0001
0001
0010
,
1020
0000
0000
0130
0000
0000
1001
0000
,
0201
0000
0000
0310
0000
0000
0110
0000
,
0010
0100
0100
0010
1000
0001
0001
1000
,
0100
0010
0010
0100
0001
1000
1000
0001
,
0200
1000
1000
1300
,
0001
0100
0101
0100
0001
0000
1000
0000
,
0020
0100
0100
0130
,
0010
1000
1010
1000
0010
0000
0100
0000
,
1000
0100
0100
0020
0000
0031
0010
0000
,
0100
0010
1000
0200
0000
0310
0001
0000
,
0100
0010
0010
0002
0000
0013
1000
0000
,
0100
1000
0010
0200
0000
0301
1000
0000
,
0001
1000
0110
0000
0000
1000
0010
0001
,
0000
0010
1000
0100
1000
0100
0010
0001
,
0000
1000
0001
0001
1000
0000
0000
0100
,
0000
0001
0100
0010
1000
0010
1000
0100
,
1000
0100
0010
0000
0000
0001
0100
1000
,
0000
0100
0001
0010
0100
0010
0100
1000
,
0200
1000
0001
1000
,
0302
0000
0100
0103
,
1020
0000
0000
0130
0000
0000
0110
0000
,
2001
0000
0000
3010
0000
0000
0101
0000
,
1000
0010
0010
1000
0100
0001
0001
0100
,
0010
1000
1000
0010
0001
0100
0100
0001
,
0102
0000
0000
1003
0000
0000
1010
0000
,
0210
0000
0000
0301
0000
0000
1100
0000
,
0001
1000
1000
0001
0100
0010
0010
0100
,
1000
0001
0001
1000
0010
0100
0100
0010
,
2010
0000
3001
0200
0000
0301
2000
0000
,
3001
0010
0100
0000
1000
0100
0100
1000
,
0020
0000
1030
0002
0000
1003
0200
0000
,
1300
0010
0110
0010
1000
0100
0010
0100
,
0110
0000
0000
0000
;

//---------------dance-double - ----------------
#NOTES:
     dance-double:
     :
     Beginner:
     1:
     :
00000000
00000000
00000000
00000000
,
00000000
00000000
00000000
00000000
,
00000000
00000000
00000000
00000000
,
00000000
00000000
00000000
00000000
,
00000000
00000000
00000000
00000000
,
00000100
00000000
00000000
00000000
,
00001000
00000000
00000000
00000000
,
00010000
00000000
00000000
00000000
,
01000000
00000000
00000000
00000000
,
00001000
00000000
00000000
00000000
,
00010000
00000000
00000000
00000000
,
01000000
00000000
01000000
00000000
,
00010000
00000000
00000000
00000000
,
00001000
00001000
00000000
00000000
,
00010000
00010000
00000000
00000000
,
00001000
00001000
00000000
00000000
,
00000100
00000100
00000000
00000000
,
00000001
00000001
00000000
00000000
,
00000100
00000100
00000000
00000000
,
00001000
00000000
00010000
00000000
,
00011000
00000000
00000000
00000000
,
01000000
00000000
00000000
10000000
,
10000000
00000000
00000000
00010000
,
00010000
00000000
00000000
00000000
,
00000000
00000000
00000000
00000000
,
00011000
00000000
00000000
00010000
,
00010000
00000000
00000000
00001000
,
00001000
00000000
00000000
00000000
,
00000000
00000000
00000000
00000000
,
00000001
00000001
00000001
00000000
,
00000000
00000000
00000000
00001000
,
00001000
00000000
00010000
00000000
,
00000000
00000000
01000000
00000000
,
10000000
10000000
00000000
00000000
,
01000000
00000000
01000000
00000000
,
00010000
00010000
00000000
00000000
,
00001000
00000000
00001000
00000000
,
00011000
00000000
00000000
00000100
,
00000100
00000000
00000100
00000000
,
00000001
00000000
00000000
00000000
,
00001000
00000000
00000000
00000000
,
00010000
00010000
00000000
00000000
,
10000000
00000000
10000000
00000000
,
10010000
00000000
00000000
00000000
,
00000000
00000000
00000000
00000000
,
00011000
00000000
00000000
00000000
,
00010000
00000000
00000000
00000000
,
00001000
00000000
00000000
00000000
,
00000100
00000000
00000000
00000100
,
00000100
00000000
00000000
00000000
,
00001001
00000000
00000000
00000000
,
00000001
00000000
00000000
00000100
,
00000100
00000000
00000100
00000000
,
00001000
00000000
00000000
00000000
,
00010000
00000000
00000000
01000000
,
01000000
00000000
01000000
00000000
,
10000000
00000000
10000000
00000000
,
10010000
00000000
00000000
00000000
;

//---------------dance-double - ----------------
#NOTES:
     dance-double:
     :
     Easy:
     3:
     :
00000000
00000000
00000000
00000000
,
00000000
00000000
00000000
00000000
,
00000000
00000000
00000000
00000000
,
00000000
00000000
00000000
00000000
,
00000000
00000000
00000000
00000000
,
00000100
00000000
00000010
00000000
,
00000001
00000000
00000100
00000000
,
00001000
00000000
00010000
00000000
,
00100000
00000000
10000000
00000000
,
00100000
00000000
01000000
00000000
,
00010000
00000000
10000000
00000000
,
01000000
00010000
01000000
00010000
,
00001000
00000000
00000000
00000000
,
00000001
00001000
00000001
00000100
,
00001000
00010000
01000000
00000000
,
10000000
00100000
01000000
00000000
,
10000000
00100000
01000000
00000000
,
10000000
00010000
10000000
01000000
,
00010000
00001000
00000100
00000000
,
00000001
00000010
00000001
00000010
,
00000100
00000000
00000000
00000000
,
00011000
00000000
00010000
01000000
,
00010000
00000000
00001000
00000100
,
00002000
00003000
00020000
00030000
,
02000000
00000000
00000000
03000000
,
10000000
00000000
00010000
00100000
,
00010000
00000000
10000000
00100000
,
20000000
30000000
02000000
03000000
,
00010000
00001000
00010000
00001000
,
00000100
00000000
00001001
00000000
,
00000100
00000000
00001001
00000000
,
00001000
00000000
00011000
00000000
,
00002000
00000000
00000000
00003000
,
00010000
01000000
00010000
00000000
,
01000000
10000000
01000000
00000000
,
10000000
00100000
10000000
00000000
,
00100000
00010000
00100000
00000000
,
00001000
00010000
00000000
00001000
,
00000100
00000000
00000001
00000000
,
00000010
00000000
00000001
00000000
,
00000100
00000000
00001000
00000000
,
00010000
01000000
00000000
00010000
,
00001000
00000000
00010000
00000000
,
02000000
00000000
00000000
03000000
,
00000000
00000000
00011000
00011000
,
00010000
00000000
00001000
00000100
,
00001000
00000000
00010000
01000000
,
00020000
00030000
02000000
03000000
,
20000000
30000000
00200000
00300000
,
10000000
00000000
01000000
00010000
,
01000000
00000000
00001000
00010000
,
00002000
00003000
00000200
00000300
,
00000002
00000003
00000100
00000100
,
00001000
00000000
00010000
00000000
,
01000000
00000000
10000000
00000000
,
01000000
00010000
01000000
00010000
,
00001000
00010000
00001000
00000100
;

//---------------dance-double - ----------------
#NOTES:
     dance-double:
     :
     Medium:
     6:
     :
00000000
00000000
00000000
00000000
,
00000000
00000000
00000000
00000000
,
00000000
00000000
00000000
00000000
,
00000000
00000000
00000000
00000000
,
00000000
00000000
00000000
00000000
,
10000000
00100000
10000000
01000000
,
00010000
00001000
00000100
00000001
,
00000010
00001000
00000010
00000100
,
00010000
00001000
00000100
00000001
,
00001000
00000100
00010000
00001000
,
00010000
01000000
10000000
00100000
,
10000000
00000000
01000000
00100000
00000000
00010000
00000000
00101000
,
00000000
00000000
00000000
00000000
,
00010000
00001000
00000000
00000100
00001000
00000000
00010000
00000000
,
00001000
00010000
00000000
00100000
00010000
00000000
00001000
00000000
,
00000100
00000010
00000000
00001000
00000001
00000000
00000100
00000000
,
00001000
00010000
00000000
00100000
00010000
00000000
00001000
00000000
,
00010000
00001000
00000000
00000100
00001000
00000000
00010000
00000000
,
01000000
00100000
00000000
00010000
10000000
00000000
10000000
01000000
,
00010000
01000000
00000000
00010000
00000000
00001000
00000000
00000101
,
00000000
00000000
00000000
00000000
,
00001100
00001000
00000100
00001000
,
00011000
00010000
00100000
00010000
,
11000000
00000000
10000000
01000000
00100000
00000000
01010000
00000000
,
11000000
00000000
10000000
01000000
00100000
00000000
01010000
00000000
,
00011000
00001000
00000100
00001000
,
00000110
00000010
00001000
00000010
,
00001001
00000000
00000010
00001000
00000100
00000000
00000110
00000000
,
00001001
00000000
00000010
00001000
00000100
00000001
00000100
00000000
,
00000110
00001000
00000002
00000000
,
00000103
00001000
00020000
00000000
,
01030000
10000000
00200000
00300000
,
00010000
00001000
00010000
00000000
02000000
00000000
03000000
00000000
,
10000000
01000000
10000000
01000000
,
00010000
00001000
00000100
00000001
,
00000010
00001000
00000010
00001000
,
00010000
01000000
10000000
00100000
,
10000000
01000000
00010000
00000000
00000000
00001000
00010000
01000000
,
00000000
00010000
00001000
00000100
,
00000011
00000000
00000001
00000100
00001000
00000000
00000000
00000000
,
00011000
00000000
00010000
01000000
10000000
00000000
00100000
00000000
,
00010000
00001000
00010000
00000000
00000000
00001000
00000100
00000001
,
00000000
00000001
00000010
00001000
,
00011000
00000000
00000000
00000000
,
00010000
00000000
01000000
01000000
,
01010000
00010000
01000000
00010000
,
00011000
00001000
00000010
00001000
,
00000101
00000000
00000001
00000010
00000100
00000000
00001100
00000000
,
00000101
00000000
00000001
00000010
00000100
00000000
00001100
00000000
,
00011000
00010000
01000000
00010000
,
01100000
00100000
10000000
00100000
,
10010000
00000000
01000000
00010000
00000000
00000000
00001000
00010000
,
00000000
00000000
00001000
00000100
00000000
00000000
00000110
00000000
,
00000001
00000100
00001000
00000100
,
00000001
00000100
00001000
00010000
,
00001000
00000100
00001000
00010000
,
01000000
10000000
00100000
00000000
01000000
10000000
00100000
00000000
,
10010000
00000000
00000000
00000000
;

//---------------dance-double - ----------------
#NOTES:
     dance-double:
     :
     Hard:
     7:
     :
00000000
00000000
00000000
00000000
,
00000000
00000000
00000000
00000000
,
00000000
00000000
00000000
00000000
,
00000000
00000000
00000000
00000000
,
00000000
00000000
00000000
00000000
,
00010000
00001000
00001000
00010000
00000100
00000010
00001000
00000010
,
00000001
00000000
00000100
00000020
00000000
00001030
00000002
00000000
,
00001003
00000010
00000010
00001000
00000100
00010000
00001000
00010000
,
01000000
00000000
10000000
02000000
00000000
13000000
00200000
00000000
,
00310000
00001000
00001000
00010000
01000000
00010000
00001000
00010000
,
00010100
00000000
00001000
00000020
00000000
00001030
00000002
00000000
,
00001003
00000000
00000010
00010000
00000000
00101000
00000000
01010000
,
00000000
00000000
00000000
00000000
,
01000000
10000000
00100000
10000000
01000000
10000000
00100000
00010000
,
00001000
00000010
00000001
00000100
00000001
00000010
00000001
00000000
,
00000110
00000000
00001000
00000002
00000000
00001003
00000100
00000000
,
00001001
00000000
00000001
00002000
00000000
00003001
00000100
00000000
,
00000100
00000001
00000010
00000001
00000100
00000001
00000010
00001000
,
00010000
00100000
10000000
01000000
10000000
00100000
10000000
01000000
,
00100000
00010000
00000000
00011000
00000000
00010100
00000000
00001010
,
00000000
00000000
00000000
00000000
,
00010000
00000100
00001000
00000100
00010000
00000010
00001000
00000010
,
00010000
00000100
00001000
00000100
00010000
00000100
00001000
00000100
,
00000010
00000000
00000000
00000002
00000000
00000000
00000103
00000200
,
00000000
00000000
00001300
00002000
00000000
00000000
00003000
00000000
,
00001000
00100000
00010000
00100000
00001000
01000000
00010000
01000000
,
00001000
00100000
00010000
00100000
00001000
01000000
00010000
01000000
,
10000000
00000000
00000000
00000000
00020000
00000000
00000000
01030000
,
00000000
00000000
00100000
10000000
00000000
00010000
01000000
01000000
,
00010000
00000000
00011000
00000000
,
00000000
00000110
00000000
00000001
00000100
00001000
00010000
00010000
,
00001000
00000000
01001000
00000000
,
00000000
01100000
00000000
00000000
10100000
00000000
00000000
00000000
,
10000000
01000000
10000000
00010000
01000000
00100000
01000000
00010000
,
00100000
00001000
00100000
00010000
01000000
00001000
01000000
00010000
,
00100000
00001000
00010000
00000100
00000010
00000100
00001000
00000001
,
00000010
00000001
00001000
00000001
00000100
00000001
00001000
00000100
,
00010000
00000100
00001000
00000000
00000000
00010000
00000100
00001000
,
00000000
00010000
01000000
10000000
00010000
01000000
10000000
01000000
,
00000000
00010000
00100000
01000000
00100000
00000000
00000000
00100000
,
00000000
00010000
01000000
00010000
00100000
00001000
00010000
00001000
,
00000100
00000010
00000001
00000000
00000000
00000100
00000010
00000001
,
00000000
00010000
00001000
00000100
00000010
00010000
00000100
00001000
,
00000200
00000000
00000000
00000300
,
00000000
00000000
00000000
00000000
,
00010000
00000100
00001000
00000100
00010000
00000010
00001000
00000010
,
00010000
00000100
00001000
00000100
00010000
00000100
00001000
00000100
,
00000010
00000000
00000000
00000002
00000000
00000000
00000103
00000200
,
00000000
00000000
00001300
00002000
00000000
00000000
00003000
00000000
,
00001000
00100000
00010000
00100000
00001000
01000000
00010000
01000000
,
00001000
00100000
00010000
00100000
00001000
01000000
00010000
01000000
,
10000000
00000000
00000000
00000000
00020000
00000000
00000000
01030000
,
00000000
00000000
00100000
10000000
00000000
00010000
01000000
01000000
,
00010000
00000000
00000000
00011000
00000000
00000000
00010100
00000000
,
00001000
00000100
00000010
00000001
00000010
00000100
00001000
00010000
,
00100000
00000000
00000000
11000000
00000000
00000000
01010000
00000000
,
00010000
00000000
00100000
00000000
01000000
00000000
10000000
00000000
01000000
00000000
00100000
00000000
00010000
00100000
01000000
00000000
;
