#TITLE:Tsugaru (OR-IF-IS Mix);
#ARTIST:RevenG;
#BANNER:Tsugaru (OR-IF-IS Mix).png;
#BACKGROUND:Tsugaru (OR-IF-IS Mix)-bg.png;
#MUSIC:Tsugaru (OR-IF-IS Mix).ogg;
#SAMPLESTART:25.496;
#SAMPLELENGTH:15;
#BPMS:0=170;

//---------------dance-single - ----------------
#NOTES:
     dance-single:
     :
     Beginner:
     1:
     :
0000
0000
0000
0000
,
0000
0000
0000
0000
,
0000
0000
0000
0000
,
0000
0000
0000
0000
,
0000
0000
0000
0000
,
0001
0000
0001
0000
,
1000
0000
1000
0000
,
0001
0000
0001
0000
,
1000
0000
1000
0000
,
1001
0000
0000
0000
,
0100
0000
0000
0000
,
0010
0000
0000
0000
,
0100
0000
0000
0000
,
1001
0000
0000
0000
,
0100
0000
0000
0000
,
0110
0000
0000
0000
,
0000
1000
0000
0000
,
0000
0001
0000
0000
,
0000
1000
0000
0000
,
0110
0000
0000
0000
,
0100
0000
0100
0000
,
0100
0000
0000
0000
,
0010
0000
0010
0000
,
0010
0000
0000
0000
,
1000
0000
1000
0000
,
1000
0000
0000
0000
,
0001
0000
0001
0000
,
1001
0000
0000
0000
,
1001
0000
0000
0000
,
0010
0000
0000
0000
,
0100
0000
0000
0000
,
1000
0000
0001
0000
,
1000
0000
0000
0000
,
0100
0000
0010
0000
,
0100
0000
0000
0000
,
0001
0000
1000
0000
,
0001
0000
0000
0000
,
0010
0000
0100
0000
,
0010
0000
0000
0000
,
1001
0000
0000
0000
,
0100
0000
0000
0000
,
1001
0000
0000
0000
,
0010
0000
0000
0000
,
1000
0000
0000
0000
,
0100
0000
0000
0000
,
0010
0000
0000
0000
,
0001
0000
0000
0000
,
1000
0000
0000
0000
,
0100
0000
0000
0000
,
0010
0000
0000
0000
,
0001
0000
0000
0000
,
1000
0000
0001
0000
,
1000
0000
0001
0000
,
0100
0000
0100
0000
,
0100
0000
0000
0000
,
0001
0000
1000
0000
,
0001
0000
1000
0000
,
0100
0000
0100
0000
,
0100
0000
0000
0000
,
1001
0000
0000
0000
,
0010
0000
0000
0000
,
1001
0000
0000
0000
,
0100
0000
0000
0000
,
1000
0000
0000
0000
,
0001
0000
0000
0000
,
1000
0000
0000
0000
,
0200
0000
0000
0300
;

//---------------dance-single - ----------------
#NOTES:
     dance-single:
     :
     Easy:
     4:
     :
0000
0000
0000
0000
,
0000
0000
0000
0000
,
0000
0000
0000
0000
,
0000
0000
0000
0000
,
0000
0000
0000
0000
,
0001
0000
0100
0000
,
0001
0000
0100
0000
,
0010
0000
1000
0000
,
0010
0000
1000
0000
,
1001
0000
0000
0001
,
1000
0000
0000
1000
,
0100
0000
0000
0100
,
0010
0000
0000
0001
,
1000
0000
0000
1000
,
0100
0000
0000
0100
,
0010
0000
0000
0000
,
1001
0000
0000
0000
,
0110
0000
0000
0000
,
0000
0100
0100
0100
,
0001
1000
0001
1000
,
0001
1000
0010
0000
,
0100
0010
0100
0010
,
0100
0010
1000
0000
,
0001
1000
0001
1000
,
0001
1000
0010
0000
,
0100
0010
0100
0010
,
0100
0010
1000
0000
,
1001
0000
0000
0000
,
0110
0000
0000
0000
,
0000
0010
0000
0100
,
0000
0010
0000
1000
,
1000
0001
0000
0100
,
0100
0001
0000
0001
,
0001
1000
0000
0100
,
0100
1000
0000
0001
,
1000
0001
0000
0100
,
0001
0100
0000
1000
,
0001
1000
0000
0100
,
1000
0100
0000
0001
,
1000
0001
0010
0000
,
1000
0010
1000
0000
,
0001
0001
0100
0100
,
0010
0010
1000
0000
,
0001
0000
0100
0000
,
0010
0000
0100
0000
,
0001
0000
1000
0000
,
0110
0000
0000
0000
,
1000
0000
0100
0000
,
0010
0000
0100
0000
,
1000
0000
0001
0000
,
0110
0000
0000
0000
,
0001
0001
1000
1000
,
0000
0100
0000
0010
,
0001
0001
1000
1000
,
0000
0100
0000
0010
,
0100
0100
1000
1000
,
0000
0100
0000
0010
,
0001
0001
1000
1000
,
0000
0001
0100
0001
,
1000
0100
0000
0100
,
0000
0010
0000
0010
,
0001
0100
0000
0100
,
0000
0010
0000
0010
,
1000
0100
0001
0100
,
1000
0100
0001
0100
,
1000
0100
1000
0100
,
1000
0001
0001
1001
;

//---------------dance-single - ----------------
#NOTES:
     dance-single:
     :
     Medium:
     6:
     :
0000
0000
0000
0000
,
0000
0000
0000
0000
,
0000
0000
0000
0000
,
0000
0000
0000
0000
,
0000
0000
0000
0000
,
1000
0100
0010
0001
,
0100
1000
0100
0001
,
0001
0010
0100
1000
,
0010
0001
0010
1000
,
1000
1010
0001
0011
,
0100
0010
0001
0100
,
1000
1100
0001
0101
,
0100
0010
1000
0100
,
0010
0110
0100
1001
,
0001
0100
1000
0100
,
0000
0000
0100
0000
0010
0000
0001
0100
,
0000
0000
1000
0000
0100
0000
0010
0100
,
0000
0000
0001
0000
0100
0000
1000
0001
,
0000
0100
0100
0010
,
1000
0010
0100
0001
,
0010
0000
1000
0010
0001
0000
0000
0000
,
0010
0001
0100
1000
,
0100
0000
0001
0010
0100
0000
0000
0000
,
0001
0100
0010
1000
,
0100
0000
0001
0100
1000
0000
0000
0000
,
0100
1000
0010
0001
,
0010
0000
1000
0100
0010
0000
0000
0000
,
0100
0000
0001
0100
1000
0000
0000
0000
,
0001
0000
1000
0010
0100
0000
0000
0000
,
0000
0000
0001
0010
1000
0000
0100
0000
,
0000
0000
0001
0100
0010
0000
1000
0000
,
0001
1001
0100
1001
,
2000
0100
0100
3100
,
0010
0110
1000
0110
,
0020
0001
0001
0031
,
1000
1100
0010
1100
,
0200
1000
1000
1300
,
0010
0011
0100
0011
,
0200
0010
0010
0310
,
2000
0000
0001
0000
3001
0000
0010
0100
,
0002
0000
1000
0000
1003
0000
0010
0100
,
2000
0000
0010
0000
3010
0000
1000
0001
,
0200
0000
0001
0000
0301
0000
1000
0010
,
0200
0000
0320
0000
,
2030
0000
3200
0000
,
0302
0000
0203
0000
,
2300
0000
0000
0000
,
3020
0001
0032
0010
,
0023
1000
2030
0100
,
3200
0010
0320
0001
,
0031
0000
0100
1000
0000
0100
0001
0000
,
1000
0100
1000
0000
0000
0000
0101
0000
,
0001
0100
0001
0000
0000
0000
1001
0000
,
0100
0010
0100
0000
0000
0000
0110
0000
,
1001
0000
1000
0100
0000
0001
0100
0000
,
0001
0010
0100
0000
0110
0000
1100
0000
,
0100
0010
0001
0000
0011
0000
1001
0000
,
1000
0100
0010
0000
0110
0000
0101
0000
,
1001
0000
0001
0100
0000
1000
0100
0000
,
0100
1001
0000
0011
,
0100
1010
0000
1010
,
0100
0011
0000
1010
,
0100
0011
0000
0101
,
0010
1100
0010
0101
,
0100
1010
0001
0110
,
1000
0110
0001
1001
,
0100
0001
0001
0100
0010
1000
1000
0010
;

//---------------dance-single - ----------------
#NOTES:
     dance-single:
     :
     Hard:
     9:
     :
0000
0000
0000
0000
,
0000
0000
0000
0000
,
0000
0000
0000
0000
,
0000
0000
0000
0000
,
0000
0000
0000
0000
,
1000
0000
0001
0010
0000
0100
1000
1000
,
0001
0000
1000
0010
0000
0100
0001
0001
,
0010
0000
0001
1000
0000
0001
0100
0100
,
0010
0000
1000
0001
0000
1000
0100
0100
,
0010
0001
0100
0010
1000
0100
0010
0010
,
0001
0000
1000
0001
0010
0001
0100
0100
,
0010
0000
0100
0001
0010
0001
1000
1000
,
0100
0000
1000
0010
1000
0001
0010
0010
,
0100
0000
1000
0010
0100
0001
1000
1000
,
0010
0000
0100
0001
0010
0100
1000
1000
,
0000
0001
0100
0100
0001
1000
0010
0010
,
0000
1000
0100
0100
1000
0001
0010
0010
,
0000
0100
1000
0010
0010
0100
0001
0001
,
0000
1100
0110
0000
0011
0000
1001
1001
,
0000
0010
1000
0100
0010
1000
0010
0001
,
0100
0010
0001
0010
2000
0001
3001
0101
,
0000
0010
0100
1000
0010
0100
0001
0010
,
1000
0010
0001
0100
0020
0100
0130
0101
,
0000
1000
0100
0010
0001
0010
0100
0001
,
0100
1000
0001
0100
0020
1000
1030
1001
,
0000
0100
0010
0001
1000
0010
0100
1000
,
0100
0001
0010
0100
0020
0001
0031
1001
,
0000
1000
0100
0010
0001
0010
0100
1100
,
0000
0001
0100
0010
1000
0010
0100
0101
,
0000
0010
1000
0100
0001
0100
1000
1001
,
0000
0010
0001
0100
1000
0100
0001
1001
,
1000
0110
0001
0010
,
1100
0101
0010
1001
,
0100
0010
1100
0001
,
1010
0000
0011
0000
0101
0100
0110
0010
,
1010
0100
0010
1100
,
0001
0110
1001
0010
,
0100
0011
0100
1001
,
0010
0000
1100
0100
0110
0010
0011
0000
,
0010
0000
0000
0000
0000
0010
0000
0000
0001
0000
0000
0000
0000
0001
0000
0000
0100
0000
0000
0000
0000
0100
0000
0000
0010
0000
0000
0000
0000
0010
0000
0000
,
1000
0000
0000
0000
0000
1000
0000
0000
0001
0000
0000
0000
0000
0001
0000
0000
0010
0000
0000
0000
0000
0010
0000
0000
1000
0000
0000
0000
0000
1000
0000
0000
,
0010
0000
0000
0000
0000
0010
0000
0000
0001
0000
0000
0000
0000
0001
0000
0000
1000
0000
0000
0000
0000
1000
0000
0000
0100
0000
0000
0000
0000
0100
0000
0000
,
0010
0000
0000
0000
0000
0010
0000
0000
0001
0000
0000
0000
0000
0001
0000
0000
0010
0000
0000
0000
0010
0000
0000
0000
0100
0000
0000
0000
0100
0000
0000
0000
,
1000
0000
0001
0001
0000
0100
0010
1000
,
0001
0000
0010
0010
0000
0100
1000
0010
,
0100
0000
1000
1000
0000
0100
0001
0010
,
0100
0000
0010
0010
0000
0001
1000
0100
,
1000
0010
0100
0001
0010
0100
1000
0010
,
1000
0100
0010
0001
0100
0010
1000
0100
,
1000
0010
0100
0001
1000
0100
0010
0001
,
1100
0000
0000
0000
0000
0000
0101
0000
0000
0000
0000
0000
1001
0000
0001
1000
,
0001
0010
0100
1000
0010
1000
0001
0010
,
0100
0010
0001
0100
0010
1000
0001
1000
,
0100
0000
1000
0010
0100
1000
0100
0001
,
1000
0010
1000
0100
0001
0100
0010
0001
,
0100
0000
0001
0010
0100
0010
0001
1000
,
0001
0010
1000
0010
0100
1000
0010
0100
,
0001
0000
1000
0100
0010
0001
1000
0010
,
0100
0001
0010
0100
1000
0010
1000
0001
,
0100
0010
1000
1000
0100
0010
0001
0001
,
0010
0100
1000
1000
0010
0100
0001
0001
,
1000
0100
0010
0010
0001
0100
0010
0010
,
0100
0001
0010
0010
0100
1000
0010
0010
,
1000
0100
0001
0001
0100
1000
0010
0010
,
0100
1000
0100
0100
0001
0010
1000
1000
,
0010
0001
1000
0100
0010
0001
1000
0100
,
0110
0011
0001
1001
1010
0010
0110
0101
;

//---------------dance-single - ----------------
#NOTES:
     dance-single:
     :
     Challenge:
     10:
     :
0000
0000
0000
0000
,
0000
0000
0000
0000
,
0000
0000
0000
0000
,
0000
0000
0000
0000
,
0000
0000
0000
0000
,
1000
0100
0010
0001
1000
0100
0010
1000
,
0001
0100
0010
1000
0001
0100
0010
0001
,
1000
0100
1000
0010
0100
0001
1000
0001
,
0100
0001
0010
0100
1000
0001
0100
0001
,
0010
0000
0001
0100
0010
0000
0100
0000
0001
0000
0200
0000
0010
0000
0010
0000
,
0310
0000
1000
0100
0010
0000
0100
0000
1000
0000
0200
0000
0010
0000
0010
0000
,
0310
0000
0001
1000
0010
0000
0100
0000
0010
0000
2000
0000
0100
0000
0100
0000
,
3100
0000
1000
0001
0010
0000
0100
0000
0010
0000
0002
0000
0100
0000
0100
0000
,
0103
0000
0001
0010
0100
0000
1000
0000
0100
0000
0010
0000
0001
0000
1000
0000
,
0001
0000
1000
0010
0100
0000
0001
0000
0100
0000
0010
0000
1000
0000
0001
0000
,
0000
0001
0100
0100
0001
1000
0010
0010
,
0000
1000
0100
0100
1000
0001
0010
0010
,
0000
0100
1000
1000
0001
0100
1000
1000
,
0000
0110
1001
0100
0110
0010
0110
1001
,
0100
0001
1001
0100
0010
0100
1001
0100
,
0001
0010
1100
0001
1000
0101
0000
1100
,
1000
0001
0110
0001
0100
0010
1001
0100
,
0010
1000
1001
1100
0000
1001
0000
0011
,
0010
0100
1001
0010
0100
0001
1100
0010
,
1000
0001
0011
0100
1000
0101
0000
1100
,
0100
0010
1001
0100
0001
0100
1001
0010
,
1000
0001
1001
0101
0000
1001
0000
0011
,
0000
1000
0100
0010
0001
0010
0110
1100
,
0000
0001
0100
0010
1000
0010
0110
0101
,
0000
0010
1000
0100
0001
0100
1100
1001
,
0000
0010
0001
0100
1000
0100
0101
1001
,
0011
0000
0000
0000
0110
0000
0000
0000
1100
0000
0000
0000
1001
0000
0000
1001
,
0100
0000
0000
0000
1100
0000
0000
0000
0110
0000
0000
0000
1001
0000
0000
1001
,
0010
0011
1100
0101
,
1010
1000
1001
0001
0101
0100
0110
0010
,
1010
0000
0000
0000
0110
0000
0000
0000
0011
0000
0000
0000
0101
0000
0000
1010
,
0001
0000
0000
0000
0101
0000
0000
0000
1010
0000
0000
0000
1001
0000
0000
0011
,
0100
1100
0011
1010
,
0101
0001
1001
1000
1010
0010
0110
0000
,
0010
0000
1000
0000
0001
0000
0010
0000
0100
0000
1000
0000
0010
0000
0100
0001
,
0010
0000
0001
0000
0100
0000
0010
0000
1001
0000
0100
0000
1001
0000
0010
0100
,
0010
1000
0001
0100
1001
0100
1001
0001
,
0010
0100
1001
0100
1001
0010
1001
0110
,
2000
0000
0000
0000
0100
0000
0100
0000
0000
0000
0001
0000
3010
0001
1000
0000
,
0002
0000
0000
0000
0100
0000
0100
0000
0000
0000
1000
0000
0013
0100
0001
0000
,
0020
0000
0000
0000
1000
0000
1000
0000
0000
0000
0001
0000
1030
0001
0100
0000
,
0020
0000
0000
0000
0001
0000
0001
0000
0000
0000
1000
0000
0031
1000
0100
0000
,
1000
0000
0010
1000
0200
0000
0310
0000
0001
0000
0100
0010
2000
0000
3010
0000
,
1000
0000
0100
0010
0002
0000
1003
0000
0200
0000
1000
0000
1000
0000
1000
0000
,
1300
0000
0010
0100
0002
0000
0013
0000
0100
0000
1000
0001
2000
0000
3001
0000
,
1001
0000
0001
1000
0001
0000
1001
0000
1000
0001
1000
0000
1001
0000
0010
0100
,
0010
0000
0100
0000
0010
0000
1010
0000
0000
0000
0100
0001
0010
0000
0100
0000
,
1000
0000
0010
0000
0100
0000
0101
0000
0000
0000
1000
0001
0100
0000
0010
0000
,
0100
0000
0001
0000
0010
0000
0011
0000
0000
0000
1000
0100
0010
0000
0100
0000
,
2000
3010
0020
0130
0200
0301
0002
1003
,
1000
0000
0010
0000
0100
0000
0101
0000
0100
0000
0010
1000
0100
0000
0010
0000
,
0001
0000
0100
0000
0010
0000
1010
0000
1000
0000
0001
1000
0010
0000
0100
0000
,
0010
0000
1000
0000
0100
0000
1100
0000
1000
0000
0001
0010
0100
0000
0010
0000
,
0002
0103
0200
0310
0020
1030
2000
3100
,
0100
0000
0010
0001
1000
0000
0001
0000
0100
0000
0010
1000
0001
0000
1000
0000
,
0100
0000
0010
0001
0010
0000
0100
0000
1000
0000
0010
0100
0010
0000
1000
0000
,
0001
0000
0010
0100
1000
0000
0001
0000
1000
0000
0100
1000
0010
0000
0100
0000
,
0001
0000
0010
0001
1000
0000
0100
0000
0010
0000
0001
0010
0100
0000
1000
0000
,
0010
0000
0100
0001
0010
0000
0100
0000
0010
0000
0001
0100
1000
0000
0100
0000
,
0010
0000
1000
0100
0001
0000
0100
0000
0010
0000
0001
1000
0100
0000
1000
0000
,
0010
0000
0100
0001
1000
0000
0010
0000
0100
0000
1000
0100
0010
0000
0100
0000
,
0101
0101
1001
1100
1100
0101
0110
1001
;

//---------------dance-double - ----------------
#NOTES:
     dance-double:
     :
     Beginner:
     1:
     :
00000000
00000000
00000000
00000000
,
00000000
00000000
00000000
00000000
,
00000000
00000000
00000000
00000000
,
00000000
00000000
00000000
00000000
,
00000000
00000000
00000000
00000000
,
00001000
00000000
00000000
00000000
,
00010000
00000000
00000000
00000000
,
01000000
00000000
00000000
00000000
,
10000000
00000000
00000000
00000000
,
00010000
00000000
00000000
00000000
,
00001000
00000000
00000000
00000000
,
00000100
00000000
00000000
00000000
,
00000100
00000000
00000000
00000000
,
00000001
00000000
00000000
00000000
,
00000010
00000000
00000000
00000000
,
00001000
00001000
00000000
00000000
,
00000000
00010000
00000000
00000000
,
00000000
00001000
00000000
00000000
,
00000000
01000000
00000000
00000000
,
10010000
00000000
00000000
00000000
,
01000000
00000000
01000000
00000000
,
00100000
00000000
00000000
00000000
,
00010000
00000000
00010000
00000000
,
00001000
00000000
00000000
00000000
,
00000100
00000000
00000100
00000000
,
00000010
00000000
00000000
00000000
,
00000001
00000000
00000001
00000000
,
00001001
00000000
00000000
00000000
,
00001001
00000000
00000000
00000000
,
00000000
00011000
00000000
00000000
,
00000000
00011000
00000000
00000000
,
01000000
00000000
00000000
00000000
,
00100000
00000000
00000000
00000000
,
00010000
00000000
00000000
00000000
,
00001000
00001000
00000000
00000000
,
00000100
00000000
00000000
00000000
,
00000010
00000000
00000000
00000000
,
00000001
00000000
00000000
00000000
,
00001000
00001000
00000000
00000000
,
00000100
00000000
00000000
00000000
,
00010000
00000000
00000000
00000000
,
01000000
00000000
00000000
00000000
,
10000000
00000000
00000000
00000000
,
00010000
00000000
00010000
00000000
,
00001000
00000000
00001000
00000000
,
00011000
00000000
00000000
00000000
,
00000001
00000000
00000000
00000000
,
00000100
00000000
00000100
00000000
,
00001000
00000000
00001000
00000000
,
00011000
00000000
00000000
00000000
,
01000000
00000000
00000000
00000000
,
10000000
00000000
00000000
00000000
,
01000000
00000000
00000000
00000000
,
00010000
00000000
00001000
00000000
,
00010000
00000000
00000000
00000000
,
00000100
00000000
00000000
00000000
,
00000001
00000000
00000000
00000000
,
00001000
00000000
00000001
00000000
,
00001000
00000000
00000000
00000000
,
00000000
00010000
00000000
00000000
,
00000000
01000000
00000000
00000000
,
00000000
10000000
00000000
00000000
,
00000000
01000000
00000000
00000000
,
00000000
00010000
00000000
00000000
,
00000000
00001000
00000000
00000000
,
00000000
00000100
00000000
00000001
,
00000001
00000000
00000000
00000000
;

//---------------dance-double - ----------------
#NOTES:
     dance-double:
     :
     Easy:
     4:
     :
00000000
00000000
00000000
00000000
,
00000000
00000000
00000000
00000000
,
00000000
00000000
00000000
00000000
,
00000000
00000000
00000000
00000000
,
00000000
00000000
00000000
00000000
,
00000001
00000100
00000100
00000000
,
00001000
00010000
00010000
00000000
,
01000000
01000000
00100000
00000000
,
00010000
00010000
10000000
00000000
,
01000000
00010000
00010000
01000000
,
00000000
00010000
00001000
00000100
,
00000001
00001000
00001000
00000001
,
00000000
00000100
00001000
00010000
,
01000000
10000000
10000000
01000000
,
00000000
00010000
00001000
00001000
,
00020000
00000000
00000000
00030000
,
00002000
00000000
00000000
00003000
,
00000200
00000000
00000000
00000300
,
00000000
00000001
00000100
00000100
,
00000001
00000100
00000001
00000100
,
00001000
00010000
00001000
00000000
,
01000000
10000000
01000000
10000000
,
00100000
10000000
00100000
00000000
,
10000000
01000000
10000000
01000000
,
00010000
00001000
00010000
00000000
,
00000100
00000001
00000100
00000001
,
00000010
00000001
00000010
00000000
,
00000002
00000003
00000200
00000300
,
00002000
00003000
00020000
00000000
,
00030000
02000000
03000000
20000000
,
30000000
00020000
00000000
00030000
,
10000000
01000000
00100000
00010000
,
10000000
01000000
00100000
00010000
,
10000000
01000000
00010000
00001000
,
00010000
00001000
00000100
00000001
,
00000001
00000010
00000100
00001000
,
00000001
00000010
00000100
00001000
,
00000001
00000100
00001000
00010000
,
00001000
00010000
01000000
10000000
,
00200000
00300000
02000000
03000000
,
00020000
00030000
00200000
00300000
,
02000000
03000000
00020000
00030000
,
00002000
00003000
00000200
00000300
,
00000001
00000100
00000100
00000100
,
00000200
00000300
00002000
00003000
,
00020000
00030000
00002000
00003000
,
02000000
00000000
00000000
03000000
,
00100000
10000000
10000000
10000000
,
20000000
30000000
02000000
03000000
,
00020000
00030000
00002000
00003000
,
00000200
00000000
00000000
00000300
,
00000001
00000010
00000001
00000010
,
00000000
00000010
00001000
00010000
,
00100000
10000000
00100000
10000000
,
00000000
00010000
01000000
00100000
,
01000000
00010000
01000000
00010000
,
00000000
00001000
00010000
00001000
,
00000100
00000010
00000100
00000010
,
00000000
00001000
00000100
00001000
,
00000100
00000010
00000000
00000001
,
00000100
00001000
00000000
00001000
,
00010000
00100000
00000000
00100000
,
10000000
01000000
00000000
00010000
,
00001000
00010000
00001000
00000010
,
00000001
00000010
00000001
00000100
,
00001000
00000100
00001000
00010000
,
00011000
00000000
00000000
00000000
;

//---------------dance-double - ----------------
#NOTES:
     dance-double:
     :
     Medium:
     6:
     :
00000000
00000000
00000000
00000000
,
00000000
00000000
00000000
00000000
,
00000000
00000000
00000000
00000000
,
00000000
00000000
00000000
00000000
,
00000000
00000000
00000000
00000000
,
00010000
00001000
00000010
00000001
,
00000010
00001000
00010000
00100000
,
00010000
00001000
00000100
00001000
,
00010000
01000000
00010000
00001000
,
00000100
00000001
00000001
00000100
00000000
00000000
00000010
00000000
,
00001000
00000100
00000100
00001000
00000000
00000000
00000100
00000000
,
00010000
00001000
00001000
00010000
00000000
00000000
01000000
00000000
,
10000000
00100000
00100000
10000000
00000000
00000000
01000000
00000000
,
00100000
00010000
00010000
00100000
00000000
00000000
01000000
00000000
,
00010000
00001000
00001000
00010000
00000000
00000000
00001000
00000000
,
00000000
00000100
00000001
00000100
00000001
00000000
00001001
00000000
,
00000000
00000100
00001000
00000100
00001000
00000000
00011000
00000000
,
00000000
00010000
01000000
00010000
01000000
00000000
10010000
00000000
,
00000000
01000000
00010000
01000000
00010000
00000000
00011000
00000000
,
00001000
00000100
00000010
00000000
00001000
00000000
00000001
00000000
,
00001000
00000000
00000001
00000100
00001000
00000000
00000000
00000000
,
00010000
01000000
00100000
00000000
00010000
00000000
10000000
00000000
,
00010000
00000000
10000000
01000000
00010000
00000000
00000000
00000000
,
00001000
00000100
00000010
00000000
00001000
00000000
00000001
00000000
,
00001000
00000000
00000001
00000100
00001000
00000000
00000000
00000000
,
00010000
01000000
00100000
00000000
00010000
00000000
10000000
00000000
,
00010000
00000000
10000000
01000000
00010000
00000000
00000000
00000000
,
00001000
00000100
00000010
00000100
00001000
00000000
00000000
00000000
,
00010000
00100000
01000000
00100000
00010000
00000000
00000000
00000000
,
00000000
00000000
00001000
00000100
00000010
00000000
00000000
00000000
,
00000000
00000000
00010000
00100000
01000000
00100000
00010000
00000000
,
00001000
00000000
00001000
00000000
00000010
00000000
00000001
00000100
,
00000001
00000001
00000100
00001000
,
00010000
00000000
00010000
00000000
01000000
00000000
10000000
00100000
,
10000000
10000000
01000000
00010000
,
00001000
00000000
00001000
00000000
00000100
00000000
00000001
00001000
,
00000001
00000010
00000001
00000100
,
00001000
00000000
00001000
00000000
00010000
00000000
01000000
10000000
,
01000000
01000000
00100000
00010000
,
10000000
01000000
00100000
00000000
01000000
00100000
00010000
00000000
,
10000000
01000000
00010000
00001000
,
00000100
00000001
00000010
00000000
00000010
00000100
00001000
00000000
,
00000001
00000100
00001000
00010000
,
00011000
00000000
01000000
00000000
,
01010000
00000000
00001000
00000000
,
00011000
00000000
00000100
00000000
,
00001100
00000000
00000000
00000000
,
00000100
00001000
00000100
00010000
,
00001000
01000000
00010000
01000000
,
00001000
00010000
00000100
00001000
,
00001100
00000000
00000000
00011000
00000000
00000000
01010000
00000000
,
01000000
00100000
20000000
00000000
00000000
00000000
31000000
00000000
,
00100000
00001000
00020000
00000000
00000000
00000000
00031000
00000000
,
00000100
00000001
00000020
00000000
00000000
00000000
00000130
00000000
,
00001000
00000000
00000100
00010000
00000000
00001000
01000000
00000000
,
01000000
00100000
20000000
00000000
00000000
00000000
31000000
00000000
,
00100000
00001000
00020000
00000000
00000000
00000000
00031000
00000000
,
00000100
00000001
00000020
00000000
00000000
00000000
00000130
00000000
,
00001000
00000000
00000100
00010000
00000000
00001000
00100000
00000000
,
00010000
10000000
00010000
00000000
10000000
00000000
01000000
00000000
,
00010000
00001000
00010000
00000000
00001000
00000000
00000100
00000000
,
00000001
00001000
00000001
00000000
00000100
00000000
00001000
00000000
,
00010000
00000000
00001000
00000100
00000000
00001000
00000001
00000000
,
00000001
00001000
00000001
00000000
00000100
00000000
00001000
00000000
,
00010000
00001000
00010000
00000000
01000000
00000000
10000000
00000000
,
00010000
10000000
00010000
00000000
10000000
00000000
01000000
00000000
,
00010000
00010000
00010000
00001000
00001000
00001000
00010000
00001000
;

//---------------dance-double - ----------------
#NOTES:
     dance-double:
     :
     Hard:
     9:
     :
00000000
00000000
00000000
00000000
,
00000000
00000000
00000000
00000000
,
00000000
00000000
00000000
00000000
,
00000000
00000000
00000000
00000000
,
00000000
00000000
00000000
00000000
,
00000010
00000001
00000100
00001000
,
00010000
00100000
10000000
01000000
,
00010000
00001000
00000010
00000001
,
00000100
00001000
00010000
01000000
,
00000000
10000000
01000000
00010000
00000000
01000000
10000000
00100000
,
00000000
00010000
00001000
00000010
00000000
00000001
00000010
00001000
,
00000000
00010000
00001000
00000100
00000000
00000001
00000100
00001000
,
00000000
00010000
01000000
10000000
00000000
01000000
00010000
00001000
,
00000000
00000010
00000001
00000100
00000000
00000001
00000010
00001000
,
00000000
00010000
01000000
10000000
00000000
01000000
00010000
00001000
,
00000000
00010000
00001000
00000010
00000001
00000100
00000010
00001000
,
00000000
00000100
00000010
00000001
00000100
00001000
00010000
00100000
,
00000000
10000000
01000000
00100000
00010000
01000000
00100000
10000000
,
00000000
10100000
01100000
00000000
01001000
00000000
00011000
00011000
,
00001000
00000100
00000100
00000001
00000100
00001000
00010000
01000000
,
10000000
00100000
01000000
00010000
00100000
00001000
00001000
00101000
,
00000000
00010000
00010000
01000000
10000000
01000000
00010000
00001000
,
00000010
00000001
00000100
00001000
00000100
00000001
00000001
00001001
,
00000000
00000100
00001000
00001000
00010000
00100000
10000000
01000000
,
00010000
00001000
00000100
00000001
00000010
00000100
00000100
00000110
,
00000000
00001000
00000100
00000100
00000010
00000001
00000100
00001000
,
00010000
01000000
10000000
01000000
00010000
01000000
01000000
01100000
,
00000000
10000000
00100000
00100000
10000000
00010000
00010000
01000000
,
00000000
00001000
00010000
00010000
00001000
00000100
00000010
00000010
,
00000000
00001000
00000100
00000100
00001000
00000010
00000001
00000001
,
00000000
00001000
00000100
00000100
00001000
00000010
00010000
00010000
,
00011000
00110000
01000000
10000000
,
01010000
00011000
00000100
00000110
,
00000001
00001000
00011000
01000000
,
01100000
00000000
10010000
00000000
01000000
01000000
00010000
00010000
,
00011000
00001000
00000100
00000101
,
00000010
00001010
00011000
00001000
,
00100000
11000000
00010000
01010000
,
00001000
00000000
00011000
00001000
00001100
00000100
00000101
00000000
,
00000010
00000001
00000100
00001000
,
00011000
00010000
01010000
10010000
,
00100000
00010000
10010000
00011000
,
00001000
00000000
00000110
00000110
00000100
00001001
00001001
00000100
,
00000001
00000000
00000001
00000100
00000000
00001000
00010000
00010000
,
00001000
00000000
00010000
01000000
00000000
10000000
00100000
00100000
,
10000000
00000000
01000000
00010000
00000000
00001000
00000010
00000010
,
00001000
00000000
00010000
01000000
00000000
00010000
00001000
00001000
,
00010000
00000100
00001000
00000010
00000001
00000010
00001000
00000100
,
00010000
00001000
00001000
00010000
01000000
10000000
00100000
00010000
,
00001000
00000010
00000001
00000100
00001000
00000100
00000001
00001000
,
00000100
00010000
00010000
00001000
00000000
00010000
01000000
01000000
,
10010000
00000000
10000000
01000000
00010000
00001000
00000100
00000000
,
00001000
00010000
01000000
10000000
00100000
00010000
00001000
00000000
,
00000010
00001000
00010000
00001000
00000100
00000001
00000010
00000100
,
00000010
00000001
00000100
00001000
00000000
00010000
01000000
01000000
,
10010000
00000000
10000000
01000000
00010000
00001000
00000100
00000000
,
00001000
00010000
01000000
10000000
00100000
00010000
00001000
00000000
,
00000010
00001000
00010000
00001000
00000100
00000001
00000010
00000100
,
00000010
00000001
00000100
00001000
00000000
00010000
00001000
00000100
,
00000001
00000100
00000010
00000010
00001000
00000100
00010000
00010000
,
00001000
00100000
01000000
01000000
10000000
00100000
00010000
00010000
,
00001000
00010000
00100000
00010000
00100000
10000000
01000000
00010000
,
00001000
00000010
00001000
00000010
00000001
00000100
00001000
00000000
,
00010000
00001000
00001000
00000100
00000001
00000010
00000010
00001000
,
00010000
00100000
00100000
10000000
01000000
00010000
00010000
00001000
,
00000100
00000010
00000010
00000100
00001000
00010000
01000000
01000000
,
01100000
00010000
00100000
00101000
00001000
00011000
00010000
00010100
;

//---------------dance-double - ----------------
#NOTES:
     dance-double:
     :
     Challenge:
     10:
     :
00000000
00000000
00000000
00000000
,
00000000
00000000
00000000
00000000
,
00000000
00000000
00000000
00000000
,
00000000
00000000
00000000
00000000
,
00000000
00000000
00000000
00000000
,
10000000
01000000
00100000
00010000
10000000
01000000
00100000
00010000
,
00001000
00000100
00000010
00000001
00001000
00000100
00000010
00000001
,
00000010
00000100
00001000
00010000
00100000
01000000
10000000
01000000
,
00100000
00010000
00001000
00000100
00000010
00000001
00000010
00001000
,
00000001
00000000
00000100
00000001
00000010
00000000
00000200
00000000
00000000
00000000
00000001
00000000
00000001
00000000
00000301
00000000
,
00000100
00000000
00010000
00001000
01000000
00000000
00200000
00000000
00000000
00000000
00010000
00000000
00010000
00000000
00310000
00000000
,
00100000
00000000
10000000
00010000
00100000
00000000
02000000
00000000
00000000
00000000
00010000
00000000
00010000
00000000
03010000
00000000
,
01000000
00000000
10000000
00100000
01000000
00000000
00002000
00000000
00000000
00000000
00010000
00000000
00010000
00000000
00013000
00000000
,
00001000
00000000
00010000
00000100
00001000
00000000
00000010
00000000
00000100
00000000
00000001
00000000
00000100
00000000
00001000
00000000
,
00010000
00000000
00001000
00100000
00010000
00000000
01000000
00000000
00100000
00000000
10000000
00000000
00100000
00000000
00010000
00000000
,
00000000
00001000
00000100
00000100
00000001
00000010
00000100
00000100
,
00000000
00010000
01000000
01000000
10000000
00010000
01000000
01000000
,
00000000
00100000
00010000
00010000
00001000
00000010
00000100
00000100
,
00000000
00000110
00001001
00001000
00010000
00001000
00001001
00000110
,
00000001
00001000
00001001
00000001
00000100
00001000
00001100
00010000
,
00001000
01000000
01010000
10000000
00000000
00110000
00000000
11000000
,
00010000
01000000
01010000
00100000
00001000
00010000
00011000
00000100
,
00010000
00001000
00001100
00000010
00000000
00000101
00000000
00001010
,
00000001
00001000
00001100
00000100
00010000
00001000
00110000
00010000
,
10000000
00100000
01010000
10000000
00000000
00110000
00000000
11000000
,
10000000
00100000
01100000
01000000
00001000
00010000
00011000
00001000
,
00000010
00000001
00001001
00001000
00000000
00011000
00000000
10010000
,
00000000
10000000
01000000
00100000
00010000
00100000
01000000
10000000
,
00000000
00010000
01000000
00100000
10000000
00100000
01000000
00010000
,
00000000
00100000
00001000
00010000
00000010
00000100
00000001
00000010
,
00000000
00000100
00010000
00001000
01000000
00100000
10000000
01000000
,
10010000
00000000
00000000
00000000
01100000
00000000
00000000
00000000
10010000
00000000
00000000
00000000
11000000
00000000
00000000
00100000
,
00001000
00000000
00000000
00000000
00011000
00000000
00000000
00000000
00001100
00000000
00000000
00000000
00001001
00000000
00000000
00000010
,
00000001
00001001
00000110
00001001
,
00000101
00000100
00001100
00001000
00011000
00010000
01010000
01000000
,
11000000
00000000
00000000
00000000
10010000
00000000
00000000
00000000
00110000
00000000
00000000
00000000
11000000
00000000
00000000
00100000
,
00001000
00000000
00000000
00000000
00010100
00000000
00000000
00000000
00001010
00000000
00000000
00000000
00001001
00000000
00000000
00000100
,
00010000
00011000
01001000
01100000
,
10100000
10000000
10010000
00010000
00110000
00100000
01100000
00000000
,
01000000
00000000
10000000
00000000
01000000
00000000
00010000
00000000
00001000
00000000
00000010
00000000
00000001
00000000
00000010
00000100
,
00001000
00000000
00000100
00000000
00000001
00000000
00000100
00000000
00000010
00000000
00001000
00000000
00010000
00000000
01000000
00100000
,
00010000
00100000
10000000
00100000
00010000
00001000
00000100
00000001
,
00000100
00001000
00000010
00010000
00001000
00100000
00010000
01000000
,
00012000
00000000
00000000
00000000
00100000
00000000
00100000
00000000
00000000
00000000
01003000
00000000
00001000
00100000
00010000
00000000
,
02000000
00000000
00000000
00000000
00100000
00000000
00100000
00000000
00000000
00000000
03001000
00000000
00100000
00001000
00010000
00000000
,
00000200
00000000
00000000
00000000
00000010
00000000
00000010
00000000
00000000
00000000
00010300
00000000
00000010
00010000
00001000
00000000
,
00200000
00000000
00000000
00000000
01000000
00000000
01000000
00000000
00000000
00000000
00310000
00000000
10000000
00010000
01000000
00000000
,
00100000
00000000
10000000
00010000
02000000
00000000
03100000
00000000
01000000
00000000
00001000
00010000
00000200
00000000
00001300
00000000
,
00000001
00000000
00000010
00000100
00002000
00000000
00003010
00000000
00000001
00000000
00000010
00000000
00001000
00000000
00000010
00000000
,
00000001
00000000
00000010
00001000
00000200
00000000
00010300
00000000
00001000
00000000
01000000
00010000
00200000
00000000
00310000
00000000
,
10010000
00000000
00010000
01000000
00010000
00000000
10010000
00000000
10000000
01000000
10000000
00000000
10010000
00000000
00010000
10000000
,
00010000
00000000
01000000
00000000
00100000
00000000
01100000
00000000
00000000
00000000
01000000
00010000
00100000
00000000
00001000
00000000
,
00010000
00000000
00000100
00000000
00010000
00000000
00011000
00000000
00000000
00000000
00000100
00001000
00000010
00000000
00010000
00000000
,
00001000
00000000
00100000
00000000
00001000
00000000
00011000
00000000
00000000
00000000
01000000
00010000
00100000
00000000
00010000
00000000
,
20000000
00100000
30200000
01000000
02300000
00010000
03020000
10000000
,
10030000
00000000
01000000
00000000
00100000
00000000
00110000
00000000
00100000
00000000
00010000
00100000
00001000
00000000
00010000
00000000
,
00000010
00000000
00000100
00000000
00000001
00000000
00000101
00000000
00000001
00000000
00000100
00000001
00001000
00000000
00000100
00000000
,
00010000
00000000
00001000
00000000
01000000
00000000
01010000
00000000
01000000
00000000
00010000
01000000
00100000
00000000
10000000
00000000
,
20000000
01000000
32000000
00100000
03200000
00010000
00320000
10000000
,
10030000
00000000
00010000
01000000
00010000
00000000
00100000
00000000
00001000
00000000
00010000
00001000
00010000
00000000
00000010
00000000
,
00001000
00000000
00000001
00000100
00000001
00000000
00000010
00000000
00000100
00000000
00001000
00000001
00001000
00000000
00000010
00000000
,
00010000
00000000
00001000
00100000
00001000
00000000
01000000
00000000
00010000
00000000
10000000
00100000
10000000
00000000
00010000
00000000
,
00100000
00000000
01000000
10000000
01000000
00000000
00010000
00000000
00001000
00000000
00010000
00000100
00010000
00000000
00001000
00000000
,
00000100
00000000
00000010
00000100
00000010
00000000
00001000
00000000
00000001
00000000
00000010
00000100
00000010
00000000
00001000
00000000
,
00010000
00000000
00001000
01000000
00001000
00000000
00100000
00000000
00010000
00000000
01000000
00100000
01000000
00000000
00010000
00000000
,
10000000
00000000
01000000
00100000
01000000
00000000
00010000
00000000
00001000
00000000
00010000
00000100
00010000
00000000
00001000
00000000
,
00011000
00011000
00001000
00001100
00001100
00000100
00000110
00001001
;
