#TITLE:The Hop;
#ARTIST:OR-IF-IS;
#BANNER:The Hop.png;
#BACKGROUND:The Hop-bg.png;
#CDTITLE:./CDTITLES/Dance Dance Revolution UNIVERSE.png;
#MUSIC:The Hop.ogg;
#SAMPLESTART:52.736;
#SAMPLELENGTH:15;
#BPMS:0=132;

//---------------dance-single - ----------------
#NOTES:
     dance-single:
     :
     Beginner:
     1:
     :
0000
0000
0000
0000
,
0000
0000
0000
0000
,
0000
0000
0000
0000
,
0000
0000
0000
0000
,
0000
0000
0000
0000
,
0100
0100
0000
0000
,
0001
0001
0000
0000
,
1000
1000
0000
0000
,
0001
0001
0000
0000
,
2000
0000
0000
3000
,
0000
0000
0000
0000
,
0002
0000
0000
0003
,
0000
0000
0000
0000
,
0001
0000
0001
0000
,
1000
0000
1000
0000
,
0010
0000
0010
0000
,
0100
0000
0100
0000
,
0001
0000
0000
0000
,
0001
0000
0000
0000
,
1000
0000
0000
0000
,
1000
0000
0000
0000
,
0100
0000
0100
0000
,
0100
0000
0000
0000
,
1000
0000
1000
0000
,
1000
0000
0000
0000
,
0002
0000
0000
0003
,
0000
0000
0000
0000
,
2000
0000
0000
3000
,
0000
0000
0000
0000
,
0100
0100
0100
0000
,
0100
0000
0000
0000
,
0010
0010
0010
0000
,
0010
0000
0000
0000
,
1000
1000
1000
0000
,
1000
0000
0000
0000
,
0001
0001
0001
0000
,
0001
0000
0000
0000
,
1001
0000
1001
0000
,
0001
0000
0001
0000
,
1000
0000
1000
0000
,
0001
0000
0001
0000
,
0002
0000
0000
0003
,
0000
0000
0000
0000
,
2000
0000
0000
3000
,
0000
0000
0000
0000
,
0100
0000
0100
0000
,
0010
0000
0010
0000
,
1000
0000
1000
0000
,
0001
0000
0001
0000
,
1001
0000
1001
0000
,
0001
0000
0001
0000
,
1000
0000
1000
0000
,
0001
0000
1000
0000
,
1001
0000
0000
0000
;

//---------------dance-single - ----------------
#NOTES:
     dance-single:
     :
     Easy:
     3:
     :
0000
0000
0000
0000
,
0000
0000
0000
0000
,
0000
0000
0000
0000
,
0000
0000
0000
0000
,
0000
0000
0000
0000
,
0001
1000
0100
0000
,
1000
0001
0010
0000
,
0001
1000
0100
0000
,
1000
0001
0010
0000
,
0100
1000
0010
0001
,
0100
0000
0000
0000
,
0010
1000
0100
0001
,
0010
0000
0000
0000
,
0001
1000
1001
0000
,
1000
0001
0100
0000
,
0001
1000
1001
0000
,
1000
0001
0100
0001
,
0010
1000
0100
0000
,
0100
0010
0110
0000
,
0010
0100
1000
0000
,
0010
0100
0110
0000
,
0001
0100
0001
0010
,
0001
0000
0000
0000
,
1000
0010
1000
0100
,
1000
0000
0000
0000
,
0100
1000
0010
0001
,
0100
0000
0000
0000
,
0010
1000
0100
0001
,
0010
0000
0000
0000
,
1001
0000
0110
0000
,
1000
0001
1001
0000
,
0110
0000
1001
0000
,
0110
0000
0000
0000
,
0110
0000
1001
0000
,
0100
0010
0110
0000
,
1001
0000
0110
0000
,
1001
0000
0000
0000
,
1000
0001
0100
0000
,
0001
1000
0010
0000
,
1000
0001
0100
0000
,
1001
0000
0000
0000
,
0100
1000
0010
0001
,
0100
0000
0000
0000
,
0010
1000
0100
0001
,
0010
0000
0000
0000
,
2000
3000
0002
0003
,
0200
0300
0010
0010
,
0020
0030
2000
3000
,
0002
0003
0100
0100
,
0010
0010
0000
1000
,
0001
1001
0000
0001
,
1000
0100
0000
1000
,
0001
1000
0001
1000
,
1001
0000
0000
0000
;

//---------------dance-single - ----------------
#NOTES:
     dance-single:
     :
     Medium:
     5:
     :
0000
0000
0000
0000
,
0000
0000
0000
0000
,
0000
0000
0000
0000
,
0000
0000
0000
0000
,
0000
0000
0000
0000
,
1000
0000
0001
0000
0000
0100
0010
0000
,
1000
0000
0001
0000
0000
0010
0100
0000
,
1000
0000
0001
0000
0000
0100
0001
0000
,
1000
0000
0001
0000
0000
1000
0100
0000
,
1000
0001
1000
0010
0000
0010
0000
0220
,
0000
0000
0000
0330
,
0100
0010
0100
0001
0000
0001
0000
0202
,
0000
0000
0000
0303
,
1000
0100
1000
0000
0001
0100
0001
0000
,
1000
0100
1000
0000
0100
0000
0010
0000
,
0001
0010
0001
0000
1000
0010
1000
0000
,
0001
0010
0001
0000
1000
0000
0001
0000
,
0100
0010
0100
0000
0001
1000
0001
0000
,
0100
0010
0100
0000
0001
0000
0010
0000
,
1000
0100
1000
0000
0001
0100
0001
0000
,
1000
0100
1000
0000
0100
0000
0100
0000
,
0001
0001
0010
0100
,
0001
0010
0010
0100
,
0001
0100
0010
0100
,
1000
0010
0010
0100
,
1000
0001
0100
0001
0000
0001
0000
0202
,
0000
0000
0000
0303
,
0010
1000
0100
1000
0000
1000
0000
2200
,
0000
0000
0000
3300
,
0101
0000
0001
0000
0100
0010
1000
0000
,
0100
0010
1000
0000
0100
0000
1000
0000
,
0101
0000
0001
0000
0100
0001
0000
1000
,
0100
0000
0000
0000
,
1010
0000
1000
0000
0100
0001
0010
0000
,
0100
0001
0010
0000
0100
0000
0001
0000
,
1100
0000
1000
0000
0100
1000
0000
0001
,
0100
0000
0000
0000
,
1000
0010
0100
0000
0001
0100
0010
0000
,
1100
1100
0101
0101
,
0001
0100
0010
0000
1000
0010
0100
0000
,
0110
0000
0000
0000
,
1000
0001
1000
0010
0000
0010
0000
0220
,
0000
0000
0000
0330
,
0100
0010
0100
0001
0000
0001
0000
0202
,
0000
0000
0000
0303
,
0100
0000
0001
0000
1000
0001
0000
0100
,
0001
1000
0010
0100
,
0010
0000
1000
0000
0010
0100
0000
0010
,
1000
0001
0100
0001
,
1000
1100
0100
1100
,
0010
0011
0010
0011
,
0100
0101
0100
0101
,
0010
0000
1010
0000
0100
0001
0010
0000
,
0110
0000
0000
0000
;

//---------------dance-single - ----------------
#NOTES:
     dance-single:
     :
     Hard:
     7:
     :
0000
0000
0000
0000
,
0000
0000
0000
0000
,
0000
0000
0000
0000
,
0000
0000
0000
0000
,
0000
0000
0000
0000
,
0100
0000
1000
0000
0010
0000
0000
0100
0001
0000
0100
0000
0001
0000
0000
0000
,
0010
0000
0001
0000
0100
0000
0000
0010
1000
0000
0010
0000
1000
0000
0000
0000
,
0100
0000
0010
0000
0100
0000
0000
0001
1000
0000
0001
0000
1000
0000
0000
0000
,
0100
0000
1000
0000
0001
0000
0000
0100
0010
0000
0100
0000
0010
0000
0000
0000
,
0100
0100
0100
0002
0000
1000
0000
0023
,
0000
0001
1000
0031
,
0001
0001
0001
2000
0000
0100
0000
3020
,
0000
1000
0001
1030
,
0010
1000
0100
0010
0001
0100
0001
0010
,
0001
1000
0001
0100
0001
0000
1100
0000
,
0010
0001
1000
0100
1000
0001
1000
0010
,
1000
0010
0100
0001
0010
0000
0101
0000
,
0010
1000
0100
1000
0001
0100
0001
0010
,
0001
1000
0001
0100
0001
0000
0110
0000
,
0100
0001
0010
0001
1000
0100
1000
0010
,
1000
0001
0100
0001
0010
0000
1001
0000
,
1100
0000
0000
0010
0000
0000
0100
0000
0000
0001
0000
0000
0110
0000
0000
0010
,
0000
0000
0001
0000
0000
1000
0000
0000
1100
0000
0000
0001
0000
0000
0100
0000
,
0000
1000
0000
0100
0000
0000
0001
0000
0000
0010
0000
0000
1001
0000
0000
1000
,
0000
0000
0100
0000
0000
0010
0000
0000
0101
0000
0000
1000
0000
0000
0001
0000
,
0100
0100
0100
0020
0000
0100
0000
2030
,
0000
0001
0100
3001
,
0010
0010
0010
0200
0000
0001
0000
2300
,
0000
0010
0100
3010
,
0100
0000
0001
0000
0010
0000
0100
0010
0000
1000
0000
0000
0000
0000
0000
0000
,
0010
0000
0001
0000
0100
0000
0010
1000
0000
0000
0000
0000
0000
0000
0000
0000
,
0100
0000
0001
0000
0010
0000
0100
1000
0000
0100
0000
0000
0000
0000
0110
0000
,
0110
0001
0000
0100
0000
0010
0000
1000
,
0100
0000
0010
0000
0100
0000
1000
0001
0000
0100
0000
0000
0000
0000
0000
0000
,
0010
0000
0100
0000
0010
0000
1000
0100
0000
0000
0000
0000
0000
0000
0000
0000
,
0001
0000
0100
0000
0010
0000
0100
0001
0000
1000
0000
0000
0000
0000
0000
0000
,
0001
0000
0100
0000
0010
0000
1000
0001
0000
0001
0100
0000
0000
0000
0000
0000
,
0010
0000
0101
0000
0100
0010
0100
0100
,
0010
1001
1100
0011
,
1000
0000
0110
0000
1000
0001
1000
1000
,
0001
0110
1100
0101
,
0100
0100
0100
0002
0000
1000
0000
0023
,
0000
0001
1000
0031
,
0001
0001
0001
2000
0000
0100
0000
3020
,
0000
1000
0001
1030
,
1010
0000
0101
0000
0010
0010
0000
0100
,
0100
0001
0110
1001
,
0011
0000
1100
0000
1000
1000
0000
0001
,
0001
0100
1001
0110
,
0100
0000
1010
0000
0001
1000
0010
0000
,
1000
0001
0100
0000
0010
0100
0100
0001
,
0100
1010
0100
1001
,
1010
1000
0100
0001
0100
1000
0100
0001
,
0101
0000
0000
0000
;

//---------------dance-double - ----------------
#NOTES:
     dance-double:
     :
     Beginner:
     1:
     :
00000000
00000000
00000000
00000000
,
00000000
00000000
00000000
00000000
,
00000000
00000000
00000000
00000000
,
00000000
00000000
00000000
00000000
,
00000000
00000000
00000000
00000000
,
00000010
00000000
00000010
00000000
,
00001000
00000000
00001000
00000000
,
00000100
00000000
00000100
00000000
,
00010000
00000000
00010000
00000000
,
00020000
00000000
00000000
00030000
,
00000000
00000000
00000000
00000000
,
20000000
00000000
00000000
30000000
,
00000000
00000000
00000000
00000000
,
01100000
00000000
00000000
00000000
,
00011000
00000000
00000000
00000100
,
00000100
00000000
00000000
00000000
,
00011000
00000000
00000000
01000000
,
01000000
00000000
00000000
00000000
,
00011000
00000000
00000000
00000100
,
00000100
00000000
00000000
00000000
,
00000001
00000000
00000000
00000000
,
00001000
00000000
00001000
00000000
,
00010000
00000000
00000000
00000000
,
01000000
00000000
01000000
00000000
,
10000000
00000000
00000000
00000000
,
00020000
00000000
00000000
00030000
,
00000000
00000000
00000000
00000000
,
00002000
00000000
00000000
00003000
,
00000000
00000000
00000000
00000000
,
00010000
00010000
00010000
00000000
,
00001000
00001000
00001000
00000000
,
00000100
00000100
00000100
00000000
,
00000100
00000000
00000000
00000000
,
00001000
00001000
00001000
00000000
,
00010000
00010000
00010000
00000000
,
01000000
01000000
01000000
00000000
,
01000000
00000000
00000000
00000000
,
10010000
00000000
00000000
00000000
,
00010000
00000000
00000000
00000000
,
00011000
00000000
00000000
00000000
,
00000100
00000000
00000000
00000000
,
00000001
00000000
00000001
00000000
,
00000100
00000000
00000000
00000000
,
00001000
00000000
00001000
00000000
,
00010000
00000000
00000000
00000000
,
10010000
00000000
00000000
00000000
,
00010000
00000000
00001000
00001000
,
00001000
00000000
00000000
00000000
,
00001000
00000000
00010000
00010000
,
00010000
00000000
00000000
00000000
,
00011000
00000000
00000000
00000000
,
00000100
00000000
00000000
00000000
,
00001001
00000000
00001000
00000000
,
00000001
00000000
00000000
00000000
;

//---------------dance-double - ----------------
#NOTES:
     dance-double:
     :
     Easy:
     3:
     :
00000000
00000000
00000000
00000000
,
00000000
00000000
00000000
00000000
,
00000000
00000000
00000000
00000000
,
00000000
00000000
00000000
00000000
,
00000000
00000000
00000000
00000000
,
00000010
00000100
00000000
00010000
,
00001000
00100000
00000000
00100000
,
00010000
10000000
00000000
01000000
,
00010000
00001000
00000000
00000000
,
00000001
00000010
00000010
00001000
,
00010000
00000000
00000000
00000000
,
01000000
01000000
01000000
10000000
,
10010000
00000000
00000000
00000000
,
01000000
00100000
01000000
00100000
,
00000000
10000000
00010000
00000000
,
00010000
00001000
00010000
00001000
,
00000000
00000100
00000010
00000000
,
00000001
00001000
00000001
00001000
,
00000000
00001000
00010000
00000000
,
00000100
00000010
00000100
00000010
,
00000000
00000001
00001000
00000000
,
00000001
00000100
00000001
00000100
,
00001000
00010000
01000000
00000000
,
10000000
01000000
10000000
01000000
,
00010000
00001000
00000100
00000000
,
00000010
00000010
00001000
00000001
,
00001000
00000100
00010000
00010000
,
01000000
01000000
10000000
00100000
,
01000000
00000000
00000000
00000000
,
00100000
00100000
00100000
01000000
,
00010000
00010000
00010000
00000000
,
00000100
00000100
00000100
00001000
,
00000001
00000000
00000000
00000000
,
00001000
00001000
00001000
00000010
,
00000100
00000100
00000100
00000000
,
00010000
00010000
00010000
01000000
,
00100000
00000000
00000000
00000000
,
10000000
01000000
10000000
01000000
,
00010000
00001000
00010000
00001000
,
00000100
00000001
00000100
00000001
,
00000010
00000000
00000000
00000000
,
10000000
01000000
01000000
00010000
,
01000000
00000000
00000000
00000000
,
00001000
00010000
00000100
00000100
,
00001000
00000000
00000000
00000000
,
00001001
00000000
00000110
00000000
,
00000001
00000100
00001000
00010000
,
01100000
00000000
10010000
00000000
,
10000000
01000000
00010000
00001000
,
00010000
00010000
00000000
00001000
,
00000100
00000001
00000100
00000001
,
00000010
00000010
00000000
00000001
,
00000100
00001000
00010000
00001000
,
00011000
00000000
00000000
00000000
;

//---------------dance-double - ----------------
#NOTES:
     dance-double:
     :
     Medium:
     5:
     :
00000000
00000000
00000000
00000000
,
00000000
00000000
00000000
00000000
,
00000000
00000000
00000000
00000000
,
00000000
00000000
00000000
00000000
,
00000000
00000000
00000000
00000000
,
00001000
00000000
00000100
00000000
00000000
00001001
00000000
00000000
,
00000100
00000000
00001000
00000000
00000000
00011000
00000000
00000000
,
01000000
00000000
10000000
00000000
00000000
10010000
00000000
00000000
,
01000000
00000000
00010000
00000000
00000000
00011000
00000000
00000000
,
00001000
00001000
00001000
00000100
00000000
00000001
00000000
00000020
,
00000000
00000000
00000000
00000030
,
00000001
00000001
00000001
00000100
00000000
00001000
00000000
00020000
,
00000000
00000000
00000000
00030000
,
01000000
00010000
00001000
00010000
,
01000000
00000000
10000000
00000000
00100000
01000000
00000000
00100000
,
10000000
01000000
00010000
00001000
,
00000100
00000000
00001000
00000000
00010000
00001000
00000000
00001000
,
00000100
00000001
00000010
00001000
,
00000010
00000000
00000001
00000000
00000100
00000010
00000000
00000100
,
00001000
00010000
01000000
10000000
,
00100000
00000000
00010000
00000000
00100000
10000000
00000000
10000000
,
01000000
00010000
00001000
00011000
,
00000100
00000000
00001001
00000000
00000100
00000000
00000001
00000001
,
00000001
00001001
00000100
00001100
,
00010000
00000000
00011000
00000000
00010000
00000000
01000000
01000000
,
10000000
10000000
10000000
01000000
00000000
00010000
00000000
00002000
,
00000000
00000000
00000000
00000000
00000000
00003000
00000000
00000000
,
00000100
00000100
00000100
00000001
00000000
00000010
00000000
00000200
,
00000000
00000000
00000000
00000300
,
00010000
00001000
00010000
00000000
01000000
00000000
10000000
00100000
,
10000000
01000000
10000000
00000000
00010000
00000000
00000000
00000000
,
01000000
00010000
01000000
00000000
00010000
00000000
10000000
01000000
,
00010000
00000000
00000000
00000000
,
00001000
00010000
00001000
00000000
00000100
00000000
00000001
00000010
,
00000001
00000100
00000001
00000000
00001000
00000000
00000000
00000000
,
00000100
00001000
00000100
00000000
00001000
00000000
00000001
00000100
,
00001000
00000000
00000000
00000000
,
00001000
00010000
01000000
00000000
10000000
00000000
01000000
00000000
,
01000000
00010000
00001000
00000000
00000100
00000000
00000001
00000000
,
00000001
00000100
00001000
00000000
00010000
00000000
01000000
00000000
,
10010000
00000000
00000000
00000000
,
10000000
10000000
10000000
01000000
00000000
00010000
00000000
00002000
,
00000000
00000000
00000000
00003000
,
00000100
00000100
00000100
00000001
00000000
00000010
00000000
00000200
,
00000000
00000000
00000000
00000300
,
00000110
00000000
00001001
00000000
00000001
00001000
00000000
00000001
,
00001000
00000100
00010000
00001000
,
00011000
00000000
01001000
00000000
01000000
00010000
00000000
01000000
,
00010000
00100000
01000000
10000000
,
01000000
00000000
10000000
00000000
00000000
10010000
00000000
00000000
,
01000000
00000000
00010000
00000000
00000000
00011000
00000000
00000000
,
00000100
00000000
00000001
00000000
00000000
00001001
00000000
00000000
,
00000100
00000000
00001000
00000000
00000000
00010000
00001000
00000000
,
00011000
00000000
00000000
00000000
;

//---------------dance-double - ----------------
#NOTES:
     dance-double:
     :
     Hard:
     7:
     :
00000000
00000000
00000000
00000000
,
00000000
00000000
00000000
00000000
,
00000000
00000000
00000000
00000000
,
00000000
00000000
00000000
00000000
,
00000000
00000000
00000000
00000000
,
00001000
00010000
00001000
00000100
00000001
00001000
00000100
00010000
,
00001000
00010000
01000000
10000000
00010000
10000000
00100000
01000000
,
00001000
00010000
00100000
01000000
00010000
01000000
00001000
00010000
,
00001000
00000100
00000001
00001000
00000001
00000010
00000001
00000100
,
00000001
00000010
00000100
00010000
00000000
00010000
00000000
00001000
,
00000000
00101000
00010100
01001000
,
00010000
00001000
00000100
00000001
00000000
00000001
00000000
00001000
,
00000000
00000101
00001100
00001001
,
00000100
00010000
00001000
00010000
00100000
10000000
01000000
00000000
,
00010000
00000100
00001000
00000000
00000110
00000000
00001100
00000000
,
00010000
00001000
00100000
00010000
01000000
00001000
00100000
00000000
,
00010000
10000000
01000000
00000000
10010000
00000000
01100000
00000000
,
00010000
01000000
00010000
01000000
00010000
00100000
00010000
00000000
,
01000000
00100000
00010000
00000000
00011000
00000000
00010100
00000000
,
00001000
00000100
00000010
00001000
00000100
00001000
00000001
00000000
,
00001000
00000100
00010000
00000000
00010100
00000000
01001000
00000000
,
00010000
01000000
00010000
00100000
01000000
00100000
01000000
00100000
,
00001000
00010000
00001000
00010000
00001000
00000100
00000001
00000010
,
00000001
00001000
00000100
00001000
00000100
00001000
00000010
00010000
,
00001000
00010000
00001000
00010000
01000000
10000000
00010000
00100000
,
01000000
00100000
01000000
00100000
00000000
00001000
00000000
00010000
,
00000000
00011000
00010100
00001010
,
00000100
00000001
00001000
00000010
00000000
00000100
00000000
00000001
,
00000000
00000110
00001100
00000101
,
00001000
00000001
00000100
00000000
00000010
00010000
00001000
00000000
,
00010000
00000100
00001000
00000000
00000100
00010000
00001000
00000000
,
01000000
00100000
00010000
00000000
00100000
10000000
00010000
01000000
,
10010000
00000000
00000000
00000000
,
01000000
00010000
00100000
00000000
00001000
00010000
00000100
00000000
,
00000010
00000001
00000100
00000000
00001000
00010000
01000000
00000000
,
00100000
10000000
00010000
00000000
01000000
00010000
00100000
01000000
,
10010000
00000000
00000000
00000000
,
01000000
00100000
01000000
10000000
01000000
00100000
01000000
00010000
,
00100000
00001000
00010000
00001000
01000000
00001000
00010000
00001000
,
00100000
00001000
00000100
00000001
00000010
00000001
00001000
00000001
,
00000100
00000000
00000000
00000000
,
00000001
00000100
00001000
00010000
00000000
00001000
00000000
00000100
,
00000000
00001100
00011000
01010000
,
00100000
10000000
00010000
01000000
00000000
00100000
00000000
01000000
,
00000000
01100000
11000000
01010000
,
10010000
00000000
10000000
00000000
01000000
00010000
00000000
00001000
,
00010000
00011000
00010100
00001010
,
00001001
00000000
00001100
00000000
00000001
00000100
00000000
00001000
,
00010000
00011000
01001000
00110000
,
01100000
00000000
10010000
00000000
10000000
01000000
00010000
00000000
,
01000000
10000000
00100000
00000000
01000000
00001000
00010000
00000000
,
00011000
00000000
00010100
00000000
00001000
00000100
00010000
00000000
,
00001000
00000100
00000010
00001000
00000001
00000010
00000100
00001000
,
00001001
00000000
00000000
00000000
;
