#TITLE:Power 5 (On the Floor Mix);
#ARTIST:Midihead;
#BANNER:Power 5 (On the Floor Mix).png;
#BACKGROUND:Power 5 (On the Floor Mix)-bg.png;
#MUSIC:Power 5 (On the Floor Mix).ogg;
#SAMPLESTART:49.636;
#SAMPLELENGTH:15;
#DISPLAYBPM:131:142;
#BPMS:0=131.507,20=142.292,28=142.003,44=142.592,52=142.857,56=142.012,64=142.236,104=142.258,108=141.985,144=142.012,160=141.949,180=142.297,208=141.698,212=135.882,216=140.625,220=139.535,224=140.078,228=140,312=139.933,372=141.732,376=139.987,424=140.075,476=139.535,484=140,512=140.625,515=123.408,516=137.405,520=135.338,524=134.989,588=134.998,660=135.014;

//---------------dance-single - ----------------
#NOTES:
     dance-single:
     :
     Beginner:
     1:
     :
0000
0000
0000
0000
,
0000
0000
0000
0000
,
0000
0000
0000
0000
,
0000
0000
0000
0000
,
0000
0000
0000
0000
,
1000
0000
0000
0000
,
0000
0000
0000
0000
,
0001
0000
0000
0000
,
0000
0000
0000
0000
,
0010
0000
0000
0000
,
0000
0000
0000
0000
,
0100
0000
0000
0000
,
0000
0000
0000
0000
,
0010
0000
0010
0000
,
0010
0000
0010
0000
,
0100
0000
0100
0000
,
0100
0000
0100
0000
,
0001
0000
0001
0000
,
0001
0000
1000
0000
,
0001
0000
0010
0000
,
0100
0100
0100
0100
,
0100
0000
0000
0000
,
0010
0000
0000
0000
,
1000
0000
0000
0000
,
0001
0000
0000
0000
,
1000
0000
0000
0000
,
0010
0000
0000
0000
,
0100
0000
0100
0000
,
0100
0100
0100
0100
,
0100
0100
0000
0000
,
0010
0000
0010
0000
,
0001
0001
0000
0000
,
1000
0000
1000
0000
,
0010
0010
0000
0000
,
1000
0000
1000
0000
,
0001
0001
0000
0000
,
0001
0000
0001
0000
,
0100
0100
0000
0100
,
0000
0100
0000
0100
,
0000
0010
0000
0010
,
0000
0010
0000
1000
,
0001
0001
0000
0001
,
0000
0001
0000
0100
,
0100
0100
0100
0100
,
0100
0000
0010
0000
,
0110
0000
0000
0000
,
1000
1000
1000
0000
,
0001
0001
0001
0000
,
0100
0000
0100
0000
,
0110
0000
0000
0000
,
0001
0001
0001
0000
,
0010
0010
0010
0000
,
0100
0100
0100
0000
,
0100
0000
0100
0000
,
0020
0000
0000
0000
,
0000
0000
0030
0000
,
0001
0000
0010
0000
,
1000
0000
0010
0000
,
0200
0000
0000
0000
,
0000
0000
0300
0000
,
0110
0000
0000
0000
,
0000
0000
0000
0000
,
0100
0000
0000
0000
,
0001
0000
0000
0000
,
1000
0000
0000
0000
,
0100
0000
0000
0000
,
1000
0000
0000
0000
,
0001
0000
0000
0000
,
1000
0000
0000
0000
,
0001
0000
0000
0000
,
0100
0000
0100
0000
,
0100
0000
0000
0000
,
0001
0000
0001
0000
,
0001
0000
0000
0000
,
1000
0000
1000
0000
,
1000
0000
0000
0000
,
1001
0000
0000
0000
,
1001
0000
0000
0000
,
0001
0000
0000
0000
,
1000
0000
0000
0000
,
0010
0000
0000
0000
,
0010
0000
0000
0100
,
0100
0000
0000
0000
,
0001
0000
0000
0000
,
1000
0000
0000
0000
,
1000
0000
0000
0010
,
0010
0000
0000
0000
,
0010
0000
0000
0000
,
0001
0000
0000
0000
,
1000
0000
0000
0100
,
0100
0000
0000
0000
,
0100
0000
0000
0000
,
0200
0000
0000
0300
,
0100
0100
0100
0000
,
1000
0000
0000
0000
,
0001
0000
0010
0000
,
0100
0000
0000
0000
,
0010
0010
0010
0000
,
1000
0000
0000
0000
,
0001
0000
0010
0000
,
1000
0000
1000
0000
,
0010
0010
0010
0010
,
0010
0000
0100
0100
,
0100
0000
0001
0001
,
0001
0000
1000
0000
,
0100
0000
1000
0000
,
0010
0000
0100
0100
,
0100
0000
0001
0001
,
0001
0000
0010
0000
,
0100
0000
0000
0000
,
0100
0000
0010
0010
,
0010
0000
1000
1000
,
1000
0000
0001
0000
,
0010
0000
0001
0000
,
0100
0000
0010
0010
,
0010
0000
1000
1000
,
1000
0000
0100
0000
,
0010
0000
0001
0001
,
0001
0000
1000
0000
,
0010
0000
0100
0000
,
0110
0000
0000
0000
,
1000
1000
1000
0000
,
0001
0000
0010
0000
,
0100
0100
0100
0000
,
0010
0000
0001
0000
,
0001
0001
0001
0000
,
1000
0000
0010
0000
,
0100
0100
0100
0000
,
0010
0000
1000
0000
,
0001
0000
0000
0000
,
0100
0100
0000
0000
,
0010
0000
0000
0000
,
0001
0001
0000
0000
,
1000
0000
0100
0000
,
0001
0001
0000
0000
,
0100
0000
0010
0000
,
0100
0100
0100
0000
,
0001
0000
0000
0000
,
1000
0000
0010
0000
,
0100
0000
0000
0000
,
0100
0000
0100
0000
,
0001
0000
0010
0000
,
0100
0000
0000
0000
,
1000
0000
0001
0000
,
1000
1000
1000
1000
,
1000
0000
0010
0000
,
0100
0000
0010
0000
,
0001
0000
0010
0000
,
0001
0000
0100
0000
,
1000
1000
0000
0000
,
0001
0001
0000
0000
,
0020
0000
0000
0000
,
0000
0000
0000
0030
,
0010
0000
0000
0000
,
0100
0000
0000
0000
,
0001
0000
0000
0000
,
1000
0000
0000
0000
,
0010
0000
0100
0000
,
0001
0000
0010
0000
,
0100
0000
1000
0000
,
0001
0000
0000
0000
,
1000
0000
0010
0000
,
0100
0100
0000
0000
,
0001
0000
0100
0000
,
0010
0010
0000
0000
,
0100
0000
1000
0000
,
0001
0001
0000
0000
,
0010
0000
0100
0000
,
1000
1000
0000
0000
,
0001
0000
0000
0000
,
0001
0001
0001
0000
,
1000
0000
0000
0000
,
1000
0000
0001
0000
,
0100
0000
0000
0000
,
0100
0100
0100
0000
,
0100
0000
0000
0000
;

//---------------dance-single - ----------------
#NOTES:
     dance-single:
     :
     Easy:
     3:
     :
0000
0000
0000
0000
,
0000
0000
0000
0000
,
0000
0000
0000
0000
,
0000
0000
0000
0000
,
0000
0000
0000
0000
,
1000
0100
1000
0010
,
0100
0000
0010
0000
,
0001
0010
0100
0010
,
0001
0000
1000
0000
,
0010
0100
0010
1000
,
0100
0000
0010
0000
,
0001
1000
0001
0100
,
0010
0010
0010
0000
,
0100
0001
0100
0010
,
1000
0100
0010
0000
,
0001
1000
0001
0100
,
0001
0010
0100
0000
,
0010
1000
0100
0010
,
0001
0100
0010
0000
,
1000
0001
1000
0001
,
1000
1000
0001
0001
,
1001
0000
0000
0000
,
1001
0000
0000
0000
,
1001
0000
0000
0000
,
0010
1000
0100
0010
,
0001
0100
0010
1000
,
0100
0010
0001
0010
,
0100
0000
0010
0000
,
1000
0100
1000
0010
,
0200
0300
0020
0030
,
0001
1000
0010
0100
,
0001
0001
1000
1000
,
0001
0001
1000
0010
,
0200
0300
0002
0003
,
0100
1000
0010
0100
,
0010
0010
1000
1000
,
0001
0001
0100
0100
,
0020
0030
0200
0300
,
1000
0001
0100
0010
,
1000
1000
0001
0001
,
1000
1000
0010
0100
,
0020
0030
2000
3000
,
0010
0001
0100
0010
,
1001
1001
0100
0001
,
1000
0100
0010
0000
,
0110
0110
0010
0100
,
0001
0010
0000
0000
,
2000
0000
3002
0000
,
0103
0100
0010
0000
,
0110
0110
0010
0100
,
1000
0010
0000
0000
,
0002
0000
2003
0000
,
3010
0010
0100
0010
,
1000
0000
0001
0000
,
1000
0100
1000
0000
,
0001
0100
0001
0000
,
0100
0010
0100
0000
,
0010
0010
0010
0100
,
0020
0000
0000
0000
,
0000
0000
0000
0030
,
0100
0100
0100
0100
,
0001
0010
0100
0000
,
1000
0000
0100
0000
,
1000
0000
0001
0000
,
0010
0000
0001
0000
,
0200
0000
0000
0300
,
0001
0000
1000
0000
,
0010
0000
1000
0000
,
0020
0000
0000
0030
,
2000
0000
0000
3000
,
0001
0000
0100
0000
,
0001
0000
1000
0000
,
0010
0000
1000
0000
,
0200
0000
0000
0300
,
1000
0000
0010
0000
,
0100
0000
0001
0000
,
0100
0000
0010
0000
,
1000
0000
0001
0000
,
1000
0000
0010
0000
,
0100
0100
0100
0000
,
0001
0000
1000
0000
,
0100
0010
0100
0000
,
0001
0000
0010
0000
,
0100
0100
0100
0000
,
1000
0000
0010
0000
,
0100
0010
0100
0000
,
0001
0000
1000
0000
,
0001
0001
0001
0000
,
1000
0001
1000
0000
,
0100
0000
1000
0000
,
0010
0010
0010
0000
,
0100
0010
0100
0000
,
2002
0000
0000
3003
,
0000
0000
0000
0000
,
1000
0010
1000
0100
,
0010
0001
0010
0100
,
1000
0001
0100
0010
,
0010
0010
0100
0000
,
0001
0010
0001
0100
,
0010
0010
0010
0010
,
0100
0010
1000
0001
,
1001
0000
0000
0000
,
1000
0100
0010
0001
,
0010
0001
0100
0010
,
1000
0000
0001
0010
,
0100
1000
0010
0100
,
0010
1000
0001
1000
,
0010
0100
0010
0100
,
0002
0003
2000
3000
,
0010
0010
0010
0000
,
0001
0010
0100
1000
,
0100
1000
0010
0100
,
0001
0000
1000
0100
,
0010
0001
0100
0010
,
0100
0001
1000
0001
,
0100
0010
0100
0010
,
2000
3000
0002
0003
,
0100
0100
0100
0000
,
0010
0000
0110
0000
,
0100
0000
0110
0000
,
1001
0001
0001
0000
,
0001
0100
0010
0000
,
0000
0010
0010
0010
,
1000
0010
0100
0000
,
0001
0001
0010
0100
,
1000
0001
0100
0000
,
0000
0010
0010
0100
,
0001
1000
0010
0100
,
0001
0000
1000
0000
,
0001
0000
1000
0000
,
0100
0100
0100
0010
,
0001
0000
1000
0000
,
0100
0100
0100
0010
,
0001
0000
1000
0000
,
0010
0010
0010
0100
,
0001
0000
1000
0000
,
1000
0100
0010
1000
,
0001
1000
0010
0100
,
0001
0100
1000
0100
,
0001
1000
0100
0010
,
1000
0100
0001
0100
,
1000
0010
0100
0001
,
1001
0000
0110
0000
,
0002
0000
0000
0000
,
0000
1000
0000
1003
,
0200
0310
0000
0000
,
0010
1000
0001
0100
,
0020
1030
0000
0000
,
0100
0010
0001
1000
,
0002
1003
2000
3010
,
0020
0130
0200
0310
,
2002
0000
0000
0000
,
0000
0000
0000
0000
0000
0000
0000
0000
0000
0000
0000
0000
0000
0000
0000
0000
0000
0000
0000
0000
0000
0000
0000
0000
0000
0000
0000
0000
0000
0000
0000
0003
3000
0000
0000
0000
0000
0000
0000
0000
0000
0000
0000
0000
0000
0000
0000
0000
0000
0000
0000
0000
0000
0000
0000
0000
0000
0000
0000
0000
0000
0000
0000
0000
,
1000
0100
0001
0000
,
1000
0100
0001
0000
,
0001
0100
1000
0000
,
0001
0100
1000
0000
,
0010
1000
0100
0000
,
0010
0001
0100
0000
,
0010
1000
0100
0000
,
0110
0000
0000
0000
,
1000
0100
1000
0010
,
1000
0001
1000
0100
,
0001
0100
0001
0010
,
0001
1000
0001
0010
,
0200
1300
0010
0100
,
0002
0013
0100
0001
,
0200
0310
2000
3001
,
0020
0130
0002
1003
,
1001
0100
0200
0010
,
0300
0000
0001
1000
,
0200
0000
0300
0000
,
0001
0010
1000
0000
,
1001
0100
0100
0100
,
0001
0200
0000
0000
,
0310
0000
0000
0000
;

//---------------dance-single - ----------------
#NOTES:
     dance-single:
     :
     Medium:
     6:
     :
0000
0000
0000
0000
,
0000
0000
0000
0000
,
0000
0000
0000
0000
,
0000
0000
0000
0000
,
0000
0000
0000
0000
,
1001
0000
0000
0000
,
0010
1000
0100
0001
,
0020
0100
0100
0130
,
1000
0010
0001
1000
,
1001
0000
0000
0000
,
0100
0001
0010
1000
,
0200
0010
0010
0310
,
0001
0100
1000
0001
,
0110
1000
0110
0001
,
1100
0010
1100
0001
,
0110
1000
0110
0001
,
0100
0010
1000
0001
,
1001
0100
1001
0010
,
0101
0010
0101
1000
,
1001
0010
1001
0100
,
2000
3200
0320
0032
,
0103
0001
0010
0000
0100
0000
0010
0000
,
1000
0001
0100
0000
0010
0000
0010
0000
,
1000
0100
0010
0000
0001
0000
0100
0000
,
0020
1030
0100
0010
,
1000
0010
0100
0000
0001
0000
0100
0000
,
0010
0100
1000
0000
0010
0000
1000
0000
,
0001
1000
0001
0000
0100
0000
0010
0000
,
1001
0000
1001
0000
1000
0001
1000
0001
,
1000
0000
0100
0000
0010
0100
0000
0100
,
1000
0000
1000
0010
0000
0100
0000
0000
,
0001
0100
0001
0000
1000
0100
1000
0000
,
0010
0100
0010
0000
0010
0100
0010
0000
,
0110
0000
0110
0000
0000
1000
0000
0001
,
0010
0000
0010
0100
0000
1000
0000
0000
,
0020
0000
0000
0000
,
0100
0100
0100
0130
,
1000
0000
0010
0000
0100
0001
0000
0001
,
0010
0000
0010
0100
0000
0010
0000
0000
,
0001
0010
0100
0000
1000
0010
0100
0000
,
0001
1000
0001
0000
0001
1000
0001
0000
,
1001
0000
1001
0000
0000
0100
0000
0100
,
0010
0000
0001
0100
0000
1000
0000
0000
,
1100
0110
0011
0011
,
0001
0010
0100
0010
1000
0010
0100
0001
,
2000
0100
0100
3100
,
0002
0000
0100
0000
0100
0000
0103
0010
,
2000
3020
2030
3020
,
1030
0001
0100
0010
0100
0001
0010
0000
,
0200
1000
1000
1300
,
0020
0000
0001
0000
0001
0000
0031
0010
,
0200
0302
0203
0302
,
1003
0100
0010
0001
0100
0010
0100
0020
,
0000
0030
0000
0000
0200
0000
0000
0000
,
0310
0000
0000
0000
0010
0100
0000
0000
0001
0000
0000
0000
0001
0000
0000
0000
,
1000
0000
0000
0000
1000
0010
0000
0000
0100
0000
0000
0000
0100
0000
0000
0000
,
0002
0100
0023
0001
,
0130
0100
0011
0000
,
2200
0000
0000
3300
,
0000
0000
0000
0000
,
0000
0000
0000
0000
,
0000
0000
0000
0000
,
0100
0010
0100
0010
,
0100
1000
0100
0010
,
0100
0000
0001
0100
0000
0000
0000
0000
,
1100
0000
0011
0000
,
0100
0001
0100
0010
,
0100
0000
1000
0000
0100
0000
0001
0100
,
0000
0000
0110
0000
,
1000
0010
0100
0000
,
0001
0100
1000
0100
,
0001
0100
0010
1000
,
0010
0000
1000
0100
0000
0000
0010
0000
,
0001
1001
1000
1001
,
0001
0100
1000
0000
0100
0000
0001
0000
,
1000
0100
0001
0000
0100
0000
1000
0000
,
0010
0100
0001
1000
,
0010
0100
0001
1000
,
1000
0010
0000
0100
0001
0000
0010
0000
,
0100
1100
0001
0101
,
1000
0100
0000
0001
0100
0000
0010
0000
,
1000
1100
0001
0011
,
0010
0100
0000
0001
1000
0000
0100
0000
,
0010
0011
0100
1100
,
1000
0100
0000
0010
0100
0000
0001
0000
,
0100
1001
0010
1010
,
1000
0100
0010
0000
0100
0000
0100
0000
,
0001
0100
1000
0001
,
0001
0010
0100
0000
0010
0000
0010
0000
,
1000
0010
0001
1000
,
1000
0100
0010
0000
0100
0000
0100
0000
,
0001
0010
0100
0000
0010
0000
0010
0000
,
2002
0000
0000
3003
,
1000
0100
0010
1000
0010
0100
0001
0000
,
1001
0000
0011
0000
1000
0100
0010
0000
,
1001
0000
1010
0000
0001
0100
0010
0000
,
1000
0101
1000
0101
,
0001
0000
1000
0000
0010
0100
0001
0000
,
1000
0100
0001
0100
0010
0000
0010
0000
,
0100
1000
0010
0100
0010
0000
0010
0000
,
1010
0011
0101
1100
,
2002
0000
0000
0000
3003
0000
1000
0001
,
0100
0000
0010
0000
1000
0100
1000
0010
,
0100
0000
0001
0000
1000
0001
1000
0100
,
0010
0100
0010
1000
,
0001
0200
0000
0000
,
0000
0310
0100
0001
,
1000
0100
0010
1000
,
0100
1000
0010
0000
0100
0001
0010
0000
,
2000
0000
0010
0000
0001
0000
3010
1000
,
0100
0000
0010
0000
1000
0100
0010
0001
,
0100
0000
1000
0000
0010
0100
0001
0010
,
0100
0010
1000
0001
,
0100
0020
0000
0000
,
0000
0130
1000
0010
,
0001
1000
0010
0100
,
0001
1000
0100
0000
1000
0001
0100
0000
,
0110
0000
0000
0000
1000
0001
1000
0000
,
0110
0000
1001
0000
,
1010
0000
0011
0000
,
1000
0001
0000
0000
0100
0000
0000
0000
0100
0000
0000
0000
0100
0000
0000
0000
,
0010
0010
0010
0000
0100
0000
1000
0000
,
0000
0002
2003
3020
,
0130
0100
0100
0000
0001
0000
1000
0000
,
0010
0100
0010
0110
,
1000
1000
1000
0000
0001
0000
0010
0000
,
0000
0200
2300
3020
,
0130
0100
0100
0000
0001
0000
1000
0000
,
0010
1000
0001
1001
,
2000
0000
0000
0010
0010
0000
3000
0000
,
0100
0000
0001
0000
0010
0000
0001
0100
,
0002
0000
0000
0100
0100
0000
0003
0000
,
0010
0000
1000
0000
0100
0000
1000
0010
,
0200
0000
0000
0001
0001
0000
0300
0000
,
1000
0000
0100
0010
0001
0000
1000
0000
,
0020
0000
0000
1000
1000
0000
0030
0000
,
2002
0000
0000
3003
,
0010
0010
0010
0010
,
0100
0002
1003
0000
,
0010
0010
0010
0010
,
1000
0200
0301
0000
,
0100
0000
0100
0000
0100
0000
0100
0010
,
1000
0020
0130
0000
,
0100
0100
0100
0100
,
0001
0000
1000
0000
1001
0100
0010
0000
,
1000
0100
1000
0000
0001
0000
1000
0000
,
0010
0000
0100
0000
0010
1000
0100
0000
,
0001
0100
0001
0000
1000
0000
0001
0000
,
0200
0000
0010
0310
,
1000
0100
1000
0000
0110
0000
0000
0000
,
0001
0100
0001
0000
0210
0000
0000
0000
,
0010
0000
0010
0300
,
0010
1000
0100
0010
0001
1000
0100
0000
,
1000
0010
0100
0001
,
1000
0100
0010
0000
0010
0000
0010
0000
,
0100
0001
1000
0010
,
0100
0010
1000
0000
1000
0000
1000
0000
,
0010
0001
0010
0100
,
1000
0100
0010
0000
0010
0000
0010
0001
,
0100
0010
1000
0100
,
1000
0000
0000
0010
0000
0000
0001
0000
0000
0000
0000
0000
0000
0000
0000
0000
,
1000
0100
0010
0000
1000
0100
0010
0000
,
2000
0010
0001
3010
,
0001
0100
0010
0000
0001
0100
0010
0000
,
0220
0000
0000
0330
,
1000
0001
0100
0000
1000
0001
0100
0000
,
0020
1000
0100
1030
,
0001
1000
0010
0000
0001
1000
0010
0000
,
2002
0000
0000
3003
,
0110
0000
0000
0000
,
0010
1000
0100
0001
,
0020
0000
0000
0030
,
1100
0001
0001
0001
,
0110
0000
0000
0000
,
0100
0001
0010
1000
,
0100
0000
0000
0000
;

//---------------dance-single - ----------------
#NOTES:
     dance-single:
     :
     Hard:
     8:
     :
0000
0000
0000
0000
,
0000
0000
0000
0000
,
0000
0000
0000
0000
,
0000
0000
0000
0000
,
0000
0000
0000
0000
,
1000
0100
2000
0000
0000
0000
0000
0000
0000
0000
0000
0000
0000
0000
0000
0000
,
0000
0000
0000
3000
,
0010
0100
0020
0000
0000
0000
0000
0000
0000
0000
0000
0000
0000
0000
0000
0000
,
0000
0000
0000
0030
,
0100
0001
0200
0000
0000
0000
0000
0000
0000
0000
0000
0000
0000
0000
0000
0000
,
0000
0000
0000
0300
,
0001
0010
0002
0000
0000
0000
0000
0000
0000
0000
0000
0000
0000
0000
0000
0000
,
0000
0000
0000
0003
,
1000
1100
1000
1100
,
1000
0000
0000
0000
1100
0000
0000
0000
1000
0000
0000
0000
0010
0100
0010
0000
,
0001
0101
0001
0101
,
0001
0000
0000
0000
0101
0000
0000
0000
0001
0000
0000
0000
0100
0010
0100
0000
,
1000
1010
1000
1010
,
1000
0000
0000
0000
1010
0000
0000
0000
1000
0000
0000
0000
0010
0100
0010
0000
,
0001
0011
0001
0011
,
0001
0000
0000
0000
0011
0000
0000
0000
0001
0000
0000
0000
0010
0100
0010
0100
,
1000
1100
1000
0101
,
0001
0000
0000
0000
1100
0000
0000
0000
1000
0000
0000
0000
0101
0000
0000
0010
,
0001
1010
1000
0011
,
0001
0000
0000
0000
1010
0000
0000
0000
1000
0000
0000
0000
0011
0000
0000
0100
,
0001
1100
1000
0101
,
0001
0000
0000
0000
1100
0000
0000
0000
1000
0000
0000
0000
0110
0000
0000
0001
,
1000
1100
0100
0101
,
0001
0011
1010
1100
,
1002
0000
0000
0000
0000
1003
0000
0001
,
0100
0000
0100
0001
0000
0100
0000
2002
,
0000
0000
3003
0000
0000
0000
0010
0000
0001
1000
0001
1000
0000
0000
0100
0000
,
1000
0001
1000
0001
0000
0000
1000
0000
0010
0100
0010
0100
0000
0000
0100
0000
,
2002
0000
0000
0000
3003
0100
0000
1000
,
0100
0000
0100
1000
0000
0100
0000
0010
,
0100
0000
0000
0100
0000
0000
1000
0000
0001
0000
0000
0001
0000
0000
1000
0000
,
0010
0000
0000
0010
0000
0000
0100
0000
0001
0000
0000
0001
0000
0000
0010
0000
,
2002
0000
0000
0000
3003
0100
0000
0100
,
0001
0000
0001
0100
0000
0001
0000
1000
,
0100
1000
0100
0000
1000
0001
1000
0001
0000
1000
0100
0000
0010
0100
0010
0100
,
0000
0010
0001
0000
1000
0001
1000
0001
0000
1000
0001
0000
1000
0000
0000
0000
,
2002
0000
0000
0000
3003
0010
0000
0010
,
0100
0000
0100
0010
0000
0100
0000
0010
,
1000
0100
1000
0100
0001
0100
0001
0100
,
1000
0100
0000
1000
0001
0000
0100
0001
0000
1000
0001
1000
0001
0000
0000
0000
,
0010
0001
0010
0000
0001
0010
0001
0000
1000
0001
1000
0000
0001
1000
0001
0000
,
1000
0100
1000
0000
0100
1000
0100
0000
0010
0100
0010
0000
0100
0010
0100
0000
,
2000
0001
0100
3100
,
2002
0000
0000
3003
,
0010
0100
0010
0000
0100
0010
0100
0000
0010
0001
0010
0000
0001
0010
0001
0000
,
1000
0001
1000
0000
0001
1000
0001
0000
1000
0100
1000
0000
0100
1000
0100
0000
,
2000
0010
0001
3001
,
0220
0000
0000
0330
,
1000
0101
0000
0000
1001
0000
0010
0000
,
2200
0000
3300
0001
,
0100
0020
0000
1000
0000
0100
0000
1030
,
0010
0200
0000
0300
0100
0002
0000
0003
,
0001
2000
0000
3000
1000
0200
0000
0300
,
0110
0022
0000
0033
,
1010
0220
0000
0330
,
0101
0022
0000
0033
,
1100
2020
0000
3030
,
0001
1000
0010
1000
0010
0000
0000
0000
,
0200
0010
0001
0310
,
1000
0001
0100
0001
0100
0000
0000
0000
,
1100
0000
0011
0000
,
0001
0010
0100
0010
0100
0000
0000
0000
,
2000
0100
0001
3100
,
1000
0001
0010
0001
0010
0000
0000
0000
,
0220
0000
0000
0330
,
0010
0001
0200
0000
0000
0000
0010
0000
,
0302
0100
1000
0103
,
1000
0010
0200
0000
0000
0000
1000
0000
,
0320
0100
0001
0130
,
0001
1000
0020
0000
0000
0000
0001
0000
,
2030
0001
0100
3001
,
0100
0001
0100
0000
0010
1000
0010
0000
,
0011
0000
0110
0000
,
0010
0001
0000
0010
1000
0000
0010
0001
,
0100
1000
0000
0100
0001
0000
0010
0100
,
1000
0100
0000
0001
0010
0000
1000
0010
,
0110
0000
1001
0000
,
0001
1000
0000
0010
0100
0000
0001
0010
,
1000
0010
0000
0001
0100
0000
0010
0100
,
0010
1000
0000
0010
0100
0000
0001
1000
,
1100
0000
0101
0000
,
0100
1000
0010
0000
0100
0010
0100
0000
,
0001
1000
0010
0000
0100
1000
0100
0000
,
0100
0101
0100
0101
,
0010
1010
0010
1010
,
0001
1000
0001
0100
0010
1000
0001
0000
,
0100
0010
0100
1000
0100
0001
0010
0100
,
0020
0001
0100
1030
,
0001
0000
0100
0000
1000
0000
0100
0000
0001
0000
1000
0000
0001
1000
0001
1000
,
0001
0100
0010
0100
0001
1000
0100
0000
,
1000
0100
0010
0100
1000
0001
0100
0000
,
0001
0100
0010
0100
0001
0010
0100
1000
,
0010
0100
0010
1000
0001
0100
0001
0000
,
1000
0100
0000
0100
1000
0000
0000
0000
0100
0000
0010
0000
0001
0000
0000
0000
,
0010
0001
0000
0001
0010
0000
0100
0000
1000
0000
0010
0000
1000
0000
0000
0000
,
0010
1000
0000
1000
0010
0000
0100
0001
0000
0001
0100
0000
0001
0000
1000
0000
,
0100
0000
0010
0000
0100
0000
0010
0000
0001
0000
1000
0100
1000
0000
0001
0000
,
0100
0010
1000
0010
0001
0010
0100
1000
,
0100
0001
0010
0100
1000
0100
0001
0100
,
0010
0001
0010
1000
0001
0100
1000
0010
,
0100
0001
0010
0000
0100
0010
1000
0100
,
0010
0000
0001
1000
0100
0010
0001
0100
,
0010
0000
0100
0000
0001
0000
0010
0000
0100
0000
1000
0000
0001
0000
0100
1000
,
0000
0000
0100
0000
0001
0000
1000
0100
0000
0000
0001
0000
0100
0000
1000
0000
,
0010
0000
0000
0100
0001
0000
1000
0100
0000
0010
0001
0000
1001
0000
0000
0000
,
0001
0100
1000
0100
0001
0100
1000
0000
,
0001
0000
1000
0010
1000
0100
1000
0000
,
0001
1000
0000
0000
0001
0000
0100
0000
0001
0000
0010
0000
0001
0000
0000
0000
,
1000
0100
0001
0100
1000
0001
0100
1000
,
0001
0000
1000
0100
0001
1000
0100
0010
,
0001
1000
0001
0100
0001
1000
0010
0100
,
0001
0010
0100
1000
0100
0010
0001
1000
,
2002
3000
0100
1003
,
0202
0303
2200
3300
,
2020
3030
0022
0033
,
2001
0100
3100
0110
,
0010
0001
1000
0001
0100
0000
0010
0000
,
1010
0002
0203
2300
,
3100
0010
0100
0000
0001
1000
0001
0000
,
0010
0100
0010
0000
0001
1000
0010
0000
,
0001
0010
0100
0010
1000
0000
0001
0000
,
0011
2000
3200
0302
,
0103
0010
0100
0000
1000
0001
1000
0000
,
0100
1000
1000
0000
0001
0100
0010
0000
,
2000
0000
3000
1000
0020
0000
0030
0010
,
0100
0000
0000
0100
0000
0000
0100
0000
0001
0000
0000
0001
0000
0000
0001
0000
,
2000
0000
3000
1000
0200
0000
0300
0100
,
0020
0000
0000
0001
0030
0000
0001
0000
0200
0000
0000
0010
0300
0000
0010
0000
,
2000
0000
3000
0100
0002
0000
0003
0100
,
2000
0000
0000
0010
3000
0000
0001
0000
0020
0000
0000
0100
0030
0000
0001
0000
,
2000
0000
3000
0001
0020
0000
0030
0100
,
1000
0010
1000
0100
0010
0001
0100
0001
,
0020
0000
0000
1000
1000
0000
0000
0100
,
0130
0010
0001
0000
1000
0100
0010
0001
,
0100
0000
0011
0000
0100
1000
0010
0000
,
0100
0000
1010
0000
0100
0001
0010
0001
,
0200
0000
0000
1000
1000
0000
0000
0010
,
0310
1000
0001
0000
0100
0001
1000
0100
,
0010
0000
1100
0000
0010
1000
0100
0000
,
0010
0000
0101
0000
0010
0001
0100
0010
,
1000
0001
1000
0000
0001
1000
0001
0000
,
0101
0000
0001
0100
0000
0100
0001
0000
,
1001
0100
0001
0000
1000
0100
1000
0000
,
0001
0000
0010
0100
0000
0100
1000
0000
,
1001
0100
1000
0000
1000
0001
1000
0000
,
1001
0100
0001
0001
0000
0001
0010
0100
,
1000
1001
0100
1001
,
0010
1001
0110
1001
,
0002
0000
0003
0001
0200
0000
0300
0100
,
0010
0000
0000
0010
0000
0000
0010
0000
1000
0000
0000
1000
0000
0000
1000
0000
,
0002
0000
0003
0001
0020
0000
0030
0010
,
0200
0000
0000
1000
0300
0000
1000
0000
0020
0000
0000
0100
0030
0000
0100
0000
,
0002
0000
0003
0010
2000
0000
3000
0010
,
0002
0000
0000
0100
0003
0000
1000
0000
0200
0000
0000
0010
0300
0000
1000
0000
,
0002
0000
0003
1000
0200
0000
0300
0010
,
0001
0100
0001
0010
0100
1000
0010
1000
,
0001
0000
0010
0001
0000
0000
0000
0000
1000
0000
0100
1000
0000
0000
0000
0000
,
0001
0000
0100
0001
0000
0000
0010
0000
0001
0000
0000
0000
1100
0000
0000
0000
,
0001
0000
0100
0001
0000
0000
0000
0000
1000
0000
0010
1000
0000
0000
0000
0000
,
0100
0000
1000
0100
0000
0000
1000
0000
0010
0000
0000
0000
0101
0000
0001
0000
,
1000
0000
0100
0010
0000
0000
0001
0000
0100
0000
0010
1000
0000
0000
0100
0000
,
0010
0000
0001
1000
0000
0000
0100
0000
0010
0000
0000
0000
1001
0000
0100
0000
,
0010
0000
0001
0100
0000
0000
0010
0000
1000
0000
0100
0010
0000
0000
0001
0000
,
1000
0000
0100
0010
0000
0001
1000
0000
0100
0000
0001
0000
0100
0000
1000
0000
,
1002
0000
0103
2100
,
0000
3010
0101
1010
,
2002
0000
0000
3003
,
0210
1000
0001
1300
,
0102
0000
0013
0210
,
0000
1300
1010
0101
,
0002
0000
0100
0000
0000
2000
0000
0000
,
0000
0000
3003
0000
;
