#TITLE:Power 2 (Shuffle Mix);
#ARTIST:Stillwind;
#BANNER:Power 2 (Shuffle Mix).png;
#BACKGROUND:Power 2 (Shuffle Mix)-bg.png;
#MUSIC:Power 2 (Shuffle Mix).ogg;
#SAMPLESTART:34.387;
#SAMPLELENGTH:15;
#DISPLAYBPM:111:188;
#BPMS:0=127.66,8=127.886,16=127.66,20=127.208,24=128.114,36=127.208,40=127.886,48=127.208,52=134.296,56=148.797,60=159.961,64=167.442,68=166.707,72=111.111,76=167.442,80=167.183,92=167.053,124=166.777,152=166.924,164=167.247,180=167.031,248=164.921,251.5=188.372,256=167.109,284=166.948,328=167.053,368=166.924,380=167.024,432=166.924,444=163.636,448=168.598,456=166.734,504=167.442,528=166.976,548=166.85,564=186.268,567=187.5,568=161.396,572=158.96,580=160.714,584=160.102,612=159.921,648=159.822,664=127.208,668=160.535,684=158.59,696=158.113,708=157.9,740=158.093,768=157.895,780=155.068;
#STOPS:567=1.247;

//---------------dance-single - ----------------
#NOTES:
     dance-single:
     :
     Beginner:
     1:
     :
0000
0000
0000
0000
,
0000
0000
0000
0000
,
0000
0000
0000
0000
,
0000
0000
0000
0000
,
0000
0000
0000
0000
,
0000
0000
0000
0000
,
0001
0000
0000
0000
,
0000
0000
1000
1000
,
1000
0000
0000
0000
,
0001
0000
0000
0000
,
0100
0000
0200
0000
,
0000
0300
0000
0000
,
0001
0000
1000
0000
,
0001
0000
0000
0000
,
1000
0000
0000
0000
,
0000
0000
0000
0000
,
0001
0000
0000
0000
,
0000
0000
0000
0000
,
1001
0000
0000
0000
,
0010
0000
0001
0000
,
0010
0000
0001
0000
,
0100
0000
0000
0000
,
0100
0000
0000
0000
,
0010
0000
1000
0000
,
0010
0000
1000
0000
,
0100
0000
0000
0000
,
0100
0000
0000
0000
,
1000
0000
0000
0000
,
0001
0000
0000
0000
,
0100
0000
0000
0000
,
0010
0000
0000
0000
,
1000
0000
0100
0000
,
1000
0000
0000
0000
,
0001
0002
0000
0000
,
0003
0000
0000
0000
,
0100
0000
0100
0000
,
0100
0000
0000
0000
,
0010
0000
0010
0000
,
0010
0000
0000
0000
,
1000
0000
1000
0000
,
1000
0000
0000
0000
,
0001
0000
0001
0000
,
0001
0000
0000
0000
,
1000
0000
0100
0000
,
1000
0000
0000
0000
,
0001
0000
0100
0000
,
0001
0000
0000
0000
,
1000
0000
0010
0000
,
1000
0000
0000
0000
,
0001
0000
0000
0000
,
1000
0000
0000
0000
,
0000
0010
0000
0000
0010
0000
0000
0010
,
0000
0010
0000
0000
,
0000
0100
0000
0000
0100
0000
0000
0100
,
0000
0100
0000
0000
,
0000
0001
0000
0000
1000
0000
0000
0001
,
0000
0000
1000
0000
0000
0001
0000
0000
,
1000
0000
0000
0001
0000
0000
0100
0000
,
0100
0000
0001
0000
,
0001
0000
1000
0000
,
1000
0000
0010
0000
,
0010
0000
0100
0000
,
0100
0000
0000
0000
0000
0000
0000
1001
,
0000
0000
0000
0000
,
0010
0000
0000
0000
,
0100
0000
0000
0000
,
0001
0000
0001
0000
,
0001
0000
0000
0000
,
1000
0000
1000
0000
,
1000
0000
0000
0000
,
0010
0000
0010
0000
,
0010
0000
0000
0000
,
0100
0000
0000
0100
,
0100
0000
0000
0001
,
0001
0000
0000
1000
,
1000
0000
0000
0001
,
0001
0000
0000
0010
,
0010
0000
0000
1000
,
1000
0000
1000
0000
,
0001
0001
0001
0000
,
0001
0000
0000
0000
,
0000
0000
1000
1000
,
1000
0000
0000
0000
,
0000
0000
0100
0100
,
0100
0000
0000
0000
,
0000
0000
0010
0010
,
0010
0000
0000
0000
,
0000
0000
0000
0000
,
1001
0000
0000
0000
,
0000
0000
0001
0001
,
0001
0000
0000
0000
,
0000
0000
0100
0100
,
0100
0000
0000
0000
,
0000
0000
0010
0010
,
0010
0000
0000
0000
,
1000
0000
1000
0000
,
0001
0000
0000
0000
,
0010
0000
0010
0000
,
0100
0000
0000
0000
,
1000
0000
1000
0000
,
0001
0000
0000
0000
,
0001
0000
1000
0000
,
1000
0000
0000
0000
,
0100
0000
0010
0000
,
0010
0000
0000
0000
,
0100
0000
0000
0000
,
0001
0000
0000
0000
,
1000
0000
0000
0000
,
0100
0000
0000
0000
,
0010
0000
0010
0000
,
0010
0000
0000
0000
,
0001
0000
0000
0000
,
1001
0000
0010
0000
,
0010
0000
0010
0000
,
0010
0000
0000
0000
,
0100
0000
0000
0000
,
1000
0000
0000
0000
,
0001
0000
0000
0000
,
0010
0000
0000
0000
,
0100
0000
0000
0000
,
1000
0000
0000
0000
,
0001
0000
0000
0000
,
1000
0000
1000
0000
,
1000
0000
0000
0000
,
0001
0000
0001
0000
,
0001
0000
0000
0000
,
1000
0000
1000
0000
,
0001
0000
0001
0000
,
0200
0000
0000
0300
,
0100
0000
0000
0000
,
1001
0000
0000
0000
,
0100
0000
0100
0000
,
0100
0000
0000
0000
,
0010
0000
0010
0000
,
0010
0000
0000
0000
,
1000
0000
1000
0000
,
1000
0000
0000
0000
,
0001
0000
0001
0000
,
0001
0000
1000
0000
,
0001
0000
1000
0000
,
0100
0000
0000
0000
,
0100
0000
0100
0000
,
0100
0000
0000
0000
,
0100
0000
0000
0000
,
0010
0000
0000
0000
,
0010
0000
0000
0000
,
1000
0000
0001
0000
,
1000
0000
0000
0000
,
0001
0000
0000
0000
,
0200
0000
0300
0000
,
0001
0000
0001
0000
,
0002
0000
0003
0000
,
1000
0000
1000
0000
,
2000
0000
3000
0000
,
0010
0000
0000
0000
,
0100
0000
0000
0000
,
0010
0000
0010
0000
,
0020
0000
0030
0000
,
1000
0000
0000
0000
,
1000
0000
0000
0000
,
0001
0000
0000
0000
,
0001
0000
0000
0000
,
1000
0000
0000
0000
,
0100
0000
0000
0000
,
0001
0000
0000
0000
,
0100
0000
0100
0000
,
1001
0000
0000
0000
,
0100
0000
0010
0000
,
1000
0000
0001
0000
,
0100
0000
0000
1000
,
1000
0000
0001
0000
,
0100
0000
0000
0001
,
0001
0000
1000
0000
,
0010
0000
0000
0100
,
0100
0000
0010
0000
,
1000
0000
1000
1000
,
0000
0100
0100
0000
,
0001
0000
0001
0001
,
0000
0100
0100
0000
,
1000
0000
1000
1000
,
0000
0010
0010
0000
,
0001
0000
0001
0001
,
0000
0010
0010
0010
,
0000
0100
0000
0100
,
0000
0010
0000
0010
,
0000
1000
0000
1000
,
0000
0001
0000
1001
,
0000
0010
0000
0010
,
0000
0100
0000
0100
,
0000
0001
0000
0001
,
0000
1000
0000
1001
,
0000
0100
0100
0100
,
0000
0010
0010
0010
,
0000
1000
1000
1000
,
0000
0001
0001
0000
;

//---------------dance-single - ----------------
#NOTES:
     dance-single:
     :
     Easy:
     4:
     :
0000
0000
0000
0000
,
0000
0000
0000
0000
,
0000
0000
0000
0000
,
0000
0000
0000
0000
,
0000
0000
0000
0000
,
0000
0000
0000
0000
,
0002
0000
0000
0000
,
0000
0003
0100
1000
,
1001
0000
0000
0000
,
0000
0000
0000
0000
,
1000
0100
0010
0001
,
0100
0010
1000
0100
,
0002
0000
2003
3000
,
0200
0000
0000
0300
,
1000
0001
1000
0001
,
1000
0001
1000
0001
,
0100
0010
0100
0010
,
0100
0010
0100
0010
,
2002
0000
0000
3003
,
0001
0000
0001
0000
,
1000
0000
0100
0000
,
0100
0000
0010
0000
,
1000
0000
0010
0000
,
0001
0000
0100
0000
,
1000
0000
0010
0000
,
0001
0000
0001
0000
,
0100
0000
0100
0000
,
1000
0000
1000
0000
,
0001
0000
0100
0000
,
1000
0000
0001
0000
,
0100
0000
0100
0000
,
0001
0001
0001
0001
,
2000
0000
0000
3000
,
0010
0000
1000
0000
,
0001
0000
0100
0000
,
0001
0001
1000
1000
,
0001
0001
1000
1000
,
0100
0001
0100
0001
,
0100
1000
0100
1000
,
0100
0001
0010
1000
,
0100
1000
0010
0001
,
1000
0100
0010
0001
,
1000
0010
0100
0001
,
0010
0100
0001
1000
,
0010
0100
1000
0001
,
1000
0010
1000
0010
,
0001
0010
0001
0010
,
1000
0001
1000
0001
,
0010
0100
0010
0100
,
1000
0000
0000
0001
0000
0000
1000
0000
,
0000
0100
0000
0000
0001
0000
0000
0000
,
0000
1000
0000
0000
1000
0000
0000
0001
,
0000
0100
0000
0000
,
0000
1000
0000
0000
0010
0000
0000
0001
,
0000
1000
0000
0000
,
0000
0100
0000
0000
0001
0000
0000
1000
,
0000
0000
0100
0000
0000
1000
0000
0000
,
0010
0000
0000
0001
0000
0000
0100
0000
,
0000
0010
0000
0000
0220
0000
0000
0000
,
0000
0000
0000
0000
,
0000
0000
0000
0000
,
0000
0000
0000
0000
,
0000
0000
0000
0000
0330
0000
0000
2002
,
0000
0000
0000
3003
,
0100
0000
0001
0000
,
1001
0000
0000
0010
,
0020
0030
2000
3000
,
0002
0003
1000
0100
,
1000
0000
0010
0000
,
0110
0000
0000
0001
,
0002
0003
2000
3000
,
0020
0000
0000
0030
,
0100
0100
0100
0000
,
0001
1000
0001
0000
,
0010
0010
0010
0000
,
0100
1000
0100
0000
,
1000
1000
1000
0000
,
0001
0010
0001
0000
,
0100
0000
1001
0000
,
1000
1000
0001
0000
,
1000
0100
0010
0001
,
0100
0000
1001
0000
,
0001
1000
0001
1000
,
0010
0000
1000
0001
,
0100
0010
0100
0010
,
0100
0000
0110
0000
,
0001
0010
0100
1000
,
0100
0000
1001
0000
,
1000
0001
1000
0001
,
0010
0000
0001
1000
,
0010
0100
0010
0100
,
0010
0000
1000
0010
,
0100
0001
0100
0001
,
0100
0000
0001
1000
,
2002
0000
0000
0000
,
0000
0000
0000
3003
,
1000
0000
0001
0000
,
0010
0000
0001
0001
,
0001
0000
1000
0000
,
0010
0000
0100
0100
,
0100
0000
0001
0000
,
1000
0000
0001
0001
,
0001
0000
1000
0000
,
0010
0000
0100
0100
,
0100
0000
0010
1000
,
0010
0000
0010
0100
,
0010
0000
1000
0001
,
1000
0000
0001
0010
,
0001
0000
1000
0100
,
1000
0000
0001
1000
,
0001
0000
0110
0000
,
0010
0100
0000
0000
,
0010
0010
0010
0010
,
2002
0000
0000
3003
,
1000
0000
0001
0000
,
1000
0100
0010
0010
,
0001
0000
1000
0000
,
0001
0100
0010
0010
,
1000
0000
0100
0000
,
0010
0001
0100
0100
,
0001
0000
0100
0000
,
0010
1000
0100
0100
,
1000
0100
0001
0010
,
1000
0100
0001
0000
,
0001
0100
1000
0010
,
0001
0100
1000
0000
,
1000
0010
0001
0100
,
1000
0010
0001
0000
,
0001
0010
1000
0100
,
0001
0010
1000
0000
,
1001
0000
0100
0010
,
0001
0001
0001
1000
,
1001
0000
0100
0010
,
1000
0001
0010
0100
,
1001
0000
0100
0010
,
1000
1000
1000
0001
,
1001
0000
0100
0010
,
0001
1000
0010
0100
,
0101
0000
1010
0000
,
1100
0000
0011
0000
,
0100
0100
0100
0100
,
2002
0000
3003
0110
,
0200
0000
0300
0000
,
0200
0000
0300
0000
,
2000
0000
3000
0000
,
0002
0000
0003
0000
,
0100
0000
1000
0000
,
0100
0000
0001
0000
,
0100
0000
1000
0000
,
0100
0000
1001
0000
,
0010
0000
0010
0000
,
1000
0000
0001
0000
,
0100
0000
0010
0000
,
0000
0000
1000
0001
,
1000
0000
0001
1000
,
0001
0000
0100
0100
,
0100
0000
0010
0000
,
1000
0000
0001
0000
,
1000
0001
1000
0001
,
0100
0100
0100
0000
,
0001
1000
0001
1000
,
0100
0100
0100
0000
,
1000
0000
0100
0000
,
0001
0000
0100
0000
,
1000
0000
0100
0000
,
0001
0000
1001
0000
,
0010
0000
0000
0000
0000
0000
0020
0000
0000
0000
0000
0000
0000
0000
0000
0000
0000
0000
0000
0000
0000
0000
0000
0000
0000
0030
0000
0000
0000
0000
0000
0000
,
0200
0300
0020
0030
,
2000
3000
0002
0003
,
0200
0000
0300
0010
,
2000
3000
0002
0003
,
0200
0000
0300
0010
,
0200
0300
0002
0003
,
2000
0000
3000
0010
,
0200
0000
0000
0300
,
0010
1010
0010
0010
,
1000
0100
1000
0100
,
0010
0011
0010
0010
,
0001
0100
0001
0100
,
0010
1010
1000
1000
,
1000
0100
1000
0100
,
0010
0011
0001
0001
,
0001
0100
0001
0100
,
0010
1000
0000
1000
,
0010
0001
0000
0001
,
0100
1000
0000
1000
,
0010
0000
0000
1001
,
0010
0001
0000
0001
,
0010
1000
0000
1000
,
0100
0001
0000
0001
,
0010
0010
0000
1001
,
0100
0100
0000
0110
,
0010
0010
0000
0110
,
0100
0100
0000
1001
,
0010
0010
1001
0000
;

//---------------dance-single - ----------------
#NOTES:
     dance-single:
     :
     Medium:
     6:
     :
0000
0000
0000
0000
,
0000
0000
0000
0000
,
0000
0000
0000
0000
,
0000
0000
0000
0000
,
0000
0000
0000
0000
,
0000
0000
0000
0000
,
1000
0200
0000
0300
,
0000
2000
0000
0000
3010
0000
0100
0000
,
0002
0000
1003
1000
0000
0000
0010
0000
,
0100
0101
0100
0101
,
0001
1000
0100
0000
0110
0000
2002
0000
,
0000
0000
0000
3003
,
2000
3000
0020
0030
,
0200
0000
0000
0300
,
0010
0010
0010
0010
,
0100
0100
0100
0100
,
0001
0101
1000
1100
,
0001
1000
0010
1100
,
2200
0000
0000
3300
,
0001
0010
0100
1000
,
0001
0010
0100
1000
,
0001
0100
0010
0000
1000
0100
0010
0000
,
0001
0010
0001
1001
,
0001
0100
0010
1000
,
0001
0100
0010
1000
,
1000
0010
0100
0000
0001
0010
0100
0000
,
1000
0010
1000
1001
,
0010
1001
0010
1001
,
0001
1000
0100
0010
,
0001
1000
0100
0010
,
0200
0000
0000
0300
,
1000
0100
0000
0000
1000
0100
0000
0000
1000
0100
0000
0000
1000
0100
0000
0000
,
0202
0000
0000
0303
,
0010
2000
0000
3000
,
0000
1000
0000
1000
0000
0001
0000
0001
,
1000
0010
0100
0000
2000
0000
0000
0000
,
3000
0100
0010
1000
,
0001
1000
0001
0000
0200
0000
0000
0000
,
0300
0010
0100
0001
,
1000
0010
0100
0000
0020
0000
0000
0000
,
0030
0100
0010
1000
,
0001
0010
0100
0000
2000
0000
3000
0000
,
1000
0010
0000
0000
0010
1000
0000
0000
1000
0001
0000
0000
0001
1000
0000
0000
,
0010
1000
0100
0000
1000
0100
0010
0000
,
0002
0000
1000
1003
,
0001
1000
0100
0000
1000
0100
0010
0000
,
0200
0000
1000
1300
,
0010
0100
0001
0000
1000
0001
0100
0000
,
0200
0000
0001
0301
,
1000
1000
0000
0010
0010
0000
0100
0100
,
0000
0001
0001
0000
0110
0000
0110
0000
,
0000
0101
0000
0000
1100
0000
0000
0110
,
0000
2002
0000
3003
,
0000
1010
0000
0000
0110
0000
0000
0101
,
0000
0220
0000
0330
,
0000
0110
0000
0000
1100
0000
0000
1001
,
0000
0000
0110
0000
0000
0101
0000
0000
,
1010
0000
0000
1001
0000
0000
0110
0000
,
0000
0001
0000
0000
1000
0000
0020
0000
,
0000
0000
2000
0030
,
0002
3000
0200
0000
,
0000
0000
0000
0000
,
0000
0000
0000
0000
0303
0000
0000
2002
,
0000
0000
0000
3003
,
0100
0110
0010
0110
,
0100
0110
0000
0001
,
1001
0000
1000
0000
1000
0100
0001
0000
,
0100
0000
1000
0000
0001
0100
1000
0000
,
0100
0110
0010
0110
,
0100
0110
0000
1000
,
1001
0000
0001
0000
0010
0100
0000
0100
,
2002
0000
0000
3003
,
0100
1100
0100
0101
,
0100
0000
1100
0000
0001
0100
0000
1000
,
0100
0110
0100
1001
,
0100
0000
0110
0000
0010
0100
0000
0001
,
1000
1100
0100
0101
,
0100
0000
1100
0000
0001
0100
0000
1000
,
0200
0300
0020
0030
,
0002
0100
0103
0000
,
1000
0100
1000
0100
,
0010
0001
1001
0011
,
0001
0010
0001
0010
,
0100
1000
1001
1100
,
0100
0010
0100
0010
,
0001
1000
0110
1001
,
0001
1000
0001
1000
,
0110
0000
1001
1100
,
1001
0100
0001
0100
,
0010
1000
1010
1001
,
1000
0100
1000
0100
,
0010
0001
1001
0011
,
0001
0010
0001
0010
,
0100
1000
1001
1100
,
0100
0010
0100
0010
,
1001
1100
1001
0101
,
0001
0100
1000
0000
1000
0100
0002
0000
,
0203
2300
3000
0000
,
1000
0010
0001
0000
0001
0010
2000
0000
,
3020
0032
0003
0000
,
0010
1000
0100
0000
0100
1000
0020
0000
,
2030
3200
0300
0000
,
0001
0100
1000
0000
1000
0100
0001
0000
,
0010
0001
0100
0000
0100
0001
0010
0000
,
0001
0010
1000
0000
1000
0010
0001
0000
,
2000
0001
3002
1000
,
1003
0010
0100
0000
0010
0100
0001
0000
,
0200
0010
0320
1000
,
1030
0100
0010
0000
0001
0000
1001
0000
,
0001
0010
0100
0000
1000
0000
1001
0000
,
2000
3200
0320
0032
,
1003
0000
0100
0000
0010
0000
0001
0000
1000
0000
0000
0010
0000
0000
0100
0000
,
0001
0000
0100
0000
0100
0000
0001
1000
,
0001
1000
0001
1001
,
0000
1000
0000
0001
0000
1000
0000
0001
,
0000
0010
0000
0001
0000
0100
0000
1000
,
0000
0001
0000
1000
0000
0001
0000
1000
,
0000
0010
0000
1000
0000
0100
0000
0001
,
0000
1000
0000
0100
0000
0010
0000
0001
,
0000
0010
0000
0100
0000
1000
0000
0001
,
0000
0010
0000
0100
0000
1000
0000
0100
,
0000
0010
0000
0001
0000
1000
0000
0001
,
1000
0000
0100
0000
0010
0100
1000
0000
,
0001
0000
0100
0000
0010
0100
0001
0000
,
1000
0000
0010
0000
0001
0100
1000
0000
,
0001
0000
0010
0000
1000
0100
0001
0000
,
1000
0000
0010
0000
0100
0010
1000
0000
,
0001
0000
0010
0000
0100
0010
0001
0000
,
1000
0000
0100
0000
0001
0010
1000
0000
,
0001
0000
0100
0000
1000
0010
0001
0000
,
1000
0000
0010
0000
0100
0000
0001
1000
,
0001
0000
0010
0000
0100
0000
1000
0001
,
1000
0000
0100
0000
0010
0000
0001
1000
,
0001
0000
0100
0100
0010
0000
0100
0100
,
0001
0000
0010
0000
0100
0000
1000
0001
,
1000
0000
0010
0000
0100
0000
0001
1000
,
0001
0000
0100
0000
0010
0000
1000
0001
,
1000
0000
0100
0100
0010
0000
0100
0100
,
1000
1000
0001
0001
,
1000
1000
0001
0001
,
1000
0100
0010
0001
,
0010
0100
0010
0100
1000
0001
0000
0000
,
1000
0100
0010
0001
0000
1000
0100
2000
,
0000
0000
0000
3001
0000
0100
0001
0010
,
0200
0000
0000
1300
0000
0010
1000
0001
,
0000
1000
0000
1001
0000
0000
0000
0000
,
0001
0100
0000
0001
0000
0010
0100
2000
,
0000
0000
0000
3010
0000
1000
0100
1000
,
0020
0000
0000
0130
0000
0001
1000
0001
,
0010
0000
0000
0010
0000
0000
0100
0000
0000
0000
0000
0000
0000
0000
1000
0000
,
0100
0000
0000
1000
0000
0001
0010
0100
,
1000
0000
0000
0010
0000
0100
0001
1000
,
0001
0000
0000
1000
0200
0000
0000
0000
,
0000
0000
0300
0000
0010
0100
1000
0001
,
0200
0000
0300
0000
0001
1000
0100
0020
,
0000
0000
0030
0000
0001
0100
0010
2000
,
0000
3000
0000
0002
0000
0000
1003
0000
,
0100
0100
0000
0010
0000
1001
0000
1000
,
0100
0000
1000
0001
0000
0100
0000
0020
,
0000
0030
0100
0010
,
1000
0000
0001
0010
0000
0001
0000
0200
,
0000
0300
0010
1000
,
0001
0000
1000
0010
0000
0100
0000
0002
,
0000
0000
0003
1000
0001
0000
0100
0000
,
0010
0000
1000
0100
0000
1000
0000
0002
,
0000
0100
0103
0000
0010
0000
1001
0000
,
1100
0000
0000
0000
0000
0000
0000
0000
0000
0000
0000
0000
0101
0000
0000
0000
0000
0000
0000
0000
0000
0000
0000
0000
0000
0000
0000
0000
0000
0000
0000
0000
0010
0000
0000
0000
0000
0000
0010
0000
0000
0000
0000
0000
0010
0000
0000
0000
0000
0000
0000
0000
0000
0000
0000
0000
0000
0100
0000
0000
0000
0000
0000
0000
,
0210
0000
0302
0000
,
2003
0000
3020
0000
,
0230
0000
0000
0301
,
2000
0000
3200
0000
,
0302
0000
0000
0103
,
2000
0000
3002
0000
,
0023
0000
0000
0031
,
0200
0010
0010
0000
0010
0010
0310
0000
,
1000
0100
0000
1100
0001
0010
0011
0000
,
1000
0100
0010
0001
0100
0010
1000
0000
,
0001
0100
0000
0101
1000
0010
1010
0000
,
0001
0010
0100
1000
0010
0100
0001
0000
,
0100
0001
0000
0101
0010
1000
1010
0000
,
1000
0010
0100
0001
0010
0100
1000
0000
,
0100
1000
0000
1100
0010
0001
0011
0000
,
0010
0100
0100
0100
0010
0010
0010
0000
,
0100
1000
0100
1000
0100
1000
0100
0000
,
0001
1000
0001
1000
0001
1000
0001
0000
,
0010
1000
0010
1000
0010
1000
0010
0000
,
0000
0001
0001
0001
1000
1000
1000
0000
,
0100
0001
0100
0001
0100
0001
0100
0000
,
1000
0001
1000
0001
1000
0001
1000
0000
,
0010
0001
0010
0001
0010
0001
0010
0000
,
0000
1000
1000
1000
0001
0001
0001
0000
,
1000
0010
0000
1010
0100
0001
0101
0000
,
0001
0010
0000
0011
0100
1000
1100
0000
,
1000
0010
0000
0101
0010
1000
1010
0000
,
0001
0010
0000
1100
0010
0011
0000
0000
;

//---------------dance-single - ----------------
#NOTES:
     dance-single:
     :
     Hard:
     9:
     :
0000
0000
0000
0000
,
0000
0000
0000
0000
,
0000
0000
0000
0000
,
0000
0000
0000
0000
,
0000
0000
0000
0000
,
0000
0000
0000
0000
,
0001
0100
0002
0000
0000
0000
0000
0000
0000
0000
0000
0000
0003
0000
0000
0000
,
0000
1000
0000
0000
0010
0000
1000
0000
,
0002
0000
0100
0100
0000
0000
0013
0000
,
0100
0010
0100
0001
0100
0010
0100
0000
,
1000
0010
0100
0001
0010
0100
2000
0000
,
0000
0000
0000
3000
,
0202
0303
2200
3300
,
2002
0000
0000
3003
,
0001
1000
0001
1000
,
0001
0000
0000
0000
0100
0000
0000
0000
1000
0000
0000
0000
0100
0000
0000
0001
,
1000
0100
0110
0110
,
0011
1010
0011
1010
,
0220
0000
0000
0330
,
0001
0010
0100
1000
0010
0100
0001
0010
,
0100
1000
0010
0100
0001
0010
0100
1000
,
0010
0001
0100
0001
0100
0001
0100
0001
,
1100
0101
1100
1100
,
1000
0010
0100
0001
1000
0010
0100
0001
,
1000
0010
0100
0001
1000
0010
0100
0001
,
1000
0100
1000
0100
1000
0100
1000
0100
,
0001
0100
1000
0100
0001
0010
1000
0010
,
0001
0100
1000
0001
0010
0100
0001
0100
,
1000
0100
0001
0010
1000
0010
0001
0100
,
1000
0001
0010
0100
1000
0001
1000
0001
,
2000
0000
0000
3000
,
1001
0110
1001
0110
,
0202
0000
0000
0303
,
1000
0200
0000
0300
,
0000
0010
0000
0010
0000
0010
0000
0010
,
1000
0100
1000
0010
0200
0000
0000
0000
,
0300
0001
0100
0001
1000
0000
0010
0000
,
1000
0001
1000
0010
0200
0000
0000
0000
,
0300
0001
0100
0001
0100
0000
1000
0000
,
0001
0010
0100
1000
0002
0000
0000
0000
,
0003
1000
0100
0010
0100
0000
1000
0000
,
0100
0010
0100
0010
0200
0000
0300
0000
,
1001
0011
1001
0101
,
0010
0000
1000
0000
0010
0000
1000
0000
0001
0000
0000
0000
0010
0000
0000
1001
,
0000
0001
1000
0100
1000
0000
0001
0000
,
1000
0000
0010
0000
0100
0000
0001
0000
1000
0000
0000
0000
0001
0000
0000
1100
,
0000
0010
0001
1000
0100
0000
0100
0000
,
0010
0000
1000
0000
0010
0000
1000
0000
0001
0000
0000
0000
0100
0000
0000
0101
,
0000
0010
0100
0010
0100
0000
1000
0000
,
0001
0001
0000
1000
1000
0000
0010
0010
,
0000
0100
0100
0000
1001
0000
1001
0000
,
0000
0110
0000
0000
1000
0000
0000
0101
,
0000
1000
0000
0000
,
0000
1100
0000
0000
0010
0000
0000
0101
,
0000
0010
0000
0000
,
0000
1100
0000
0000
0101
0000
0000
0110
,
0000
0000
0110
0000
0000
1010
0000
0000
,
0011
0000
0000
0110
0000
0000
0110
0000
,
0000
1100
0000
0000
0100
0000
0002
0000
,
0000
0000
2003
0100
,
0002
3000
0100
0000
,
0000
0000
0000
0003
,
0000
0000
0000
0100
0001
0100
0001
0100
0001
0100
0001
0100
0000
0000
2200
0000
,
0000
0000
0000
3300
,
1001
0100
0010
0000
0110
0010
0100
0000
,
1001
0100
0010
0000
2000
0000
3002
0000
,
1003
0000
0100
0000
0000
0020
0000
0000
0001
0000
0000
0032
0000
0000
1000
0000
,
1000
0000
1003
0000
0000
0020
0000
0000
0100
0000
0000
0100
0000
0000
0130
0000
,
0110
0100
0010
0000
1001
0010
0100
0000
,
0110
0100
0010
0000
2000
0000
3002
0000
,
1003
0100
1000
0100
1000
0100
1000
0001
,
2001
0000
0001
3001
,
0100
1000
0000
1000
0001
0000
0001
0100
0000
0100
0010
0000
0100
0000
0000
0000
,
0001
1000
0000
1000
0100
0000
0100
1000
0000
1000
0001
0000
0010
0000
0100
0000
,
1000
0010
0000
0010
0100
0000
0100
0001
0000
0001
1000
0000
1000
0000
0000
0000
,
0001
0010
0000
0010
0100
0000
0100
1000
0000
1000
0100
0000
0001
0000
0100
0000
,
1000
0001
0000
0001
1000
0000
1000
0100
0000
0100
0010
0000
0010
0000
0000
0000
,
0100
1000
0000
1000
0001
0000
0001
0010
0000
0010
1000
0000
1000
0000
0010
0000
,
0110
0000
1010
0000
,
0011
1100
0011
0000
,
1010
1000
0001
1000
0100
0010
1000
0100
,
0010
1000
1100
0000
1001
0000
1100
0000
,
0101
1000
0100
0010
0001
0100
1000
0100
,
0001
0100
1100
0000
0101
0000
1001
0000
,
1100
0001
0100
1000
0100
0001
0010
0100
,
0001
0100
1001
0000
0110
0000
1100
0000
,
0101
1000
0100
0010
0001
0100
0010
0100
,
0010
0100
0010
0100
2002
0000
3003
0000
,
0110
0001
0100
1000
0100
0001
0100
1000
,
0100
0001
1001
0000
0011
0000
1100
0000
,
0110
0100
0001
0010
0100
0001
0100
1000
,
0100
0001
1001
0000
0110
0000
1100
0000
,
0101
1000
0100
0010
0001
0100
1000
0100
,
0001
0100
1100
0000
0110
0000
0011
0000
,
1100
0100
0001
0100
1000
0100
0001
0100
,
1000
0000
0100
0000
1001
0000
0000
0000
0101
0000
0000
0100
0000
0000
0100
0000
,
0110
0000
1000
0000
0001
0000
0000
1000
0100
0000
0010
0000
0001
0000
0000
0001
,
0010
0000
0100
0000
1000
0000
0000
1000
0100
0000
0010
0000
0001
0000
0001
0000
,
0100
0000
1000
0000
0100
0000
0000
1000
0100
0000
0010
0000
0001
0000
0000
0001
,
0010
0000
0100
0000
1000
0000
0000
1000
0100
0000
0010
0000
0001
0000
0010
0000
,
1000
0000
0100
0000
0001
0000
0000
0001
0100
0000
1000
0000
0100
0000
0000
0001
,
0100
0000
1000
0000
0100
0000
0000
0001
0100
0000
1000
0000
0100
0000
0010
0000
,
0001
0000
0100
0000
1000
0000
0000
1000
0100
0000
0001
0000
0100
0000
0000
1000
,
0100
0000
0001
0000
0100
0000
0000
0010
0200
0000
0000
0000
0300
0000
0000
0000
,
0001
0000
0100
0000
0001
0000
1000
0001
0000
0001
1000
0000
0100
0000
0010
0000
,
0001
0000
0100
0000
0001
0000
1000
0001
0000
0001
1000
0000
0100
0000
1000
0000
,
0010
0000
0100
0000
0001
0000
0010
0100
0000
0100
0010
0000
0001
0000
1000
0000
,
0010
0000
0100
0000
0001
0000
0010
0100
0000
0100
0010
0000
0001
0000
1000
0000
,
0100
0000
0001
0000
0100
0000
1000
0100
0000
0100
1000
0000
0100
0000
0001
0000
,
0100
0000
1000
0000
0100
0000
1000
0100
0000
0100
1000
0000
0100
0000
0010
0000
,
0001
0000
0100
0000
0001
0000
0010
0001
0000
0001
0010
0000
0001
0000
1000
0000
,
0001
0100
0001
0100
0010
1000
0010
1000
0010
0000
0000
0100
0000
0000
0100
0000
,
1001
0000
0010
0000
0010
0000
1000
0001
,
2002
0000
3003
0110
,
1000
0000
0001
0100
0000
0000
0001
0000
1000
0100
0000
0000
1000
0000
0001
0010
,
0000
0001
0100
0001
0010
0100
1000
0001
,
0100
0000
0001
1000
0000
0000
0100
0000
1000
0001
0000
0000
0100
0000
0001
0010
,
0000
0001
0010
0100
1000
0010
1000
0001
,
0010
0000
0100
1000
0000
0000
0010
0000
0100
0001
0000
0000
0010
0000
0100
1000
,
0000
0001
0100
0010
1000
0001
0100
0010
,
1000
0000
0100
0010
0000
0000
0001
0000
0100
0010
0000
0000
1000
0000
0100
0010
,
0000
0001
1000
0010
0100
0001
0100
0000
,
0010
1000
0010
0100
0001
1000
0100
0000
,
0010
0100
1000
0100
0010
0001
0100
0000
,
0001
1000
0001
0010
0100
1000
0001
1000
,
0010
0100
0001
0010
0001
1000
0100
0000
,
1000
0100
1000
0001
0100
0001
0010
0000
,
0100
1000
0010
0100
0010
1000
0001
0000
,
1000
0100
0010
0100
1000
0001
0010
0001
,
2000
0000
3002
0000
0013
0100
0010
0100
,
1000
0000
0000
0000
0001
0000
0100
0000
0010
0000
0000
0100
0001
0000
1000
0000
,
0002
0000
2003
0000
3002
0000
0103
0100
,
0010
0000
0000
0000
1000
0000
0001
0000
0100
0000
0000
0001
1000
0000
0010
0000
,
1000
0100
0010
0001
1000
0100
0010
0001
,
0100
0000
0000
0000
0010
0000
1000
0000
0001
0000
0000
1000
0100
0000
0010
0000
,
0002
0000
2003
0000
3002
0000
0103
0100
,
0010
0000
0000
0000
1000
0000
0001
0000
0010
0000
0000
0001
0100
0000
0010
0000
,
1000
0100
1000
0100
0010
0001
0010
0001
,
1001
1000
1100
0001
,
0101
1000
0110
0001
,
0011
1100
1010
0101
,
0010
0000
0001
0000
0100
0000
0001
0000
1000
0100
1000
0100
0000
0000
0000
0000
,
1001
0000
0100
0100
1000
0001
0100
0100
,
0010
0000
1001
0000
0100
0001
0010
0100
,
1000
0000
0101
0000
1000
0100
1000
0001
,
0010
0100
1000
0001
0010
0000
1010
0000
,
0011
0000
0100
0010
1000
0100
0010
0010
,
0001
0000
1100
0000
0001
1000
0010
0010
,
0100
0000
1001
0000
0000
0110
0000
0000
,
1100
0000
0000
0101
0000
0000
1001
0000
0000
0000
1000
0001
1000
0000
0010
0000
,
0100
0000
0001
0000
0010
0000
0001
1000
0000
0100
1000
0000
0010
0000
0100
0000
,
0001
0000
1000
0000
0010
0000
1000
0001
0000
0100
0001
0000
0010
0000
0100
0000
,
1000
0000
0001
0000
1000
0000
0010
0100
0000
0001
1000
0000
0100
0000
0010
0000
,
0001
1000
0001
0010
0100
1000
0010
0100
,
0202
0000
0303
0000
0001
0010
0100
2200
,
0000
0000
3300
0000
1000
0100
0010
0022
,
0000
0033
0000
2020
3030
0000
1001
0000
,
1100
0101
0000
0110
0000
1001
0000
0100
,
1000
0000
0001
0000
0010
0000
1000
0000
0010
0000
0001
0100
0001
0000
0010
0000
,
0001
0000
1000
0000
0010
0000
0001
0000
0010
0000
1000
0100
1000
0000
0001
0100
,
0001
0000
1000
0000
0010
0000
0100
0000
0010
0000
1000
0001
1000
0000
0100
0000
,
0010
0001
0101
0000
1010
0000
1100
0000
,
0011
0000
0001
0000
0100
0000
1000
0000
0100
0000
0001
0010
0001
0000
1000
0010
,
1000
0000
0100
0000
0001
0000
0100
0000
1000
0000
0001
0010
0001
0000
0100
0000
,
0010
1000
0001
0010
0100
1000
0010
0100
,
0001
1000
0001
0000
0010
0000
0100
1000
0100
0000
0010
0000
0001
0100
0001
0000
,
1000
0000
0000
0000
0000
0000
0000
0000
0000
0000
0000
0000
1001
0000
0000
0000
0000
0000
0000
0000
0000
0000
0000
0000
0000
0000
0000
0000
0000
0000
0000
0000
1000
0000
0000
0100
0000
0000
1000
0000
0000
0001
0000
0000
0100
0000
0000
0000
0000
0000
0000
0000
0000
0000
0000
0000
0000
1001
0000
0000
0000
0000
0000
0000
,
1002
1003
0020
1030
,
0200
0000
0000
0000
1300
0000
0000
0000
0020
0000
0000
0000
1030
0000
0001
1000
,
0200
1000
0300
0010
,
0002
1003
2000
3001
,
0200
0010
0300
0001
,
0200
0310
0002
1003
,
0020
1000
0030
0001
,
1000
0001
1000
0000
1000
0100
0000
0010
0000
0001
0100
0000
0001
1000
0001
0000
,
1000
0010
0000
0100
0000
0100
0010
0000
0010
1000
0000
0100
0000
0010
0000
0000
,
0001
0100
1000
0100
0001
0010
0100
1000
,
0001
0010
0000
0100
0000
0100
0000
0000
0010
0001
0000
0000
0000
0100
0000
0000
,
1000
0100
0001
0010
0100
1000
0001
0100
,
0010
1000
0000
1000
0000
0100
0010
0000
0010
0001
0000
1000
0000
0010
0000
0000
,
0100
1000
0100
0001
0010
0100
1000
0001
,
1000
0010
0000
0100
0000
0100
0000
0000
0010
1000
0000
0000
0000
0100
0000
0000
,
0010
0001
0010
0000
0100
1000
0000
0001
0000
1000
0100
0000
0010
0001
0010
0000
,
0100
0000
0000
1000
0000
0001
0000
0000
0100
0000
0000
0010
0000
0000
1000
0000
,
0001
0000
0000
0010
0000
0100
0000
0000
1000
0000
0000
0001
0000
0100
0000
0000
,
0010
0000
0000
1000
0000
0000
0001
0000
0100
0000
0000
0010
0000
1000
0000
0000
,
0001
0100
0000
0001
1000
0001
0000
1000
0000
0100
0010
0000
0001
0000
0100
0000
,
0010
0000
0000
1000
0000
0001
0000
0000
0010
0000
0000
0100
0000
0000
1000
0000
,
0001
0000
0000
0100
0000
0010
0000
0000
1000
0000
0000
0001
0000
0010
0000
0000
,
0100
0000
0000
1000
0000
0100
0000
0000
0010
0000
0000
0001
0000
1000
0000
0000
,
0001
0010
0001
0000
1000
0001
0000
1000
0000
0010
0100
0000
0001
1000
0001
0000
,
1000
0010
0000
0100
0000
0001
0100
0001
1000
0000
0000
0010
0000
0000
0100
0000
,
0000
0001
0000
0010
0000
0100
1000
0100
0010
0000
0000
0001
0000
0000
0100
0010
,
0100
0001
0000
1000
0000
0010
0100
0010
1000
0000
0000
0001
0000
0000
0100
0000
,
0000
0010
0000
1000
0000
0001
0100
0010
1000
0000
0000
1001
0000
0000
0000
0000
;
