#TITLE:Loops;
#ARTIST:Jondi & Spesh feat. J-Bone;
#BANNER:Loops.png;
#BACKGROUND:Loops-bg.png;
#CDTITLE:./CDTITLES/Dance Dance Revolution UNIVERSE.png;
#MUSIC:Loops.ogg;
#SAMPLESTART:39.587;
#SAMPLELENGTH:15;
#BPMS:0=200;

//---------------dance-single - ----------------
#NOTES:
     dance-single:
     :
     Beginner:
     1:
     :
0000
0000
0000
0000
,
0000
0000
0000
0000
,
0000
0000
0000
0000
,
0000
0000
0000
0000
,
0000
0000
0000
0000
,
0001
0000
0000
0000
,
0000
0000
0000
0000
,
1000
0000
0000
0000
,
0000
0000
0000
0000
,
0001
0000
0000
0000
,
0001
0000
0000
0000
,
1000
0000
0000
0000
,
1000
0000
0000
0000
,
0010
0000
0000
0000
,
0010
0000
0000
0000
,
0010
0000
0000
0000
,
0000
0000
0000
0000
,
0100
0000
0000
0000
,
0100
0000
0000
0000
,
0001
0000
0000
0000
,
0001
0000
0000
0000
,
1000
0000
0000
0000
,
1000
0000
0000
0000
,
1001
0000
0000
0000
,
0000
0000
0000
0000
,
1000
0000
0000
0000
,
0001
0000
0000
0000
,
1000
0000
0000
0000
,
0001
0000
0000
0000
,
0100
0000
0000
0000
,
0010
0000
0000
0000
,
0100
0000
0000
0000
,
0001
0000
0001
0000
,
0001
0000
0000
0000
,
0001
0000
0000
0000
,
1000
0000
0000
0000
,
1000
0000
0000
0000
,
0100
0000
0000
0000
,
0100
0000
0000
0000
,
1000
0000
0000
0000
,
1000
0000
0000
0000
,
0001
0000
0000
0000
,
0100
0000
0100
0000
,
0100
0000
0000
0000
,
0001
0000
0001
0000
,
0001
0000
0000
0000
,
1000
0000
1000
0000
,
1000
0000
0000
0000
,
0100
0000
0100
0000
,
0100
0000
0000
0000
,
0000
0000
0000
0000
,
0110
0000
0000
0000
,
0000
0000
0000
0000
,
0110
0000
0000
0000
,
0000
0000
0000
0000
,
1001
0000
0000
0000
,
0000
0000
0000
0000
,
1001
0000
0000
0000
,
0000
0000
0000
0000
,
2000
0000
0000
3000
,
0000
0000
0000
0000
,
0002
0000
0000
0003
,
0000
0000
0000
0000
,
0200
0000
0000
0300
,
0000
0000
0000
0000
,
0001
0000
0000
0000
,
0001
0000
0000
0000
,
1000
0000
0000
0000
,
1000
0000
0000
0000
,
0010
0000
0000
0000
,
0010
0000
0000
0000
,
1000
0000
0000
0000
,
1000
0000
0000
0000
,
0001
0000
0001
0000
,
0001
0000
0000
0000
,
1000
0000
1000
0000
,
1000
0000
0000
0000
,
0001
0000
0001
0000
,
0001
0000
0000
0000
,
1000
0000
1000
0000
,
1000
0000
0000
0000
,
1001
0000
0000
0000
,
0100
0000
0000
0000
,
0100
0000
0000
0000
,
0010
0000
0000
0000
,
0010
0000
0000
0000
,
1000
0000
0000
0000
,
1000
0000
0000
0000
,
0001
0000
0001
0000
;

//---------------dance-single - ----------------
#NOTES:
     dance-single:
     :
     Easy:
     3:
     :
0000
0000
0000
0000
,
0000
0000
0000
0000
,
0000
0000
0000
0000
,
0000
0000
0000
0000
,
0000
0000
0000
0000
,
0100
0000
0000
0000
,
0010
0000
0000
0000
,
0100
0000
0000
0000
,
0010
0000
0000
0000
,
1000
0000
1000
0000
,
0001
0000
0000
0000
,
0100
0000
0100
0000
,
0001
0000
0000
0000
,
1000
0000
1000
0000
,
0001
0000
0000
0000
,
0010
0000
0010
0000
,
0001
0000
0000
0000
,
0001
0000
0100
0000
,
0100
0000
0001
0000
,
1000
0000
0001
0000
,
1000
0000
0000
0000
,
1000
0000
0010
0000
,
0010
0000
1000
0000
,
0001
0000
1000
0000
,
0001
0000
0000
0000
,
0010
0000
1000
0000
,
0100
0000
0002
0000
,
0000
0003
0000
0000
,
0000
0000
0000
0000
,
0010
0000
1000
0000
,
0100
0000
0002
0000
,
0000
0003
0000
0000
,
0000
0000
0000
0000
,
1000
0000
0100
0000
,
1000
0000
0100
0000
,
0010
0000
0001
0000
,
0010
0000
0001
0000
,
0100
0000
0010
0000
,
0100
0000
0010
0000
,
1000
0000
0001
0000
,
1000
0000
0001
0000
,
0100
0000
0000
0000
,
0001
0000
0001
0000
,
1000
0000
0000
0000
,
0010
0000
0010
0000
,
0100
0000
0000
0000
,
1000
0000
1000
0000
,
0100
0000
0000
0000
,
0001
0000
0001
0000
,
0200
0000
0000
0300
,
0000
0000
0001
0000
,
1001
0000
0000
0000
,
0000
0000
0100
0000
,
0110
0000
0000
0000
,
0000
0000
1000
0000
,
1001
0000
0000
0000
,
0000
0000
0010
0000
,
0110
0000
0000
0000
,
0000
0000
0001
0000
,
0100
0000
0001
0000
,
0000
0000
1000
0000
,
0100
0000
1000
0000
,
0000
0000
0001
0000
,
1000
0000
0001
0000
,
1000
0000
1000
0000
,
0010
0000
0000
0000
,
0100
0000
0100
0000
,
0001
0000
0000
0000
,
1000
0000
1000
0000
,
0010
0000
0000
0000
,
0001
0000
0001
0000
,
1000
0000
0000
0000
,
1000
0000
0010
0000
,
0100
0000
0010
0000
,
0100
0000
0001
0000
,
1000
0000
0000
0000
,
0100
0000
0010
0000
,
0100
0000
0000
0000
,
0001
0000
1000
0000
,
0001
0000
0000
0000
,
0100
0000
0001
0000
,
1000
0000
0001
0000
,
1000
0000
0010
0000
,
0100
0000
0010
0000
,
0100
0000
0001
0000
,
1000
0000
0000
0000
,
0110
0000
0000
0000
,
0010
0000
1000
0000
,
0100
0000
0001
0000
;

//---------------dance-single - ----------------
#NOTES:
     dance-single:
     :
     Medium:
     6:
     :
0000
0000
0000
0000
,
0000
0000
0000
0000
,
0000
0000
0000
0000
,
0000
0000
0000
0000
,
0000
0000
0000
0000
,
1000
0000
0001
0000
,
0000
0000
0010
0000
,
0100
0000
0001
0000
,
0000
0000
1000
0000
,
1000
0100
0010
0001
,
0100
0010
0001
0000
,
0010
0100
1000
0001
,
0100
0010
1000
0000
,
0001
0100
0010
0001
,
0010
0100
1000
0000
,
0100
0010
0001
0010
,
1000
0010
0001
0000
,
0001
0000
1000
0000
0010
0100
0000
0200
,
0000
0000
0310
0000
,
1000
0000
0100
0000
0001
0100
0000
0200
,
0000
0000
0310
0000
,
0100
0000
0001
0000
1000
0001
0000
0002
,
0000
0000
0103
0000
,
0010
0000
0100
0000
0001
1000
0000
2000
,
0000
0000
3010
0000
,
0001
0100
0010
0000
,
1100
0000
0101
0000
,
0100
0010
1000
0000
,
0110
0000
1010
0000
,
0001
1000
0100
0000
,
0011
0000
1100
0000
,
1000
0100
0010
0000
,
0101
0000
1001
0000
,
1000
0100
0001
0100
,
1000
0010
0001
0010
,
0100
0001
0010
1000
,
0020
0030
0002
0003
,
1000
0100
0010
0100
,
1000
0001
0010
0100
,
0010
0001
1000
0100
,
0020
0030
0200
0300
,
1100
0100
0100
0010
,
0000
1000
1001
0000
,
0101
0100
0100
0010
,
0000
0001
1001
0000
,
1010
0010
0010
0100
,
0000
0001
1001
0000
,
0011
0010
0010
0100
,
0000
1000
1001
0000
,
2001
0000
3100
0000
,
0001
0100
0010
0010
,
0201
0000
0310
0000
,
1000
0010
0100
0100
,
1002
0000
0013
0000
,
1000
0001
0100
0100
,
0120
0000
1030
0000
,
1000
0010
0010
0100
,
0002
0000
0000
0000
1000
0000
0000
0203
,
0000
0000
0310
0000
,
2000
0000
0000
0000
0001
0000
0000
3020
,
0000
0000
0130
0000
,
0002
0000
0000
0000
1000
0000
0000
2003
,
0000
0000
0000
0000
0010
0000
0000
3020
,
0000
0000
0130
0000
,
2002
0000
0000
3003
,
0100
0001
0010
1000
,
0010
0001
0100
0000
,
1000
0100
0010
1000
,
0100
0010
0001
0000
,
0010
0100
1000
0010
,
0100
0001
0010
0000
,
1000
0100
0010
0001
,
0100
0010
0100
0000
,
0001
0000
0100
0000
0010
0010
0000
1010
,
0000
0000
0101
0000
,
1000
0000
0010
0000
0100
0100
0000
0110
,
0000
0000
1001
0000
,
0100
0000
0010
0000
0001
0001
0000
0101
,
0000
0000
1100
0000
,
0010
0000
0100
0000
1000
1000
0000
1100
,
0000
0000
0101
0000
,
0001
0000
0100
0000
0010
0000
1000
0001
,
0000
2000
0010
3010
,
1000
0000
0100
0000
0010
0000
0001
0100
,
0000
0020
1000
1030
,
0100
0000
0001
0000
1000
0000
0010
0100
,
0000
0002
0100
0103
,
1000
0000
0010
0000
0100
0000
0001
1000
,
0000
0110
1000
1001
;

//---------------dance-single - ----------------
#NOTES:
     dance-single:
     :
     Hard:
     8:
     :
0000
0000
0000
0000
,
0000
0000
0000
0000
,
0000
0000
0000
0000
,
0000
0000
0000
0000
,
0000
0000
0000
0000
,
1000
0000
0100
0000
,
0001
0000
0010
0000
,
1000
0000
0100
0001
,
1000
0010
0100
0001
,
0010
0000
0010
0000
0001
1000
0000
0010
,
0000
0100
0000
0000
0001
0000
0010
0000
,
0100
0000
0100
0000
1000
0001
0000
0100
,
0000
0010
0000
0000
1000
0000
0100
0000
,
1000
0000
1000
0000
0001
0100
0000
0010
,
0000
1000
0000
0000
0001
0000
0010
0000
,
0001
0000
0001
0000
1000
0100
0000
0010
,
0000
0001
0000
0000
1000
0000
0010
0000
,
0100
0000
0100
0000
0001
0010
0000
0001
,
0000
1000
0000
0000
0010
0000
1000
1000
,
0100
0000
0100
0000
1000
0010
0000
1000
,
0000
0001
0000
0000
0010
0000
0001
0001
,
1000
0000
1000
0000
0001
0100
0000
1000
,
0000
0100
0000
0000
0001
0000
0010
0010
,
0001
0000
0001
0000
1000
0100
0000
0001
,
0000
0100
0000
0000
1000
0000
0010
0010
,
1000
1000
0001
0001
,
0100
0100
0010
0100
,
0100
0100
0010
0000
,
1000
0000
1100
0000
,
0001
0000
0101
0000
,
0000
0100
0010
1000
,
1000
0001
0001
0100
,
0100
0100
0010
0100
,
0001
0010
0001
0000
1000
0100
1000
0000
,
0010
1000
0010
0000
0100
0001
0100
0000
,
0001
1000
0001
0000
1000
0001
1000
0000
,
0010
0100
0010
0000
0100
0010
0100
0000
,
0001
1000
0100
0000
1000
0001
0100
0000
,
0010
1000
0100
0000
0010
0001
0100
0000
,
0001
0001
1000
1000
,
0100
0100
0100
0100
,
1000
0010
1000
0010
1000
0010
1000
0010
,
0100
0001
0100
0001
0100
0001
0100
0000
,
0001
0010
0001
0010
0001
0010
0001
0010
,
0100
1000
0100
1000
0100
1000
0100
0000
,
1000
0001
1000
0100
1000
0001
1000
0100
,
0010
0001
0010
0100
0010
0001
0010
0000
,
0001
1000
0001
0100
0001
1000
0001
0100
,
0010
1000
0010
0100
0010
1000
0010
0000
,
1000
0000
0100
0000
1100
0000
1000
0001
,
0000
0001
0100
0000
0101
0000
0000
0000
,
0001
0000
0010
0000
0011
0000
0001
1000
,
0000
1000
0010
0000
1010
0000
1001
0000
,
1000
0000
0010
0000
1010
0000
1000
0001
,
0000
0001
0010
0000
0011
0000
0000
0000
,
0001
0001
1000
1000
,
0100
0100
0100
0100
,
0000
0000
0010
0000
0001
0000
0000
1000
,
0000
0001
0000
0010
0100
0000
1000
0000
,
0000
0000
0010
0000
1000
0000
0000
0001
,
0000
1000
0000
0010
0100
0000
0001
0000
,
0000
0000
1000
0000
0010
0000
0000
0100
,
0000
0000
0001
0000
0010
0000
0000
0100
,
0000
1000
0000
0010
0000
0001
0000
0100
,
0000
1000
0000
0010
0000
0001
0000
0100
,
0010
0000
0010
0000
1000
0001
0000
0010
,
0000
0100
0000
0000
0010
0000
0001
0001
,
0010
0000
0010
0000
0001
1000
0000
0010
,
0000
0100
0000
0000
0010
0000
1000
1000
,
0100
0000
0100
0000
0010
0001
0000
1000
,
0000
0010
0000
0000
1000
0000
0001
0001
,
0100
0000
0100
0000
0010
1000
0000
0001
,
0000
0010
0000
0000
0001
0000
1000
1000
,
0100
0000
0110
0000
0010
0001
0000
1000
,
0000
0010
0000
0000
0100
0000
0001
0010
,
0010
0000
0110
0000
0100
1000
0000
0001
,
0000
0100
0000
0000
0010
0000
1000
0100
,
0100
0000
1001
0000
1000
0010
0000
0100
,
0000
0001
0000
0000
0010
0000
0001
0100
,
0100
0000
1001
0000
0001
0010
0000
0100
,
0000
1000
0000
0000
0010
0000
1000
0100
,
0010
0000
0011
0000
0001
1000
0000
0010
,
0000
1000
0000
0100
0010
0001
0100
0001
,
0010
0000
0011
0000
0001
1000
0000
0010
,
0000
1000
0000
0100
0010
0001
0100
0010
,
1000
0000
1010
0000
1000
0001
0100
0010
,
0100
0001
0000
0100
0010
1000
0100
1000
,
0010
0000
1010
0000
1000
0001
0100
0010
,
0100
0001
0000
0100
0010
1000
0100
0010
;

//---------------dance-double - ----------------
#NOTES:
     dance-double:
     :
     Beginner:
     1:
     :
00000000
00000000
00000000
00000000
,
00000000
00000000
00000000
00000000
,
00000000
00000000
00000000
00000000
,
00000000
00000000
00000000
00000000
,
00000000
00000000
00000000
00000000
,
00000100
00000000
00000000
00000000
,
00000000
00000000
00000000
00000000
,
00010000
00000000
00000000
00000000
,
00000000
00000000
00000000
00000000
,
00000010
00000000
00000000
00000000
,
00000010
00000000
00000000
00000000
,
00000001
00000000
00000000
00000000
,
00000001
00000000
00000000
00000000
,
00000100
00000000
00000000
00000000
,
00000100
00000000
00000000
00000000
,
00001000
00000000
00000000
00000000
,
00000000
00000000
00000000
00000000
,
01000000
00000000
00000000
00000000
,
01000000
00000000
00000000
00000000
,
10000000
00000000
00000000
00000000
,
10000000
00000000
00000000
00000000
,
01000000
00000000
00000000
00000000
,
00010000
00000000
00000000
00000000
,
00011000
00000000
00000000
00000000
,
00000000
00000000
00000000
00000000
,
00000001
00000000
00000000
00000000
,
00000001
00000000
00000000
00000000
,
00000100
00000000
00000000
00000000
,
00001000
00000000
00000000
00000000
,
00001000
00000000
00000000
00000000
,
00010000
00000000
00000000
00000000
,
01000000
00000000
00000000
00000000
,
10000000
00000000
10000000
00000000
,
10000000
00000000
00000000
00000000
,
01000000
00000000
00000000
00000000
,
01000000
00000000
00000000
00000000
,
00010000
00000000
00000000
00000000
,
00001000
00000000
00000000
00000000
,
00000100
00000000
00000000
00000000
,
00000100
00000000
00000000
00000000
,
00000001
00000000
00000000
00000000
,
00000001
00000000
00000000
00000000
,
00000100
00000000
00000100
00000000
,
00000100
00000000
00000000
00000000
,
00001000
00000000
00001000
00000000
,
00001000
00000000
00000000
00000000
,
00010000
00000000
00010000
00000000
,
00010000
00000000
00000000
00000000
,
01000000
00000000
01000000
00000000
,
01000000
00000000
00000000
00000000
,
00000000
00000000
00000000
00000000
,
01100000
00000000
00000000
00000000
,
00000000
00000000
00000000
00000000
,
00011000
00000000
00000000
00000000
,
00000000
00000000
00000000
00000000
,
00000110
00000000
00000000
00000000
,
00000000
00000000
00000000
00000000
,
00011000
00000000
00000000
00000000
,
00000000
00000000
00000000
00000000
,
20000000
00000000
00000000
30000000
,
00000000
00000000
00000000
00000000
,
00020000
00000000
00000000
00030000
,
00000000
00000000
00000000
00000000
,
00002000
00000000
00000000
00003000
,
00000000
00000000
00000000
00000000
,
00000100
00000000
00000000
00000000
,
00000100
00000000
00000000
00000000
,
00000001
00000000
00000000
00000000
,
00000001
00000000
00000000
00000000
,
00001000
00000000
00000000
00000000
,
00001000
00000000
00000000
00000000
,
00000100
00000000
00000000
00000000
,
00000100
00000000
00000000
00000000
,
00010000
00000000
00010000
00000000
,
00010000
00000000
00000000
00000000
,
01000000
00000000
01000000
00000000
,
01000000
00000000
00000000
00000000
,
00010000
00000000
00010000
00000000
,
00010000
00000000
00000000
00000000
,
00001000
00000000
00001000
00000000
,
00001000
00000000
00000000
00000000
,
00011000
00000000
00000000
00000000
,
00010000
00000000
00000000
00000000
,
01000000
00000000
00000000
00000000
,
01000000
00000000
00000000
00000000
,
10000000
00000000
00000000
00000000
,
01000000
00000000
00000000
00000000
,
00010000
00000000
00000000
00000000
,
00001000
00000000
00001000
00000000
;

//---------------dance-double - ----------------
#NOTES:
     dance-double:
     :
     Easy:
     3:
     :
00000000
00000000
00000000
00000000
,
00000000
00000000
00000000
00000000
,
00000000
00000000
00000000
00000000
,
00000000
00000000
00000000
00000000
,
00000000
00000000
00000000
00000000
,
00000001
00000000
00000100
00000000
,
00000000
00000000
00000000
00000000
,
00001000
00000000
00100000
00000000
,
00000000
00000000
00000000
00000000
,
00010000
00000000
00010000
00000000
,
10000000
00000000
00000000
00000000
,
01000000
00000000
00100000
00000000
,
00010000
00000000
00000000
00000000
,
00001000
00000000
00001000
00000000
,
00000100
00000000
00000000
00000000
,
00000001
00000000
00000010
00000000
,
00000100
00000000
00000000
00000000
,
00010000
00000000
00010000
00000000
,
00001000
00000000
00010000
00000000
,
01000000
00000000
01000000
00000000
,
01000000
00000000
00000000
00000000
,
00010000
00000000
00010000
00000000
,
00001000
00000000
00010000
00000000
,
00000100
00000000
00000100
00000000
,
00000100
00000000
00000000
00000000
,
00001001
00000000
00000000
00000000
,
00000100
00000000
00000000
00000000
,
00000010
00000000
00000000
00000000
,
00000001
00000000
00000000
00000000
,
00001000
00000000
00000000
00000000
,
00010000
00000000
00000000
00000000
,
01000000
00000000
01000000
00000000
,
00010000
00000000
00100000
00000000
,
00001000
00000000
00001000
00000000
,
00001000
00000000
00000000
00000000
,
00000001
00000000
00000100
00000000
,
00000001
00000000
00000000
00000000
,
00010000
00000000
00001000
00000000
,
00010000
00000000
00000000
00000000
,
10000000
00000000
01000000
00000000
,
10000000
00000000
00000000
00000000
,
00010000
00000000
01000000
00000000
,
00010000
00000000
00000000
00000000
,
00001000
00000000
00010000
00000000
,
00001000
00000000
00000000
00000000
,
00000001
00000000
00001000
00000000
,
00000001
00000000
00000000
00000000
,
00000100
00000000
00000010
00000000
,
00000100
00000000
00000000
00000000
,
00000001
00000000
00000001
00000000
,
00001000
00000000
00000100
00000000
,
00010000
00000000
00010000
00000000
,
00010000
00000000
00010000
00000000
,
01000000
00000000
00100000
00000000
,
10000000
00000000
10000000
00000000
,
00010000
00000000
00100000
00000000
,
00001000
00000000
00001000
00000000
,
00001000
00000000
00000000
00000000
,
00000110
00000000
00000000
00000000
,
00002000
00000000
00000000
00003000
,
00011000
00000000
00000000
00000000
,
02000000
00000000
00000000
03000000
,
01100000
00000000
00000000
00000000
,
00001000
00000000
00010000
00000000
,
00001000
00000000
00000000
00000000
,
00000100
00000000
00000001
00000000
,
00000010
00000000
00000000
00000000
,
00001000
00000000
00000100
00000000
,
00001000
00000000
00000000
00000000
,
00010000
00000000
01000000
00000000
,
10000000
00000000
00000000
00000000
,
01000000
00000000
00010000
00000000
,
01000000
00000000
00000000
00000000
,
00001000
00000000
00010000
00000000
,
00001000
00000000
00001000
00000000
,
00000100
00000000
00000001
00000000
,
00000010
00000000
00000010
00000000
,
00000001
00000000
00000100
00000000
,
00001000
00000000
00001000
00000000
,
00010000
00000000
00001000
00000000
,
01000000
00000000
01000000
00000000
,
00010000
00000000
10000000
00000000
,
00000000
00000000
01000000
00000000
,
00010000
00000000
00001000
00000000
,
00000000
00000000
00010000
00000000
,
00001000
00000000
00000100
00000000
,
00000000
00000000
00000001
00000000
,
00000001
00000000
00000100
00000000
,
00001000
00000000
00010000
00000000
;

//---------------dance-double - ----------------
#NOTES:
     dance-double:
     :
     Medium:
     6:
     :
00000000
00000000
00000000
00000000
,
00000000
00000000
00000000
00000000
,
00000000
00000000
00000000
00000000
,
00000000
00000000
00000000
00000000
,
00000000
00000000
00000000
00000000
,
00000100
00000100
00000200
00000000
,
00000000
00000300
00000000
00000000
,
00010000
00010000
00020000
00000000
,
00000000
00030000
00000000
00000000
,
01000000
00100000
01000000
00100000
,
00010000
10000000
01000000
00000000
,
00010000
00001000
00010000
00001000
,
00000100
00000001
00001000
00000000
,
00000001
00000010
00000001
00000010
,
00000100
00001000
00000001
00000000
,
00000100
00001000
00000100
00001000
,
00010000
01000000
10000000
00100000
,
01000000
00010000
01000000
00010000
,
10000000
00100000
01000000
00000000
,
00001000
00010000
00001000
00010000
,
00001000
00000100
00000001
00000000
,
00001000
00000100
00001000
00000100
,
00000010
00000001
00000100
00000000
,
00001000
00010000
00001000
00010000
,
01000000
10000000
00100000
01000000
,
00010000
00100000
01000000
10000000
,
01000000
00010000
00001000
00010000
,
01000000
00010000
00001000
00010000
,
00001000
00000000
00000000
00000000
,
00000100
00000001
00000100
00000001
,
00001000
00000100
00010000
00001000
,
00000100
00000010
00001000
00000100
,
00010000
00001000
00000100
00000000
,
00001000
00010000
01000000
10000000
,
01000000
00000000
11000000
00000000
,
00100000
10000000
01000000
00010000
,
00001000
00000000
00011000
00000000
,
00010000
00001000
00000100
00000001
,
00000100
00000000
00000101
00000000
,
00000010
00000001
00000100
00001000
,
00010000
00000000
00011000
00000000
,
01000000
10000000
00100000
01000000
,
00010000
10000000
00010000
00000000
,
10000000
01000000
00010000
00001000
,
00000100
00000010
00000100
00000000
,
00000001
00000010
00000100
00001000
,
00000001
00000100
00000001
00000000
,
00000100
00001000
00010000
00100000
,
10000000
01000000
10000000
00000000
,
00020000
00030000
00200000
00300000
,
00001000
00010000
00001000
00010000
,
00000200
00000300
00002000
00003000
,
00000001
00000100
00000001
00000100
,
00002000
00003000
00020000
00030000
,
01000000
10000000
01000000
10000000
,
00200000
00300000
00020000
00030000
,
00001000
00000010
00001000
00000010
,
00001001
00000000
00001100
00000000
,
00000100
00000100
00000100
00000000
,
00011000
00000000
01001000
00000000
,
01000000
01000000
01000000
00000000
,
00010000
00010000
00010000
00000000
,
00000100
00000100
00000100
00000000
,
00000100
00000001
00000100
00001000
,
00010000
00000000
00000000
00000000
,
10000000
01000000
10000000
01000000
,
00020000
00030000
00002000
00003000
,
00000100
00000010
00000100
00000010
,
00002000
00003000
00000200
00000300
,
00010000
01000000
00010000
01000000
,
20000000
30000000
00200000
00300000
,
00010000
00001000
00010000
00001000
,
00000020
00000030
00002000
00003000
,
00010000
00001000
00000010
00000001
,
00000010
00000001
00000100
00001000
,
00010000
00001000
00000010
00000001
,
00000110
00000000
00011000
00000000
,
00001000
00010000
00100000
10000000
,
00100000
10000000
01000000
00010000
,
00001000
00010000
00100000
10000000
,
01100000
00000000
10010000
00000000
,
01000000
00010000
01000000
00000000
,
00001000
00010000
00001000
00000100
,
00000001
00000100
00001000
00000000
,
00010000
00001000
00010000
01000000
,
10000000
01000000
00010000
00000000
,
00001000
00010000
00100000
10000000
,
00100000
10000000
00010000
00100000
,
00001000
00010000
00001000
00000100
;

//---------------dance-double - ----------------
#NOTES:
     dance-double:
     :
     Hard:
     8:
     :
00000000
00000000
00000000
00000000
,
00000000
00000000
00000000
00000000
,
00000000
00000000
00000000
00000000
,
00000000
00000000
00000000
00000000
,
00000000
00000000
00000000
00000000
,
00000001
00000001
00001000
00000000
,
00000000
00000000
00000000
00000000
,
10000000
10000000
00010000
00000000
,
00000000
00000000
00000000
00000000
,
10000000
00000000
00010000
00000000
01000000
00100000
00000000
10000000
,
00000000
00010000
00000000
00001000
00010000
00000000
00011000
00000000
,
00001000
00000000
00000010
00000000
00000001
00001000
00000000
00001000
,
00000000
00000010
00000000
00000100
00000010
00000000
00010010
00000000
,
00001000
00000000
00000100
00000000
00001000
00010000
00000000
01000000
,
00000000
00100000
00000000
01000000
10000000
00000000
01100000
00000000
,
00010000
00000000
10000000
00000000
00010000
01000000
00000000
00100000
,
00000000
01000000
00000000
00010000
10000000
01000000
00100000
00001000
,
00001000
00000000
00001000
00000000
00000200
00000000
00000000
00000302
,
00000000
00000010
00000000
00000013
00000100
00000000
00000100
00000000
,
00010000
00000000
00010000
00000000
00002000
00000000
00000000
00203000
,
00000000
01000000
00000000
01300000
10000000
00000000
10000000
00000000
,
00010000
00000000
00010000
00000000
02000000
00000000
00000000
03002000
,
00000000
00010000
00000000
00013000
00001000
00000000
00000100
00000000
,
00000001
00000000
00000001
00000000
00002000
00000000
00000000
00003020
,
00000000
00000100
00000000
00000130
00000001
00000000
00001000
00000000
,
00000001
00001000
00000100
00010000
,
00001000
00000000
01000000
00000000
10000000
00000000
01000000
00010000
,
01000000
00100000
01000000
00010000
,
10000000
00000000
00100000
00000000
00010000
00000000
00001000
00010000
,
00001000
00000100
00000010
00010000
,
00000100
00000000
00001000
00000000
00000100
00000000
00000010
00000001
,
00000010
00001000
00010000
00100000
,
10000000
00010000
10000000
01000000
,
10000000
00010000
01000000
00000000
00110000
00000000
00000000
00000000
,
01000000
00010000
00001000
00010000
,
00001000
00000100
00000001
00000000
00000110
00000000
00000000
00000000
,
00001000
00000010
00000100
00000001
,
00001000
00000100
00000010
00000000
00001001
00000000
00000000
00000000
,
00000100
00001000
00010000
00100000
,
10000000
01000000
00100000
00000000
10010000
00000000
00000000
00000000
,
00001000
00010000
00000100
00010000
,
00000010
00000000
00001000
00000000
00000100
00000010
00000000
00000100
,
00000000
00010000
00000000
01000000
10000000
00000000
00000000
00000000
,
00100000
00000000
00010000
00000000
01000000
00100000
00000000
01000000
,
00000000
00001000
00000000
00000100
00000001
00000000
00000000
00000000
,
00000010
00000000
00001000
00000000
00000100
00000010
00000000
00000100
,
00000000
00010000
00000000
01000000
10000000
00000000
00000000
00000000
,
00100000
00000000
00010000
00000000
01000000
00100000
00000000
01000000
,
00000000
00001000
00000000
00000100
00000001
00000000
00000000
00000000
,
00000020
00000000
00000000
00000100
00000230
00000000
00000000
00010000
,
00000000
00020300
00000000
01000000
01030000
00000000
00000000
00000000
,
20000000
00000000
00000000
01000000
31000000
00000000
00000000
00010000
,
00000000
00020000
00000000
00001000
00031000
00000000
00000000
00000000
,
00000020
00000000
00000000
00000031
00000002
00000000
00000000
00001003
,
00000000
00002000
00000000
00000100
00003100
00000000
00000000
00000000
,
00020000
00000000
00000000
01030000
02000000
00000000
00000000
13000000
,
00000000
20000000
00000000
00100000
30100000
00000000
00000000
00000000
,
00011000
00000000
00010100
00000000
00001010
00000000
00000000
00000001
,
00000000
00001000
00000000
00000001
00001000
00000000
00010000
00000000
,
00000000
00000000
00011000
00000000
01001000
00000000
00000000
10000000
,
00000000
00010000
00000000
10000000
00010000
00000000
00001000
00000000
,
00000000
00000000
00011000
00000000
00010100
00000000
00000000
00000110
,
00000000
00000000
00001001
00000000
00000101
00000000
00000000
00000101
,
00000000
00001100
00000000
00010100
00000000
00011000
00000000
01001000
,
00000000
00000000
00000000
00000000
,
10000000
00000000
01000000
00000000
00010000
01000000
00000000
01000000
,
00000000
00010000
00000000
00001000
00010000
00000000
01100000
00000000
,
00010000
00000000
00001000
00000000
00000100
00000001
00000000
00000001
,
00000000
00000010
00000000
00001000
00000010
00000000
00001001
00000000
,
00001000
00000000
00000001
00000000
00000100
00000010
00000000
00000010
,
00000000
00000100
00000000
00001000
00010000
00000000
00010100
00000000
,
00010000
00000000
01000000
00000000
10000000
00100000
00000000
00100000
,
00000000
00010000
00000000
01000000
00100000
00000000
10010000
00000000
,
10000000
00000000
00010000
00000000
10000000
01000000
00010000
01000000
,
00000000
01000000
00000000
00100000
00010000
00000000
00000000
00000000
,
01000000
00000000
00001000
00000000
01000000
00010000
00100000
00010000
,
00000000
00010000
00000000
00100000
00001000
00000000
00000000
00000000
,
00010000
00000000
00001000
00000000
00000100
00000010
00000100
00000001
,
00000000
00000001
00000000
00001000
00000010
00000000
00000000
00000000
,
00001000
00000000
00000100
00000000
00000010
00000001
00000010
00001000
,
00000000
00001000
00000000
00010000
00001000
00000000
00000000
00000000
,
00100000
01000000
10000000
01000000
10000000
00100000
01000000
00100000
,
00000000
00100000
00000000
01000000
00001000
00000000
00000000
00000000
,
01000000
00010000
00100000
00010000
00100000
00001000
00010000
00001000
,
00000000
00001000
00000000
00000100
00000010
00000000
00000000
00000000
,
00001000
00000001
00000010
00000001
00000010
00000100
00010000
00000100
,
00000000
00000100
00000000
00010000
01000000
00000000
00000000
00000000
,
10000000
00010000
00100000
00010000
00100000
00001000
00010000
00001000
,
00000000
00001000
00000000
00000100
00000010
00001000
00000100
00000010
;
