#TITLE:HOT LIMIT;
#ARTIST:JOHN DESIRE;
#BANNER:HOT LIMIT.png;
#BACKGROUND:HOT LIMIT-bg.png;
#CDTITLE:./CDTITLES/DANCEMANIA J-PARADISE.png;
#MUSIC:HOT LIMIT.ogg;
#SAMPLESTART:13.834;
#SAMPLELENGTH:15;
#BPMS:0=156;

//---------------dance-single - ----------------
#NOTES:
     dance-single:
     :
     Beginner:
     1:
     :
0000
0000
0000
0000
,
0000
0000
0000
0000
,
0000
0000
0000
0000
,
0000
0000
0000
0000
,
1000
1000
1000
0000
,
0010
0000
0100
0000
,
0010
0000
0000
0000
,
0001
0000
1000
0000
,
0010
0010
0010
0000
,
0001
0000
0000
0000
,
0010
0000
0000
0000
,
0100
0000
0000
0000
,
1000
0000
0000
0000
,
0001
0000
0000
0000
,
0100
0000
0000
0000
,
0010
0000
0000
0000
,
0001
0000
0000
0000
,
1000
1000
0000
0000
,
0010
0000
0000
0000
,
1000
1000
0000
0000
,
0001
0000
0001
0000
,
0100
0100
0000
0000
,
0001
0000
0000
0000
,
0010
0010
0000
0000
,
0100
0000
0100
0000
,
1000
0000
0000
0000
,
0001
0000
0000
0000
,
0010
0000
0000
0000
,
0100
0000
0100
0000
,
0100
0000
0000
0000
,
0010
0000
0000
0000
,
1000
0000
0000
0000
,
1000
0000
0000
0000
,
0010
0000
0000
0000
,
0100
0100
0100
0000
,
0001
0000
0000
0000
,
1000
0000
0000
0000
,
0100
0000
0000
0000
,
1000
1000
1000
0000
,
0001
0000
0001
0000
,
0010
0000
0010
0000
,
0010
0000
0000
0000
,
0100
0100
0100
0000
,
1000
0000
1000
0000
,
0001
0000
0001
0000
,
0100
0000
0000
0000
,
0010
0010
0010
0000
,
0100
0000
0100
0000
,
0001
0000
0001
0000
,
1000
1000
1000
0000
,
0001
0000
1000
0000
,
0100
0000
0000
0000
,
0010
0000
0001
0000
,
1000
0000
0000
0000
,
0010
0000
1000
0000
,
0001
0000
0000
0000
,
1000
0000
0001
0000
,
0100
0000
0000
0000
,
1001
0000
0000
0000
,
0000
0000
0000
0000
,
1000
0000
1000
0000
,
0001
0000
0001
0000
,
1001
0000
0000
0000
,
0000
0000
0000
0000
,
0100
0000
0100
0000
,
0010
0000
0000
0000
;

//---------------dance-single - ----------------
#NOTES:
     dance-single:
     :
     Easy:
     5:
     :
0000
0000
0000
0000
,
0000
0000
0000
0000
,
0000
0000
0000
0000
,
0000
0000
0000
0000
,
0010
1000
0001
0000
,
0100
0100
0010
0010
,
0100
0001
1000
0001
,
0020
0030
0002
0003
,
1000
0000
1001
0000
,
1000
1000
0001
0001
,
1000
0001
0100
0010
,
1000
1000
0001
0001
,
1000
0001
0100
0000
,
0001
0001
1000
1000
,
0010
0100
0001
0010
,
0100
0100
0010
0010
,
0001
1000
0001
0000
,
1000
1000
0001
0000
,
0001
0001
1000
0000
,
0020
0030
0200
0300
,
0010
0010
0010
0000
,
1000
1000
0100
0000
,
0001
0001
0100
0000
,
1000
0001
1000
0010
,
0200
0300
0010
0000
,
0100
0100
0100
0010
,
1000
0001
1000
0000
,
1000
0001
0100
0010
,
1000
1000
1000
0000
,
0010
0010
0010
0100
,
0001
0001
1000
0000
,
0020
0000
0130
0000
,
0001
0001
0001
0000
,
1000
1000
1000
0000
,
1000
0001
0010
0100
,
1000
0100
1000
0010
,
0200
0300
0002
0003
,
1000
0010
0100
0000
,
0001
1000
0100
0010
,
0001
0100
0001
0010
,
0001
0001
0001
0100
,
0001
1000
1001
0000
,
1000
0001
1000
0001
,
0010
0100
0100
0010
,
0001
0100
1000
0010
,
0002
0003
0001
0000
,
1000
0001
1000
0001
,
1000
0100
0100
1000
,
0001
0100
0010
1000
,
0100
0010
0110
0000
,
0001
0001
1000
1000
,
0001
1000
0010
0100
,
0001
0001
1000
1000
,
0001
1000
0010
0000
,
1000
1000
0001
0001
,
0100
0010
1000
0100
,
0010
0010
0100
0100
,
1000
0001
1000
0000
,
0010
0010
0100
0000
,
0002
0000
0003
0000
,
2000
0000
3000
0000
,
0010
0010
0010
0000
,
1000
1000
0001
0000
,
1001
0000
0000
0000
,
0010
1000
0100
0010
,
0110
0000
0000
0000
;

//---------------dance-single - ----------------
#NOTES:
     dance-single:
     :
     Medium:
     6:
     :
0000
0000
0000
0000
,
0000
0000
0000
0000
,
0000
0000
0000
0000
,
0000
0000
0000
0000
,
1000
0000
0001
0000
0010
0100
1000
0000
,
0010
0000
0100
0000
,
0001
0000
0100
0000
0010
0100
0010
0000
,
1000
1000
0001
0001
,
1000
0010
1010
0000
,
0010
1000
0100
0000
0010
0001
0100
0000
,
0001
0000
1000
0000
0010
0100
1000
0000
,
0100
0001
0010
0000
0100
1000
0010
0000
,
1000
0000
0001
0000
1000
0001
1000
0000
,
0010
1000
0010
0000
0100
0001
0100
0000
,
0001
0010
0100
0000
1000
0000
0001
0000
,
0010
0001
0010
0000
0100
1000
0100
0000
,
1000
0010
0001
0010
1000
0000
0001
0000
,
0020
0000
1030
0000
0001
0010
0001
0000
,
0200
0000
0310
0000
1000
0100
1000
0000
,
0200
0010
0010
1300
,
0020
0000
0100
1030
,
0001
0000
1000
0000
0010
1000
0100
0000
,
1000
0000
0001
0000
0010
0001
0100
0000
,
0010
0000
0100
0000
0001
0010
0100
0000
,
1000
0100
1100
0000
,
1000
0000
0100
0000
0010
0000
0001
0010
,
0100
0000
1000
0000
0100
0000
0010
0001
,
0100
0010
1000
0001
,
0100
0000
0100
0000
0010
0010
0000
0000
,
0001
0000
0100
0000
0010
0000
1000
0010
,
0100
0000
0001
0000
0100
0000
0010
1000
,
0100
0010
1001
0000
,
2000
0100
3010
0000
,
0002
0100
0013
0000
,
0001
0000
1000
0000
0001
0010
0100
0000
,
1000
0000
0001
0000
1000
0010
0100
0000
,
0001
0100
0001
0000
1000
0100
1000
0000
,
0010
0010
0010
0000
,
0010
0100
0001
0100
,
0010
1000
0010
1000
0010
1000
0010
0000
,
1000
0100
0010
0001
,
0010
0001
0011
0000
,
1000
0000
0001
0000
1000
0100
0010
0000
,
0001
0000
1000
0000
0001
0100
0010
0000
,
1000
0010
1000
0000
0001
0010
0001
0000
,
0100
0100
0100
0000
,
0100
0010
1000
0100
,
0010
0001
0010
0001
0010
0001
0010
0000
,
0001
0100
0010
1000
,
0010
1000
1010
0000
,
1000
0001
1000
0001
,
0010
0000
0100
0000
1000
0100
1000
0100
,
1000
0001
1000
0001
,
0100
0000
0010
0000
1000
0100
0010
0000
,
0100
0010
0100
1000
,
0001
0000
0001
0000
0010
0001
0010
0001
,
0010
0100
1000
0010
,
0100
0000
0001
0000
1000
0001
1000
0000
,
0010
0010
0200
0310
,
1000
0000
0000
0001
0000
0100
0100
0000
,
0010
0010
0100
0100
,
0001
0100
0010
0000
0001
0100
0010
0000
,
1000
0001
1000
0000
,
0010
0000
0000
0100
0000
0001
0001
0000
,
1000
0100
0010
0001
,
1000
0001
1001
0000
;

//---------------dance-single - ----------------
#NOTES:
     dance-single:
     :
     Hard:
     8:
     :
0000
0000
0000
0000
,
0000
0000
0000
0000
,
0000
0000
0000
0000
,
0000
0000
0000
0000
,
2000
0000
3010
0000
0100
0001
0010
0000
,
0100
1000
0100
0000
0010
0001
0010
0000
,
0001
1000
0100
1000
0010
0100
0110
0000
,
1000
1000
0010
0010
0100
0100
0001
0010
,
0100
0010
0110
0000
,
0010
0000
0100
0000
1000
0001
0000
0000
0010
0000
0100
0000
1000
0010
0000
0000
,
0100
0001
1000
0100
0001
0100
0010
0000
,
0100
0000
0010
0000
0001
1000
0000
0000
0100
0000
0010
0000
0001
0100
0000
0000
,
0010
1000
0001
0100
0010
0100
1001
0000
,
1000
0000
0100
0000
0010
0001
0000
0000
1000
0000
0100
0000
0010
0100
0000
0000
,
0010
0001
0100
0001
0010
0100
1000
0000
,
0001
0000
0100
0000
0010
1000
0000
0000
0001
0000
0100
0000
0010
0100
0000
0000
,
0100
0001
0010
0100
1000
0001
1001
0000
,
1000
0000
0000
0010
0000
0000
0100
0000
0001
0000
0001
0000
1000
0000
0000
0000
,
0001
0000
0000
0100
0000
0000
0010
0000
1000
0000
1000
0000
0001
0000
0000
0000
,
0020
0000
0000
0130
0000
0000
0000
0000
1000
0000
0100
0010
0000
0000
0000
0000
,
0001
0000
0000
1000
0000
0000
0001
0000
1000
0000
0000
0000
0110
0000
0000
0000
,
1000
0000
0000
0001
0000
0000
1000
0000
0001
0000
0100
0000
0010
0000
0000
0000
,
1000
0000
0000
0001
0000
0000
1000
0000
0010
0000
0100
0000
0001
0000
0000
0000
,
1000
1000
0010
0100
0001
0010
0001
0000
,
1000
0000
0000
0010
0000
0000
1000
0000
0001
0000
0000
0000
1001
0000
0000
0000
,
0010
0100
0010
1000
0100
0010
0100
0010
,
0001
0100
0010
0100
0110
0000
0000
0000
,
0100
0000
0000
0001
0000
0000
1000
0000
0100
0000
0000
0000
0010
0000
0000
0000
,
0200
0000
0001
0000
1000
1300
0000
0000
,
0010
1000
0100
1000
0010
0100
0001
0100
,
1000
0100
0001
1000
0100
0000
0000
0000
,
1001
0000
0000
0100
0010
0000
0000
0000
,
1000
0000
0000
0001
0000
0000
1000
0000
1001
0000
0000
0000
0000
0000
0000
0000
,
0001
0000
0000
0010
0000
0000
0100
0000
0110
0000
0000
0000
0000
0000
0000
0000
,
0011
0000
0000
0000
0011
0000
0000
0000
1000
0000
0100
0010
0000
0000
0001
0000
,
0010
0000
0100
0000
0010
0000
0001
0000
0100
0000
0010
1000
0000
0000
0000
0000
,
1000
0100
0010
0001
0010
0100
1000
0000
,
0010
0000
0100
0000
0010
0000
1000
0100
0000
0000
0000
0000
0000
0000
0000
0000
,
1010
0000
0000
0000
1010
0000
0000
0000
1000
0000
0001
0100
0000
0000
0000
0000
,
0001
0000
0100
0000
0010
0000
1000
0000
0001
0000
0010
0100
0000
0000
0000
0000
,
1000
0100
0001
0000
0001
0100
1000
0000
,
1001
1001
1001
0000
,
0101
0000
0000
0000
0101
0000
0000
0000
0001
0000
0100
0010
0000
0000
1000
0000
,
0100
0000
0010
0000
0001
0000
0100
0000
1000
0000
0100
0010
0000
0000
0000
0000
,
1000
0100
0010
0001
0010
0100
1000
0000
,
0001
0000
0010
0000
0001
0000
0100
0010
0000
0000
0000
0000
1001
0000
0000
0000
,
1100
0000
0000
0000
1100
0000
0000
0000
1000
0000
0010
0100
0000
0000
0000
0000
,
0001
0000
0100
0000
0010
0000
1000
0000
0100
0000
1000
0001
0000
0000
0000
0000
,
0100
0010
1000
0000
1000
0010
0100
0000
,
0110
0110
1001
0000
,
0100
0000
0010
0000
0001
1000
0000
0000
0100
0000
0010
0000
0001
0100
0000
0000
,
0010
1000
0001
0010
1000
0010
0100
0000
,
0010
0000
0100
0000
1000
0001
0000
0000
0010
0000
0100
0000
1000
0010
0000
0000
,
0100
0001
1000
0010
0100
0010
1001
0000
,
0001
0000
0010
0000
0100
1000
0000
0000
0001
0000
0010
0000
0100
0010
0000
0000
,
0100
1000
0010
1000
0100
0010
0001
0000
,
1000
0000
0010
0000
0100
0001
0000
0000
1000
0000
0010
0000
0100
0010
0000
0000
,
0010
1000
0100
0010
0001
1000
1001
0000
,
0002
0000
0000
0000
0103
0000
0000
0000
0010
0000
0100
1000
0000
0000
0000
0000
,
0100
0000
0000
0002
0000
0010
0013
0000
,
0200
1300
0020
0130
,
0001
0010
0100
0000
0001
1000
0001
1000
,
0020
0000
0000
0000
0130
0000
0000
0000
0001
0000
1000
0010
0000
0000
0000
0000
,
1000
0000
0000
0200
0000
0010
0310
0000
,
1000
0100
0010
0000
0010
0100
1000
0000
,
1001
0110
1001
0000
;

//---------------dance-single - ----------------
#NOTES:
     dance-single:
     :
     Challenge:
     9:
     :
0000
0000
0000
0000
,
0000
0000
0000
0000
,
0000
0000
0000
0000
,
0000
0000
0000
0000
,
1001
0000
0000
0000
0110
0000
0000
0000
1000
0000
0001
0100
0000
0000
0000
0000
,
0001
0010
0100
0000
1000
0100
0010
0000
,
0001
0100
0010
1000
1001
0000
1001
0000
,
1000
0001
0010
0100
1000
0010
0100
0001
,
1100
0101
1001
0000
,
0010
0000
1000
0001
0010
0001
0000
0000
0010
0000
0001
1000
0010
1000
0000
0000
,
0010
0000
0100
0001
0100
0001
1000
0000
0100
0000
0010
0000
0001
0000
1000
0000
,
0100
0000
1000
0001
0100
0001
0000
0000
0100
0000
0001
1000
0100
1000
0000
0000
,
0010
1000
0001
0010
1001
0110
1001
0000
,
0010
0000
0001
1000
0100
1000
0000
0000
0010
0000
1000
0001
0100
0001
0000
0000
,
0010
0000
0100
1000
0100
1000
0001
0000
0100
0000
0010
0000
1000
0000
0001
0000
,
0100
0000
0001
1000
0010
1000
0000
0000
0100
0000
1000
0001
0010
0001
0000
0000
,
0100
0010
1000
0001
0110
1001
0110
0000
,
1000
0000
0001
0100
0000
0000
0001
0000
0010
0000
0100
1000
0000
0000
0010
0000
,
1000
0001
0000
0100
0000
0000
0001
0000
0020
0000
0000
0130
0000
0000
0000
0000
,
0110
0000
0000
0110
0000
0000
0100
0000
1000
0000
0010
0100
0000
0000
0000
0000
,
0001
0000
0000
0100
0000
0000
0010
0000
1000
0000
0000
0000
1001
0000
0000
0000
,
1000
0000
0100
0010
0000
0000
0001
0000
1000
0000
0100
0010
0000
0000
0000
0000
,
0100
0000
0000
0001
0000
0000
0010
0000
0100
0000
0100
0000
0100
0000
0000
0000
,
1000
0001
0000
1000
0000
0000
0100
0000
0010
0000
0001
0000
0010
0000
0100
0000
,
1000
0000
0000
0010
0000
0000
1000
0000
0100
0000
0000
0000
1000
0100
0010
0001
,
1000
0000
0000
0010
0000
0000
0100
0000
0010
0000
0000
0001
0000
0000
0010
0000
,
1000
0000
0000
0100
0000
0000
0010
0000
0002
0000
0000
0000
0013
0000
0000
0000
,
0100
0000
0000
1000
0000
0000
0010
0000
0100
0000
0000
0000
0010
0000
0000
0000
,
0110
0000
1001
0000
0110
0110
0000
0000
,
0010
0000
0000
0001
0000
0000
0100
0000
0001
0000
0000
0010
0000
0000
0100
0000
,
1000
0000
0000
0001
0000
0000
1000
0000
0010
0000
0000
0000
1000
0010
0100
0001
,
2000
0000
0000
0100
3100
0000
0000
0000
,
0010
0000
0000
0001
0000
0000
0100
0000
0010
0000
0000
0000
0000
0000
0000
0000
,
1000
0000
0000
0010
0000
0000
0100
0000
0002
0000
0000
0000
1003
0000
0000
0000
,
1100
0000
0000
0000
0101
0000
0000
0000
0001
0000
0010
0100
0000
0000
1000
0000
,
0100
0000
0010
0000
0100
0000
1000
0000
0010
0000
0100
0001
0000
0000
0000
0000
,
1000
0001
1000
0001
0020
0000
1030
0000
,
0001
0000
0100
0000
0010
0000
1000
0010
0000
0000
0000
0000
0000
0000
0000
0000
,
1010
0000
0000
0000
0011
0000
0000
0000
0100
0000
1000
0010
0000
0000
0000
0000
,
1000
0000
0010
0000
0100
0000
0001
0000
1000
0000
0100
0010
0000
0000
0000
0000
,
0100
0010
0001
0100
1000
0100
0001
0010
,
0011
1010
1001
0000
,
1100
0000
0000
0000
0101
0000
0000
0000
0001
0000
0010
0100
0000
0000
1000
0000
,
0010
0000
0100
0000
0001
0000
1000
0000
0001
0000
0010
0100
0000
0000
0000
0000
,
0001
1000
0010
1000
0200
0000
0301
0000
,
1000
0000
0010
0000
0100
0000
0001
0100
0000
0000
0000
0000
0001
0000
0100
0000
,
0101
0000
0000
0000
1010
0000
0000
0000
1000
0000
0100
0010
0000
0000
0000
0000
,
0001
0000
0010
0000
0100
0000
1000
0000
0100
0000
0010
0001
0000
0000
0000
0000
,
0010
0100
1000
0010
0001
0010
1000
0100
,
1100
0101
1001
0000
,
0100
0000
0001
1000
0100
1000
0000
0000
0100
0000
1000
0001
0100
0001
0000
0000
,
0100
0000
0010
1000
0010
1000
0001
0000
0010
0000
0100
0000
1000
0000
0001
0000
,
0010
0000
0001
1000
0010
1000
0000
0000
0010
0000
1000
0001
0010
0001
0000
0000
,
0100
0001
1000
0100
1001
0110
1001
0000
,
0100
0000
1000
0001
0010
0001
0000
0000
0100
0000
0001
1000
0010
1000
0000
0000
,
0100
0000
0010
0001
0010
0001
1000
0000
0010
0000
0100
0000
0001
0000
1000
0000
,
0010
0000
1000
0001
0100
0001
0000
0000
0010
0000
0001
1000
0100
1000
0000
0000
,
0010
0100
0001
1000
0110
1001
0110
0000
,
1100
0000
0000
0000
0101
0000
0000
0000
0001
0000
0100
1000
0000
0000
0000
0000
,
0101
0000
0000
1100
0000
0100
0010
0000
,
0001
0001
1000
1000
,
0001
0000
0100
0000
0001
0000
0000
0000
0010
0100
1000
0100
0010
0000
0000
0000
,
0011
0000
0000
0000
1100
0000
0000
0000
0001
0000
0010
0100
0000
0000
0000
0000
,
1001
0000
0000
0110
0000
1000
0100
0000
,
1000
0100
0010
0001
0010
0100
1000
0100
,
1001
1100
0011
0000
;

//---------------dance-double - ----------------
#NOTES:
     dance-double:
     :
     Beginner:
     1:
     :
00000000
00000000
00000000
00000000
,
00000000
00000000
00000000
00000000
,
00000000
00000000
00000000
00000000
,
00000000
00000000
00000000
00000000
,
00000010
00000000
00000100
00000000
,
00000001
00000000
00000100
00000000
,
00000010
00000000
00000000
00000000
,
00010000
00000000
00001000
00000000
,
00100000
00100000
00100000
00000000
,
00010000
00000000
00000000
00000000
,
10000000
00000000
00000000
00000000
,
00100000
00000000
00000000
00000000
,
01000000
00000000
00000000
00000000
,
00010000
00000000
00000000
00000000
,
00001000
00000000
00000000
00000000
,
00010000
00000000
00000000
00000000
,
00000100
00000000
00000000
00000000
,
00001000
00001000
00000000
00000000
,
00000010
00000000
00000000
00000000
,
00001000
00001000
00000000
00000000
,
00000001
00000000
00000001
00000000
,
00000100
00000100
00000000
00000000
,
00000010
00000000
00000000
00000000
,
00001000
00001000
00000000
00000000
,
00000100
00000000
00000100
00000000
,
00010000
00000000
00000000
00000000
,
00001000
00000000
00000000
00000000
,
00100000
00000000
00000000
00000000
,
00010000
00000000
00010000
00000000
,
00010000
00000000
00000000
00000000
,
01000000
00000000
00000000
00000000
,
00100000
00000000
00000000
00000000
,
10000000
00000000
00000000
00000000
,
00010000
00000000
00000000
00000000
,
00100000
00100000
00100000
00000000
,
00100000
00000000
00000000
00000000
,
00001000
00000000
00000000
00000000
,
00010000
00000000
00000000
00000000
,
00000100
00000100
00000100
00000000
,
00000100
00000000
00000100
00000000
,
00001000
00000000
00001000
00000000
,
00001000
00000000
00000000
00000000
,
00000001
00000001
00000001
00000000
,
00000001
00000000
00000001
00000000
,
00000010
00000000
00000010
00000000
,
00000100
00000000
00000000
00000000
,
00000010
00000010
00000010
00000000
,
00010000
00000000
00010000
00000000
,
00001000
00000000
00001000
00000000
,
00100000
00100000
00100000
00000000
,
00100000
00000000
00010000
00000000
,
10000000
00000000
00000000
00000000
,
01000000
00000000
00100000
00000000
,
00010000
00000000
00000000
00000000
,
00100000
00000000
00001000
00000000
,
00010000
00000000
00000000
00000000
,
00001000
00000000
00010000
00000000
,
00001000
00000000
00000000
00000000
,
00011000
00000000
00000000
00000000
,
00000000
00000000
00000000
00000000
,
00010000
00000000
00000100
00000000
,
00001000
00000000
00000001
00000000
,
00001001
00000000
00000000
00000000
,
00000000
00000000
00000000
00000000
,
00000001
00000000
00001000
00000000
,
00000010
00000000
00000000
00000000
;

//---------------dance-double - ----------------
#NOTES:
     dance-double:
     :
     Easy:
     5:
     :
00000000
00000000
00000000
00000000
,
00000000
00000000
00000000
00000000
,
00000000
00000000
00000000
00000000
,
00000000
00000000
00000000
00000000
,
00000010
00000000
00001000
00000000
,
00000001
00001000
00000010
00001000
,
00000100
00000000
00010000
00000000
,
00001000
00000000
00100000
00000000
,
00010000
01000000
00100000
00000000
,
10000000
00000000
01000000
00000000
,
00100000
00010000
01000000
00000000
,
00001000
00000000
00010000
00000000
,
00000100
00001000
00000100
00000000
,
00001000
00000000
00000001
00000000
,
00000010
00000100
00010000
00001000
,
00010000
00000000
00000100
00000000
,
00001000
00000000
00000010
00000000
,
00001000
00000100
00010000
00000000
,
01000000
10000000
00010000
00000000
,
00100000
00100000
00100000
00000000
,
00020000
00000000
10030000
00000000
,
10000000
01000000
00010000
00000000
,
00001000
00000010
00000001
00000000
,
00001000
00000010
00001000
00000000
,
00000020
00000000
00000130
00000000
,
00000010
00010000
00001000
00000000
,
00020000
00000000
00030100
00000000
,
00020000
00000000
00031000
00000000
,
00100000
00010000
00100000
00000000
,
00020000
00000000
10030000
00000000
,
00100000
01000000
00010000
00000000
,
00200000
00000000
00300000
00000000
,
00002000
00000000
00003000
00000000
,
00010000
00000000
00000100
00000000
,
00010000
00001000
00010000
00000000
,
00000010
00000000
00001000
00000000
,
00000100
00000000
00000010
00000000
,
00000001
00000010
00000001
00000000
,
00001000
00000010
00001000
00000000
,
00000100
00000000
00010000
00000000
,
00001000
00000000
00000100
00000000
,
00001000
00010000
00001000
00000000
,
00100000
00010000
00100000
00000000
,
00010000
00000000
10000000
00000000
,
00100000
00000000
01000000
00000000
,
00100000
01000000
00100000
00000000
,
10000000
00000000
00010000
00000000
,
00100000
00001000
00100000
00000000
,
00001000
00000000
00010000
00000000
,
00001000
00010000
00011000
00000000
,
00010000
00000000
00000100
00000000
,
00000010
00000001
00000100
00000010
,
00001000
00000000
00000001
00000000
,
00000100
00001000
00010000
01000000
,
10000000
00000000
00100000
00000000
,
10000000
01000000
00100000
00010000
,
01000000
00000000
00001000
00000000
,
00010000
00000100
00001000
00000010
,
00000100
00000000
00000001
00000000
,
00000200
00000000
00000000
00000300
,
00000010
00001000
00000100
00000000
,
00002000
00000000
00000000
00003000
,
00000010
00000100
00001000
00000000
,
00020000
00000000
00000000
00030000
,
00001000
01000000
00100000
10000000
,
00010000
10000000
10010000
00000000
;

//---------------dance-double - ----------------
#NOTES:
     dance-double:
     :
     Medium:
     6:
     :
00000000
00000000
00000000
00000000
,
00000000
00000000
00000000
00000000
,
00000000
00000000
00000000
00000000
,
00000000
00000000
00000000
00000000
,
00010000
00000000
01000000
00000000
00100000
10000000
01000000
00000000
,
10000000
01000000
00100000
00010000
,
00001000
00000000
00000100
00000000
00001000
00000010
00000100
00000000
,
00000001
00000000
00000010
00000000
00000100
00000000
00001000
00000100
,
00000001
00000100
00000110
00000000
,
00000001
00000100
00000010
00000000
00000100
00001000
00010000
00000000
,
00100000
10000000
01000000
00000000
10000000
01000000
00100000
00000000
,
00010000
00100000
00010000
00000000
01000000
00001000
00010000
00000000
,
00001000
00010000
00001000
00000000
00010000
00000100
00000010
00000000
,
00000001
00000010
00000100
00000000
00001000
00000010
00000100
00000000
,
00000001
00000100
00001000
00000000
00010000
01000000
10000000
00000000
,
00100000
10000000
01000000
00000000
00100000
00010000
01000000
00000000
,
00100000
10000000
01000000
00000000
00110000
00000000
00011000
00000000
,
00010000
00000100
00001000
00000010
,
00000100
00000001
00000010
00000100
,
00001000
00000001
00000100
00001000
,
00010000
00000000
00001000
00011000
,
00010000
01000000
00100000
00010000
,
01000000
10000000
01000000
00100000
,
10000000
00010000
00100000
00001000
,
00010000
00001000
00011000
00000000
,
00000000
00001000
00000000
00000100
00000000
00000010
00000000
00001000
,
00000000
00000001
00000000
00000010
00000000
00000100
00001000
00000100
,
00000000
00010000
00000000
00001000
00000000
00010000
00000000
01000000
,
00100000
00000000
00010000
00000000
10000000
01000000
00000000
00000000
,
00000000
00100000
00000000
00001000
00000000
00010000
00000000
00000100
,
00000000
00001000
00000000
00000010
00000000
00001000
00000100
00000010
,
00000002
00000000
00000013
00000000
,
00000100
00000100
00000110
00000000
,
00010000
00010000
00011000
00000000
,
00001000
00010000
01000000
00000000
00010000
00001000
00000100
00000000
,
00001000
00100000
00010000
01000000
,
00010000
01000000
00100000
00000000
01000000
00100000
10000000
00000000
,
00010000
00100000
00110000
00000000
,
00100000
00010000
01000000
00000000
00001000
00000000
00011000
00000000
,
00010000
00000000
00000100
00000000
00001000
00000010
00000100
00000000
,
00000001
00001001
00001000
00001100
,
00000100
00010000
00011000
00000000
,
01100000
01100000
00200000
10300000
,
01000000
10000000
00100000
01000000
,
00010000
00100000
00010000
00000000
00100000
00001000
00100000
00000000
,
00001000
00010000
00002000
00000000
00013000
00000000
00000000
00000000
,
00001000
00000100
00000001
00001000
,
00000001
00000010
00000100
00001000
00000100
00000010
00000001
00000000
,
00000200
00000010
00000010
00001300
,
00010000
00001000
00011000
00000000
,
00010000
00001000
00100000
00000000
00010000
00100000
01000000
00000000
,
10000000
00010000
10000000
00000000
01000000
00100000
00010000
00000000
,
00100000
00001000
00010000
00000000
00001000
00010000
00000100
00000000
,
00001000
00000010
00000100
00000000
00000001
00000010
00000001
00000000
,
00000100
00000010
00001000
00000000
00000100
00010000
00001000
00000000
,
00001000
00010000
01000000
00000000
10000000
00100000
01000000
00000000
,
00010000
00100000
00010000
00000000
01000000
10000000
01000000
00000000
,
00100000
00010000
01000000
00000000
00100000
01000000
00010000
00000000
,
00100000
00000000
00001000
00000000
00010000
00001000
00000100
00000000
,
00000002
00000000
00000000
00002000
00000000
00000000
00003003
00000000
,
00000010
00001000
00000100
00010000
,
00001000
00100000
00010000
01000000
,
01100000
01100000
01100000
00000000
,
20000000
00000000
00000000
00020000
00000000
00000000
30030000
00000000
,
10000000
01000000
00010000
00001000
,
00000010
00000001
00001001
00000000
;

//---------------dance-double - ----------------
#NOTES:
     dance-double:
     :
     Hard:
     8:
     :
00000000
00000000
00000000
00000000
,
00000000
00000000
00000000
00000000
,
00000000
00000000
00000000
00000000
,
00000000
00000000
00000000
00000000
,
00001001
00000000
00001100
00000000
00010000
00001000
00100000
00000000
,
01000000
00100000
00010000
00000000
00100000
01000000
10000000
00000000
,
00010000
10000000
01000000
00010000
00001000
00000010
00000110
00000000
,
00000010
00000010
00000001
00000001
00000100
00000100
00000010
00001000
,
00000100
00010000
00011000
00000000
,
00001000
00000000
01000000
00000000
00100000
10000000
00000000
00000000
01000000
00000000
00100000
00000000
00010000
10000000
00000000
00000000
,
01000000
00010000
00001000
00000100
00000001
00001000
00000010
00000000
,
00000100
00000000
00000001
00000000
00001000
00000100
00000000
00000000
00010000
00000000
00001000
00000000
00100000
00010000
00000000
00000000
,
01000000
00010000
01000000
10000000
01000000
00010000
01010000
00000000
,
00100000
00000000
00010000
00000000
01000000
00001000
00000000
00000000
00010000
00000000
00001000
00000000
00000100
00000010
00000000
00000000
,
00000100
00000001
00000010
00000100
00001000
00000001
00001000
00000000
,
00000100
00000000
00000010
00000000
00000001
00001000
00000000
00000000
00000010
00000000
00010000
00000000
00001000
00010000
00000000
00000000
,
01000000
00100000
01000000
10000000
00010000
00100000
00110000
00000000
,
00010000
00000000
00000000
01000000
00000000
00000000
00001000
00000000
00010000
00000000
00000000
00001000
00000000
00000000
00000100
00000000
,
00000001
00000000
00000000
00001000
00000000
00000000
00000010
00000000
00000100
00000000
00000000
00001000
00000000
00000000
00000000
00000000
,
00000010
00000000
00000000
00010000
00000000
00000000
00001000
00000000
00010000
00000000
00000000
01000000
00000000
00000000
00000000
00000000
,
00100000
00000000
00000000
01000000
00000000
00000000
00100000
00000000
00010000
00000000
00000000
00000000
10100000
00000000
00000000
00000000
,
01000000
00000000
00000000
00010000
00000000
00000000
00100000
00000000
00001000
00000000
00000000
00010000
00000000
00000000
00000000
00000000
,
00000100
00000000
00000000
00000010
00000000
00000000
00000001
00000000
00001000
00000000
00000001
00000000
00001001
00000000
00000000
00000000
,
00001000
00000100
00001100
00000000
00010000
00000000
00011000
00000000
,
01000000
00000000
00000000
00010000
00000000
00000000
20000000
00000000
02000000
00000000
00000000
00000000
33000000
00000000
00000000
00000000
,
10000000
01000000
00010000
01000000
00010000
00001000
00010000
00001000
,
00000100
00001000
00000100
00000010
00000110
00000000
00000000
00000000
,
00001000
00000000
00000000
00000001
00000000
00000000
00000100
00000000
00000010
00000000
00000000
00000000
00001000
00000000
00000000
00000000
,
00001100
00000000
00011000
00000000
00110000
10010000
00000000
00000000
,
00010000
00100000
00001000
00010000
00001000
00000100
00000010
00001000
,
00000100
00000010
00000100
00001000
00000001
00000000
00001001
00000000
,
00011000
00000000
00000000
00010000
02000000
00000000
00000000
03000000
,
00100000
00000000
00000000
01000000
00000000
00000000
01000000
00000000
00200000
00000000
00000000
00000000
00310000
00000000
01000000
00000000
,
00010000
00000000
00000000
00100000
00000000
00000000
01000000
00000000
01100000
00000000
00000000
00000000
00000000
00000000
00000000
00000000
,
10010000
00000000
00000000
00000000
00011000
00000000
00000000
00000000
00010000
00000000
00001000
00000100
00000000
00000000
00000010
00000000
,
00001000
00000000
00000001
00000000
00000010
00000000
00000100
00000000
00000001
00000000
00000100
00000010
00000000
00000000
00000000
00000000
,
00000001
00000100
00001000
00010000
00100000
10000000
00010000
00000000
,
10000000
00000000
00010000
00000000
00100000
00000000
01000000
10000000
00000000
00000000
00000000
00000000
00000000
00000000
00000000
00000000
,
01100000
00000000
00000000
00000000
00011000
00000000
00000000
00000000
00001000
00000000
00010000
01000000
00000000
00000000
00000000
00000000
,
00100000
00000000
00001000
00000000
00010000
00000000
00000100
00000000
00000010
00000000
00000001
00000100
00000000
00000000
00000000
00000000
,
00001001
00000001
00000001
00000000
00011000
00010000
00010000
00000000
,
00011000
10010000
01100000
00000000
,
01010000
00000000
00000000
00000000
00011000
00000000
00000000
00000000
00010000
00000000
01000000
10000000
00000000
00000000
00100000
00000000
,
10000000
00000000
00010000
00000000
00100000
00000000
00001000
00000000
00010000
00000000
00000100
00001000
00000000
00000000
00000000
00000000
,
00000001
00000100
00001000
00010000
01000000
10000000
00010000
00000000
,
00110000
00011000
00001100
00011000
,
00001100
00000000
00000000
00000000
00000110
00000000
00000000
00000000
00000001
00000000
00000100
00000010
00000000
00000000
00000000
00000000
,
00001000
00000000
00000100
00000000
00010000
00000000
00001000
00000000
00100000
00000000
01000000
10000000
00000000
00000000
00000000
00000000
,
10010000
00010000
00010000
00000000
00011000
00010000
00010000
00000000
,
00011000
00000110
00001001
00000000
,
00000001
00000000
00000100
00000000
00000001
00001000
00000000
00000000
00000100
00000000
00010000
00000000
00001000
00010000
00000000
00000000
,
01000000
10000000
00100000
01000000
00010000
10000000
00010000
00000000
,
01000000
00000000
00001000
00000000
00010000
00001000
00000000
00000000
00000100
00000000
00000010
00000000
00001000
00000100
00000000
00000000
,
00000010
00000001
00000100
00001000
00010000
00100000
01100000
00000000
,
00100000
00000000
10000000
00000000
00010000
00100000
00000000
00000000
00001000
00000000
00010000
00000000
00000100
00001000
00000000
00000000
,
00000001
00000010
00000100
00001000
00000100
00010000
00001000
00000000
,
01000000
00000000
10000000
00000000
01000000
00100000
00000000
00000000
01000000
00000000
00010000
00000000
00100000
01000000
00000000
00000000
,
10000000
01000000
00010000
00001000
00000010
00000001
00000011
00000000
,
00001010
00000000
00000000
00000000
00011000
00000000
00000000
00000000
00001000
00000000
00010000
00001000
00000000
00000000
00000000
00000000
,
00200000
00000000
00000000
02000000
00300000
10000000
10000000
03000000
,
00020000
00130000
00002000
00013000
,
00000100
00000010
00000001
00000000
00001000
00000100
00001000
00000100
,
00001100
00000000
00000000
00000000
00000101
00000000
00000000
00000000
00001000
00000000
00100000
00010000
00000000
00000000
00000000
00000000
,
02000000
00000000
00000000
03200000
00000000
01000000
01300000
00000000
,
00010000
00100000
01000000
00000000
00100000
00001000
00010000
00000000
,
00011000
00001001
00000110
00000000
;

//---------------dance-double - ----------------
#NOTES:
     dance-double:
     :
     Challenge:
     9:
     :
00000000
00000000
00000000
00000000
,
00000000
00000000
00000000
00000000
,
00000000
00000000
00000000
00000000
,
00000000
00000000
00000000
00000000
,
00000110
00000000
00000000
00000000
00001001
00000000
00000000
00000000
00000100
00000000
00000010
00010000
00000000
00000000
00000000
00000000
,
00000100
00000010
00000001
00000000
00001000
00000100
00010000
00000000
,
00001000
00010000
01000000
00100000
01100000
00000000
11000000
00000000
,
10000000
01000000
00010000
00001000
00000100
00000001
00001000
00000010
,
00001010
00000110
00011000
00000000
,
00001000
00000000
00010000
01000000
00100000
01000000
00000000
00000000
10000000
00000000
00100000
01000000
00010000
01000000
00000000
00000000
,
00100000
00000000
10000000
01000000
00100000
01000000
10000000
00000000
00010000
00000000
00100000
00000000
00001000
00000000
00010000
00000000
,
00000100
00000000
00001000
00000010
00000100
00000010
00000000
00000000
00000010
00000000
00001000
00000100
00000010
00000100
00000000
00000000
,
00001000
00000001
00000100
00000010
00001010
00001000
00011000
00000000
,
00001000
00000000
00100000
01000000
10000000
01000000
00000000
00000000
10000000
00000000
00100000
01000000
00010000
01000000
00000000
00000000
,
00010000
00000000
00100000
00001000
00010000
00001000
00010000
00000000
00000010
00000000
00001000
00000000
00000001
00000000
00000010
00000000
,
00000100
00000000
00000010
00000001
00001000
00000001
00000000
00000000
00000100
00000000
00000010
00010000
00001000
00010000
00000000
00000000
,
00001000
01000000
00100000
10000000
10100000
00100000
00011000
00000000
,
00010000
00000000
00001000
00010000
00000000
00000000
00001000
00000000
00000100
00000000
00000010
00001000
00000000
00000000
00000100
00000000
,
00000010
00000001
00000000
00000100
00000000
00000000
00001000
00000000
00000200
00000000
00000000
00010300
00000000
00000000
00000000
00000000
,
00011000
00000000
00000000
00011000
00000000
00000000
00010000
00000000
01000000
00000000
10000000
00010000
00000000
00000000
00000000
00000000
,
01000000
00000000
00000000
00100000
00000000
00000000
10000000
00000000
00010000
00000000
00000000
00000000
00110000
00000000
00000000
00000000
,
00100000
00000000
00001000
00010000
00000000
00000000
00000100
00000000
00001000
00000000
00000010
00000100
00000000
00000000
00000000
00000000
,
00000001
00000000
00000000
00001000
00000000
00000000
00000100
00000000
00010000
00000000
00010000
00000000
00010000
00000000
00000000
00000000
,
00001000
00010000
00000000
00001000
00000000
00000000
00000100
00000000
00000010
00000000
00001000
00000000
00000001
00000000
00000100
00000000
,
00000010
00000000
00000000
00010000
00000000
00000000
00001000
00000000
01000000
00000000
00000000
00000000
00010000
00100000
01000000
10000000
,
01000000
00000000
00000000
10000000
00000000
00000000
00010000
00000000
00100000
00000000
00000000
00001000
00000000
00000000
00010000
00000000
,
00000100
00000000
00000000
00000010
00000000
00000000
00000001
00000000
00000200
00000000
00000000
00000000
00000301
00000000
00000000
00000000
,
00001000
00000000
00000000
00000100
00000000
00000000
00010000
00000000
00001000
00000000
00000000
00000000
00010000
00000000
00000000
00000000
,
00011000
00000000
10010000
00000000
00011000
00011000
00000000
00000000
,
00010000
00000000
00000000
01000000
00000000
00000000
00100000
00000000
00010000
00000000
00000000
01000000
00000000
00000000
00010000
00000000
,
00100000
00000000
00000000
01000000
00000000
00000000
10000000
00000000
00010000
00000000
00000000
00000000
00100000
00001000
00010000
00001000
,
00020000
00000000
00000000
01000000
01030000
00000000
00000000
00000000
,
00001000
00000000
00000000
00010000
00000000
00000000
00001000
00000000
00000100
00000000
00000000
00000000
00000000
00000000
00000000
00000000
,
00000001
00000000
00000000
00001000
00000000
00000000
00000100
00000000
00000020
00000000
00000000
00000000
00000130
00000000
00000000
00000000
,
00011000
00000000
00000000
00000000
01010000
00000000
00000000
00000000
10000000
00000000
01000000
00100000
00000000
00000000
00010000
00000000
,
01000000
00000000
00001000
00000000
00010000
00000000
01000000
00000000
00100000
00000000
00010000
01000000
00000000
00000000
00000000
00000000
,
00001000
00010000
00000100
00001000
00000200
00000000
00000301
00000000
,
00000100
00000000
00001000
00000000
00000010
00000000
00000100
00000001
00000000
00000000
00000000
00000000
00000000
00000000
00000000
00000000
,
00000110
00000000
00000000
00000000
00011000
00000000
00000000
00000000
00100000
00000000
00010000
01000000
00000000
00000000
00000000
00000000
,
00100000
00000000
01000000
00000000
00001000
00000000
00010000
00000000
00001000
00000000
00010000
00000100
00000000
00000000
00000000
00000000
,
00001000
00000100
00000001
00000100
00001000
00000010
00000100
00001000
,
00000110
00011000
01100000
00000000
,
00110000
00000000
00000000
00000000
11000000
00000000
00000000
00000000
10000000
00000000
01000000
10000000
00000000
00000000
00100000
00000000
,
01000000
00000000
00100000
00000000
10000000
00000000
01000000
00000000
00100000
00000000
00001000
00010000
00000000
00000000
00000000
00000000
,
00001000
00000100
00000010
00001000
00000002
00000000
00000013
00000000
,
00000100
00000000
00001000
00000000
00000010
00000000
00010000
00001000
00000000
00000000
00000000
00000000
01000000
00000000
00100000
00000000
,
01100000
00000000
00000000
00000000
00011000
00000000
00000000
00000000
01000000
00000000
00010000
00100000
00000000
00000000
00000000
00000000
,
01000000
00000000
10000000
00000000
00010000
00000000
00100000
00000000
00001000
00000000
00010000
00001000
00000000
00000000
00000000
00000000
,
00000100
00000001
00000010
00000100
00000010
00000001
00000100
00001000
,
00000110
00011000
01100000
00000000
,
00010000
00000000
00100000
00001000
00010000
00001000
00000000
00000000
00100000
00000000
00010000
01000000
00100000
01000000
00000000
00000000
,
00010000
00000000
10000000
01000000
00100000
01000000
00100000
00000000
00001000
00000000
00010000
00000000
00000100
00000000
00001000
00000000
,
00000001
00000000
00000100
00000010
00001000
00000010
00000000
00000000
00000100
00000000
00000001
00001000
00000100
00001000
00000000
00000000
,
00000010
00010000
00001000
01000000
01010000
01000000
00011000
00000000
,
01000000
00000000
00100000
00010000
01000000
00010000
00000000
00000000
10000000
00000000
00010000
00100000
00001000
00100000
00000000
00000000
,
00001000
00000000
00010000
00000100
00001000
00000100
00000010
00000000
00000001
00000000
00000100
00000000
00000010
00000000
00000100
00000000
,
00000001
00000000
00000010
00000100
00001000
00000100
00000000
00000000
00010000
00000000
00001000
01000000
00100000
01000000
00000000
00000000
,
00010000
00100000
01000000
00100000
01100000
00100000
00011000
00000000
,
10010000
00000000
00000000
00000000
11000000
00000000
00000000
00000000
00100000
00000000
00001000
00010000
00000000
00000000
00000000
00000000
,
00011000
00000000
00000000
00001100
00000000
00000010
00000001
00000000
,
00000100
00000100
00000001
00000001
,
00001000
00000000
00000100
00000000
00010000
00000000
00000000
00000000
00001000
00010000
00001000
00010000
00001000
00000000
00000000
00000000
,
00011000
00000000
00000000
00000000
01100000
00000000
00000000
00000000
00001000
00000000
00010000
00000100
00000000
00000000
00000000
00000000
,
00011000
00000000
00000000
00000110
00000000
00000001
00000100
00000000
,
00000001
00000100
00001000
00000100
00010000
01000000
00100000
10000000
,
10010000
00011000
00001001
00000000
;
