#TITLE:Guilt Is a Useless Emotion (Mac Quayle Mix);
#ARTIST:New Order;
#BANNER:Guilt Is a Useless Emotion (Mac Quayle Mix).png;
#BACKGROUND:Guilt Is a Useless Emotion (Mac Quayle Mix)-bg.png;
#CDTITLE:./CDTITLES/Dance Dance Revolution UNIVERSE.png;
#MUSIC:Guilt Is a Useless Emotion (Mac Quayle Mix).ogg;
#SAMPLESTART:7.18;
#SAMPLELENGTH:15;
#BPMS:0=133;

//---------------dance-single - ----------------
#NOTES:
     dance-single:
     :
     Beginner:
     1:
     :
0000
0000
0000
0000
,
0000
0000
0000
0000
,
0000
0000
0000
0000
,
1000
0000
0000
0000
,
0001
0000
0000
0000
,
0100
0000
0000
0000
,
0010
0000
0000
0000
,
1000
0000
1000
0000
,
0001
0000
0001
0000
,
1001
0000
0000
0000
,
0100
0000
0100
0000
,
0100
0000
0000
0000
,
0010
0000
0000
0000
,
1000
0000
1000
0000
,
1000
0000
0000
0000
,
0001
0000
0000
0000
,
1000
0000
0000
0000
,
0110
0000
0000
0000
,
0010
0000
0010
0000
,
0010
0000
0000
0000
,
1000
0000
0000
0000
,
0001
0000
0001
0000
,
0001
0000
0000
0000
,
0100
0000
0000
0000
,
0010
0000
0000
0000
,
1000
1000
1000
0000
,
1000
0000
0000
0000
,
0001
0001
0001
0000
,
0001
0000
0000
0000
,
2002
0000
0000
3003
,
0000
0000
0000
0000
,
0220
0000
0000
0330
,
0000
0000
0000
0000
,
1000
1000
1000
0000
,
1000
0000
0010
0000
,
0100
0100
0100
0000
,
0100
0000
0001
0000
,
0001
0000
1000
0000
,
0001
0001
0001
0000
,
1000
0000
0001
0000
,
1000
1000
1000
0000
,
0100
0000
0010
0000
,
0100
0100
0100
0000
,
0010
0000
0100
0000
,
0010
0010
0010
0000
,
0001
0000
1000
0000
,
0001
0000
1000
0000
,
0010
0010
0010
0000
,
0100
0000
0000
0000
,
1000
0000
0001
0000
,
0100
0000
0010
0000
,
0100
0100
0100
0000
,
0010
0000
0100
0000
,
0010
0000
0000
0000
;

//---------------dance-single - ----------------
#NOTES:
     dance-single:
     :
     Easy:
     4:
     :
0000
0000
0000
0000
,
0000
0000
0000
0000
,
0000
0000
0000
0000
,
0001
1000
0100
0010
,
1000
0001
0100
0010
,
0001
1000
0010
0000
,
1000
0001
0010
0000
,
1000
0001
1000
0001
,
0100
0100
0010
0100
,
0010
1000
0001
0020
,
0000
0031
0000
0001
,
0100
0010
1000
0002
,
0000
1003
0000
1000
,
0010
1000
0100
0020
,
0000
0130
0000
0100
,
0002
1003
2000
3010
,
0200
0301
0010
0001
,
0100
0010
1000
0002
,
0000
0103
0000
0100
,
0010
1000
0100
2000
,
0000
3100
0000
0100
,
0010
0100
0001
2000
,
0000
3010
0000
0010
,
0001
1000
0100
0001
,
0200
0000
0300
0000
,
0001
1000
1000
0010
,
1000
0000
0100
0000
,
0010
0001
0001
0010
,
0001
0000
0000
0000
,
0010
1000
0001
0100
,
0010
0010
0000
0000
,
1000
0001
0100
0010
,
0010
0010
0000
0000
,
0001
0100
0010
1000
,
0100
0100
0000
0000
,
1000
0001
0010
0100
,
0010
0010
0000
0000
,
1000
0001
1000
0010
,
0100
0100
0001
0000
,
0100
0100
0100
1000
,
0001
0010
0100
0000
,
0001
0001
1000
0010
,
0100
1000
0001
0000
,
0100
0100
0010
0001
,
1000
0001
1000
0000
,
0100
0100
0010
1000
,
0001
0000
1000
0000
,
0100
0100
0100
0010
,
0001
0000
1000
0000
,
0001
0001
0001
0100
,
0010
0000
1000
0000
,
0001
1000
0001
0100
,
0010
0000
1000
0000
,
0002
0000
0000
0000
,
0000
0000
0000
1003
;

//---------------dance-single - ----------------
#NOTES:
     dance-single:
     :
     Medium:
     6:
     :
0000
0000
0000
0000
,
0000
0000
0000
0000
,
0000
0000
0000
0000
,
1000
0000
0001
0000
0010
0100
0001
0000
,
0001
0000
1000
0000
0010
0100
1000
0000
,
0010
0000
0010
0000
0100
0001
1000
0000
,
0100
0000
0100
0000
1000
0010
0100
0000
,
0001
0010
0100
0000
1000
0010
0100
0000
,
1000
0001
1000
0110
,
1000
1000
0100
0000
0010
0000
0001
0000
,
0001
0001
0100
0000
0010
1000
0010
0000
,
1000
0000
0001
0000
1000
0100
0100
0000
,
0001
0100
0100
0000
0001
0010
0010
0000
,
0100
0100
1000
0000
0001
0000
1000
0000
,
0010
0000
0100
0000
0001
0010
0010
0000
,
1000
0100
0100
0000
0100
1000
1000
0000
,
0001
0000
0100
0000
0010
1000
0100
0000
,
2000
0000
0020
3000
0200
0030
0301
0000
,
0010
0001
0010
0000
0001
0000
0100
0000
,
0010
0000
1000
0000
0100
0010
0100
0000
,
1000
0001
1000
0000
0100
0010
0100
0000
,
0002
0000
0200
0003
0020
0300
1030
0000
,
0001
0100
1000
0100
,
0010
0100
1000
0010
,
0100
0000
0000
0000
0000
0100
0100
0000
,
1000
0000
0001
0000
1000
0100
0000
0000
,
0001
0000
1000
0000
0001
0010
0000
0000
,
0100
0000
0010
0000
0001
1000
0000
0000
,
0001
0000
0100
0010
0000
0110
0000
0000
,
0001
0000
1000
0000
0001
0100
0001
0000
,
1000
0000
0001
0000
1000
0010
1000
0000
,
0100
0000
0010
0000
0001
0100
0010
0000
,
1000
0100
1000
0000
0001
0000
1000
0000
,
0010
1000
0010
0000
0010
0100
0010
0000
,
0010
0001
0010
0000
1000
0000
0001
0000
,
0001
0100
0010
0000
1000
0010
0100
0000
,
0001
1000
0010
1000
,
0100
0100
0100
0000
1000
0000
0001
0000
,
0100
0010
1000
0001
,
0010
0010
0010
0000
0100
0000
0010
0000
,
1000
0001
0100
0010
,
1000
1000
1000
0000
0010
0000
0100
0000
,
0001
0010
0100
0001
,
0100
0100
0100
0000
1000
0000
0001
0000
,
1000
0010
0100
0110
,
1000
0000
0010
0000
1000
0100
0000
0001
,
0000
1000
0000
0010
0000
0001
0000
0000
,
0100
0000
0010
0000
1000
0100
0000
1000
,
0000
0010
0000
0100
0000
0001
0000
0000
,
1000
0000
0010
0000
0100
0010
0000
0001
,
0000
0010
0000
0100
0000
1000
0000
0000
,
0001
0100
0001
0000
1000
0100
0000
0010
,
0000
0100
0000
0001
0000
0000
0000
0000
,
0002
0000
2003
0000
,
0000
3020
0000
0000
0000
0000
0130
0000
;

//---------------dance-single - ----------------
#NOTES:
     dance-single:
     :
     Hard:
     9:
     :
0000
0000
0000
0000
,
0000
0000
0000
0000
,
0000
0000
0000
0000
,
0010
0100
0001
0000
1000
0100
0010
0000
,
0100
1000
0010
0100
0001
1000
0100
0000
,
0010
0100
1000
0000
0001
0100
0010
0000
,
0001
1000
0100
0000
1000
0010
0100
0000
,
1000
0001
0010
0000
0100
1000
0100
0000
,
0010
0000
0001
0000
0100
0000
0010
0100
0010
0000
0100
0000
0001
0000
0010
0000
,
0100
0000
1000
0000
1100
0000
0000
0000
0001
0000
0000
1000
0000
0000
0010
0000
,
0100
0001
0101
0000
1000
0010
1010
0000
,
0100
0010
0110
0000
0001
1000
1001
0000
,
1100
0000
0101
0000
1000
0010
1010
0000
,
0100
0000
0001
0000
0101
0000
0000
0000
0100
0000
0000
0001
0000
0000
0010
0000
,
1000
0100
1100
0000
0001
0010
0011
0000
,
0001
1000
1001
0000
0100
0010
0110
0000
,
0011
0000
2010
0000
0000
0100
3100
0000
,
1000
0010
0100
1000
0001
0010
0100
1000
,
0010
0100
0001
0000
0001
0100
0110
0000
,
1000
0100
0110
0000
0010
0001
0101
0000
,
0001
0100
0010
1000
0010
1000
0100
0000
,
0001
0100
0010
0001
1000
0100
0010
0001
,
0100
0010
1000
0000
1000
0010
0110
0000
,
0001
2000
0000
3002
0000
0023
0000
0230
,
0000
0310
0000
0000
0000
1001
0101
0000
,
1000
0000
0100
0000
0001
0000
0010
0100
1000
0000
0100
0000
0000
0000
0000
0000
,
0001
0000
0100
0000
1000
0000
0001
0010
0100
0000
0010
0000
0000
0000
0000
0000
,
0100
0000
0100
0000
0010
0000
0001
1000
0001
0000
1000
0000
0000
0000
0000
0000
,
2002
0000
0000
3003
,
0001
0000
1000
0100
1000
0000
0010
0100
0010
0000
0100
0001
0100
0000
0001
0010
,
0001
1000
0100
0010
0000
0001
0000
0001
,
1000
0000
0001
0100
0001
0000
0010
0100
0010
0000
0100
1000
0100
0000
1000
0010
,
1000
0001
0100
0010
0000
1000
0000
1000
,
0010
0000
1000
0100
1000
0000
0100
0010
0100
0000
0010
0001
0010
0000
0001
0000
,
0100
0010
1000
0001
0000
0001
0000
0010
,
0100
0000
0001
0100
0001
0000
0100
0010
0100
0000
0010
1000
0010
0000
1000
0001
,
1000
0000
2000
0000
0000
0000
3000
1000
,
0100
0000
0010
0001
0010
0000
0001
0000
0100
0000
0010
0000
0001
0000
2000
0000
,
0000
0000
0010
0010
0000
0100
3000
1000
,
0010
0000
1000
0100
1000
0000
0010
0000
0100
0000
0001
0000
0100
0000
0020
0000
,
0000
0000
1000
1000
0000
0100
0030
0001
,
0010
0000
0100
0010
0100
0000
0001
0100
0001
0000
1000
0100
1000
0000
0002
0000
,
0000
0000
0100
0100
0000
0010
0003
1000
,
0100
0010
0100
1000
0100
0001
0100
1000
,
0010
0000
0100
0001
0100
0000
0000
0000
0000
0000
0110
0000
0110
0000
0000
0000
,
1000
0000
0100
0000
0010
0000
1000
0001
1000
0000
0100
0000
0000
0000
0001
0000
,
0000
1000
0000
0010
0000
0001
0001
0000
,
0100
0000
0010
0000
0010
0000
1000
0010
1000
0000
0100
0000
0000
0000
1000
0000
,
0000
0010
0000
0100
0000
0001
0001
0000
,
1000
0000
0000
0000
0010
0000
0001
1000
0100
0000
0010
0000
0000
0000
0001
0000
,
0000
0010
0000
0100
0000
1000
1000
0000
,
0001
0000
0000
0000
0001
0000
1000
0100
1000
0000
0100
0000
0000
0000
0010
0000
,
0000
0100
0000
0001
0000
0000
0000
1000
,
0100
0000
0000
0000
0010
0000
0000
0000
0001
0000
0000
0000
0010
0000
0000
0000
0000
0100
0000
0000
0000
1000
0000
0000
0000
0001
0000
0000
0000
0000
0100
0000
,
0000
0000
0000
0010
0000
0000
0000
0000
0000
1000
0000
0000
0000
0000
0010
0000
0000
0000
0000
0100
0000
0000
0000
0001
0000
0000
0000
0000
0000
1000
0000
0000
,
0000
0000
0000
0010
0000
0000
0000
0000
0000
0000
0000
0000
0000
0000
0000
0000
0000
0000
0000
0000
0000
0000
0000
0000
0000
0000
0000
0000
0000
0000
0000
0000
;

//---------------dance-double - ----------------
#NOTES:
     dance-double:
     :
     Beginner:
     1:
     :
00000000
00000000
00000000
00000000
,
00000000
00000000
00000000
00000000
,
00000000
00000000
00000000
00000000
,
00000010
00000000
00000000
00000000
,
00001000
00000000
00000000
00000000
,
00000001
00000000
00000000
00000000
,
00001000
00000000
00000000
00000000
,
00000100
00000000
00000100
00000000
,
00010000
00000000
00010000
00000000
,
00011000
00000000
00000000
00000000
,
00001000
00000000
00001000
00000000
,
00100000
00000000
00000000
00000000
,
00010000
00000000
00000000
00000000
,
01000000
00000000
01000000
00000000
,
00100000
00000000
00000000
00000000
,
10000000
00000000
00000000
00000000
,
00010000
00000000
00000000
00000000
,
10010000
00000000
00000000
00000000
,
00100000
00000000
00100000
00000000
,
00001000
00000000
00000000
00000000
,
00010000
00000000
00000000
00000000
,
00000100
00000000
00000100
00000000
,
00001000
00000000
00000000
00000000
,
00000010
00000000
00000000
00000000
,
00000100
00000000
00000000
00000000
,
00000001
00000001
00000001
00000000
,
00001000
00000000
00000000
00000000
,
00000100
00000100
00000100
00000000
,
00000010
00000000
00000000
00000000
,
00000220
00000000
00000000
00000330
,
00000000
00000000
00000000
00000000
,
00022000
00000000
00000000
00033000
,
00000000
00000000
00000000
00000000
,
00001000
00001000
00001000
00000000
,
00100000
00000000
00010000
00000000
,
10000000
10000000
10000000
00000000
,
00100000
00000000
01000000
00000000
,
00100000
00000000
01000000
00000000
,
00001000
00001000
00001000
00000000
,
00010000
00000000
00000100
00000000
,
00001000
00001000
00001000
00000000
,
00000010
00000000
00000100
00000000
,
00000001
00000001
00000001
00000000
,
00001000
00000000
00000010
00000000
,
00000100
00000100
00000100
00000000
,
00000010
00000000
00010000
00000000
,
00001000
00000000
00100000
00000000
,
00010000
00010000
00010000
00000000
,
10000000
00000000
00000000
00000000
,
00100000
00000000
01000000
00000000
,
00010000
00000000
10000000
00000000
,
00010000
00010000
00010000
00000000
,
01000000
00000000
00001000
00000000
,
00010000
00000000
00000000
00000000
;

//---------------dance-double - ----------------
#NOTES:
     dance-double:
     :
     Easy:
     4:
     :
00000000
00000000
00000000
00000000
,
00000000
00000000
00000000
00000000
,
00000000
00000000
00000000
00000000
,
00000010
00000100
00000001
00001000
,
00000100
00010000
00001000
01000000
,
00100000
01000000
00010000
00000000
,
00100000
01000000
10000000
00000000
,
00100000
10000000
01000000
10000000
,
00100000
00100000
01000000
00001000
,
00010000
00000100
00001000
00000200
,
00000000
00001300
00000000
00000001
,
00000100
00001000
00000100
00000020
,
00000000
00010030
00000000
00001000
,
00010000
00001000
00100000
00020000
,
00000000
10030000
00000000
00100000
,
02000000
03010000
00020000
10030000
,
20000000
30100000
01000000
00100000
,
10000000
00010000
00100000
00002000
,
00000000
00013000
00000000
00000100
,
00000010
00000001
00001000
00000020
,
00000000
00000130
00000000
00000001
,
00001000
00000010
00000100
00020000
,
00000000
00031000
00000000
01000000
,
00100000
10000000
00010000
01000000
,
20000000
00000000
30000000
00000000
,
01000000
00100000
00100000
00001000
,
00010000
00000000
00001000
00000000
,
00010000
00000100
00000100
00001000
,
00000010
00000000
00000000
00000000
,
00000100
00000001
00001000
00000010
,
00000100
00000100
00000000
00000000
,
00000010
00010000
00001000
01000000
,
01000000
01000000
00000000
00000000
,
00100000
10000000
01000000
00100000
,
00010000
00010000
00000000
00000000
,
00100000
01000000
00100000
00001000
,
00010000
00010000
00000000
00000000
,
00000100
00001000
00000100
00000001
,
00001000
00001000
00000010
00000000
,
00000001
00000001
00000001
00001000
,
00000100
00010000
00001000
00000000
,
00100000
00100000
00010000
10000000
,
00100000
00010000
01000000
00000000
,
10000000
10000000
00010000
00100000
,
00001000
00010000
00001000
00000000
,
00001000
00001000
00010000
00000100
,
00001000
00000000
00000010
00000000
,
00000100
00000100
00000100
00000001
,
00001000
00000000
00000010
00000000
,
00001000
00001000
00001000
00000100
,
00010000
00000000
00001000
00000000
,
00100000
00010000
00100000
10000000
,
00100000
00000000
01000000
00000000
,
00002000
00000000
00000000
00000000
,
00000000
00000000
00000000
00013000
;

//---------------dance-double - ----------------
#NOTES:
     dance-double:
     :
     Medium:
     6:
     :
00000000
00000000
00000000
00000000
,
00000000
00000000
00000000
00000000
,
00000000
00000000
00000000
00000000
,
00000100
00000000
00001000
00000000
00000100
00000001
00000010
00000000
,
00000100
00000000
00010000
00000000
00001000
00010000
01000000
00000000
,
00100000
00000000
00100000
00000000
00010000
01000000
00100000
00000000
,
00010000
00000000
00010000
00000000
10000000
00010000
10000000
00000000
,
01000000
00100000
00001000
00000000
00010000
00000100
00000010
00000000
,
00000001
00000100
00001000
00001100
,
00000010
00000010
00001000
00000000
00000100
00000000
00000010
00000000
,
00000100
00000100
00010000
00000000
00001000
00010000
00001000
00000000
,
00100000
00000000
00010000
00000000
01000000
00100000
00100000
00000000
,
10000000
00010000
00010000
00000000
00010000
01000000
01000000
00000000
,
00100000
00100000
10000000
00000000
01000000
00000000
00100000
00000000
,
00001000
00000000
00010000
00000000
00000100
00001000
00001000
00000000
,
00000010
00000100
00000100
00000000
00001000
00000001
00000001
00000000
,
00000010
00000000
00000001
00000000
00000100
00000010
00001000
00000000
,
00000200
00010300
00002000
00103000
,
00010000
10000000
00010000
00000000
00100000
00000000
01000000
00000000
,
10000000
00000000
00100000
00000000
00010000
01000000
00100000
00000000
,
10000000
00010000
01000000
00000000
00010000
00100000
00001000
00000000
,
00020000
00030100
00002000
00003010
,
00000100
00000001
00001000
00000001
,
00000100
00001000
00000010
00000100
,
00000001
00000000
00000000
00000000
00000000
00001000
00001000
00000000
,
00000100
00000000
00010000
00000000
00001000
00100000
00000000
00000000
,
00010000
00000000
01000000
00000000
00100000
10000000
00000000
00000000
,
00010000
00000000
10000000
00000000
01000000
00100000
00000000
00000000
,
00001000
00000000
00010000
00001000
00000000
00001100
00000000
00000000
,
00000100
00000000
00000010
00000000
00000001
00000010
00000001
00000000
,
00000100
00000000
00001000
00000000
00000010
00001000
00000010
00000000
,
00010000
00000000
00000100
00000000
00001000
00000100
00000010
00000000
,
00000100
00010000
00000100
00000000
00010000
00000000
00001000
00000000
,
01000000
00100000
01000000
00000000
00010000
01000000
00100000
00000000
,
10000000
01000000
10000000
00000000
01000000
00000000
00100000
00000000
,
00010000
10000000
00010000
00000000
01000000
00001000
00010000
00000000
,
00000100
00001000
00000010
00000100
,
00000001
00000001
00000001
00000000
00001000
00000000
00000100
00000000
,
00000010
00001000
00000001
00000100
,
00000010
00000010
00000010
00000000
00010000
00000000
00001000
00000000
,
01000000
00100000
10000000
00010000
,
01000000
01000000
01000000
00000000
00010000
00000000
10000000
00000000
,
01000000
00100000
00001000
00010000
,
00000100
00000100
00000100
00000000
00001000
00000000
00000010
00000000
,
00000100
00000001
00000010
00000011
,
00000100
00000000
00001000
00000000
00000010
00000100
00000000
00001000
,
00000000
00000001
00000000
00000010
00000000
00001000
00000000
00000000
,
00000100
00000000
00010000
00000000
00001000
01000000
00000000
00010000
,
00000000
00100000
00000000
10000000
00000000
00100000
00000000
00000000
,
01000000
00000000
00010000
00000000
10000000
01000000
00000000
00100000
,
00000000
00001000
00000000
00010000
00000000
00001000
00000000
00000000
,
00000100
00000010
00000100
00000000
00000001
00001000
00000000
00000010
,
00000000
00000001
00000000
00000010
00000000
00000000
00000000
00000000
,
00000200
00000000
00002300
00000000
,
00000000
00003020
00000000
00000000
00000000
00000000
00000130
00000000
;

//---------------dance-double - ----------------
#NOTES:
     dance-double:
     :
     Hard:
     9:
     :
00000000
00000000
00000000
00000000
,
00000000
00000000
00000000
00000000
,
00000000
00000000
00000000
00000000
,
00000001
00000100
00001000
00000000
00001000
00000100
00000001
00000000
,
00000001
00001000
00000100
00001000
00000001
00000010
00000100
00000000
,
00010000
00001000
00000100
00000000
00001000
00010000
01000000
00000000
,
00100000
00010000
01000000
00000000
10000000
00100000
00010000
00000000
,
00100000
10000000
01000000
00000000
10000000
01000000
00100000
00000000
,
00001000
00000000
00010000
00000000
00000100
00000000
00000010
00000100
00000010
00000000
00000001
00000000
00001000
00000000
00000010
00000000
,
00000100
00000000
00000001
00000000
00000101
00000000
00000000
00000000
00001000
00000000
00000000
00000001
00000000
00000000
00000100
00000000
,
00000010
00001000
00001010
00000000
00010000
00001000
00011000
00000000
,
00100000
00010000
00110000
00000000
01000000
10000000
11000000
00000000
,
10010000
00000000
00011000
00000000
01000000
00100000
01100000
00000000
,
00100000
00000000
10000000
00000000
10100000
00000000
00000000
00000000
00001000
00000000
00000000
00010000
00000000
00000000
00000100
00000000
,
00001000
00000010
00001010
00000000
00000001
00000010
00000011
00000000
,
00000100
00000010
00000110
00000000
00010000
00001000
00011000
00000000
,
10010000
00000000
02100000
00000000
00000000
00010000
03010000
00000000
,
10000000
01000000
00010000
01000000
00100000
00001000
00010000
00001000
,
01000000
00100000
10000000
00000000
00010000
10000000
00110000
00000000
,
00100000
00001000
00011000
00000000
00000100
00001000
00000110
00000000
,
00010000
00001000
00010000
00000100
00001000
00000001
00000010
00000000
,
00000001
00000100
00001000
00000100
00000010
00010000
00001000
00010000
,
00000100
00000010
00000001
00000000
00001000
00000100
00011000
00000000
,
00100000
00010000
00000000
01000000
00000000
10000000
00000000
01000000
,
00000000
00010000
00000000
00000000
00000000
00110000
10010000
00000000
,
00100000
00000000
01000000
00000000
00001000
00000000
00010000
00001000
00010000
00000000
00000100
00000000
00000000
00000000
00000000
00000000
,
00001000
00000000
00000010
00000000
00000100
00000000
00000001
00000100
00000010
00000000
00001000
00000000
00000000
00000000
00000000
00000000
,
00000100
00000000
00000100
00000000
00001000
00000000
00000100
00000010
00000001
00000000
00001000
00000000
00000000
00000000
00000000
00000000
,
00022000
00000000
00000000
00033000
,
00001000
00000000
00100000
00010000
00100000
00000000
00010000
01000000
00010000
00000000
10000000
00010000
10000000
00000000
01000000
00100000
,
01000000
00100000
00010000
01000000
00000000
10000000
00000000
01000000
,
00100000
00000000
01000000
00100000
01000000
00000000
00100000
00010000
00100000
00000000
00001000
00010000
00001000
00000000
00000100
00000010
,
00000100
00000010
00001000
00000100
00000000
00000001
00000000
00000100
,
00001000
00000000
00000010
00001000
00000010
00000000
00001000
00000001
00001000
00000000
00000100
00010000
00000100
00000000
00001000
00000000
,
00000010
00000100
00000001
00000100
00000000
00000010
00000000
00010000
,
00001000
00000000
01000000
00010000
01000000
00000000
00100000
01000000
00100000
00000000
10000000
01000000
10000000
00000000
00010000
01000000
,
00010000
00000000
00200000
00000000
00000000
00000000
00300000
00001000
,
00010000
00000000
00000100
00001000
00000100
00000000
00001000
00000000
00000010
00000000
00000100
00000000
00000001
00000000
00002000
00000000
,
00000000
00000000
00000010
00000010
00000000
00000100
00003000
00000010
,
00000100
00000000
00000001
00000010
00000001
00000000
00000100
00000000
00000010
00000000
00001000
00000000
00000010
00000000
00020000
00000000
,
00000000
00000000
00001000
00001000
00000000
00000100
00030000
00001000
,
00100000
00000000
00010000
00100000
00010000
00000000
10000000
01000000
10000000
00000000
00100000
01000000
00100000
00000000
02000000
00000000
,
00000000
00000000
00010000
00010000
00000000
00100000
03000000
00010000
,
01000000
10000000
01000000
00010000
00100000
00001000
00010000
00000100
,
00001000
00000000
00000010
00000100
00000010
00000000
00000000
00000000
00000000
00000000
00000101
00000000
00000101
00000000
00000000
00000000
,
00000010
00000000
00001000
00000000
00000100
00000000
00000010
00000100
00000010
00000000
00000001
00000000
00000000
00000000
00000100
00000000
,
00000000
00001000
00000000
00000100
00000000
00010000
00010000
00000000
,
00001000
00000000
00100000
00000000
00100000
00000000
00010000
10000000
00010000
00000000
01000000
00000000
00000000
00000000
10000000
00000000
,
00000000
01000000
00000000
00010000
00000000
01000000
01000000
00000000
,
00001000
00000000
00000000
00000000
00010000
00000000
00000100
00001000
00000100
00000000
00001000
00000000
00000000
00000000
00000010
00000000
,
00000000
00000001
00000000
00000010
00000000
00001000
00001000
00000000
,
00000001
00000000
00000000
00000000
00001000
00000000
00000010
00000100
00000010
00000000
00000100
00000000
00000000
00000000
00001000
00000000
,
00000000
00000001
00000000
00001000
00000000
00000000
00000000
00000001
,
00000100
00000000
00000000
00000000
00001000
00000000
00000000
00000000
00010000
00000000
00000000
00000000
00100000
00000000
00000000
00000000
00000000
10000000
00000000
00000000
00000000
01000000
00000000
00000000
00000000
00010000
00000000
00000000
00000000
00000000
00001000
00000000
,
00000000
00000000
00000000
00000010
00000000
00000000
00000000
00000000
00000000
00000001
00000000
00000000
00000000
00000000
00000100
00000000
00000000
00000000
00000000
00000001
00000000
00000000
00000000
00000010
00000000
00000000
00000000
00000000
00000000
00000100
00000000
00000000
,
00000000
00000000
00000000
00001000
00000000
00000000
00000000
00000000
00000000
00000000
00000000
00000000
00000000
00000000
00000000
00000000
00000000
00000000
00000000
00000000
00000000
00000000
00000000
00000000
00000000
00000000
00000000
00000000
00000000
00000000
00000000
00000000
;
