#TITLE:We No Speak Americano;
#SUBTITLE:;
#ARTIST:Yolanda Be Cool;
#TITLETRANSLIT:;
#SUBTITLETRANSLIT:;
#ARTISTTRANSLIT:;
#CREDIT:;
#BANNER:We No Speak Americano.png;
#BACKGROUND:We No Speak Americano-bg.png;
#LYRICSPATH:;
#CDTITLE:;
#MUSIC:We No Speak Americano.mp3;
#OFFSET:-0.037;
#SAMPLESTART:31.925;
#SAMPLELENGTH:13.820;
#SELECTABLE:YES;
#BPMS:0.000=125.000;
#STOPS:;
#BGCHANGES:;

//---------------dance-single - ----------------
#NOTES:
     dance-single:
     :
     Hard:
     8:
     0.555,0.518,0.119,0.009,0.297: // measure 1
0000
0000
0000
0000
,  // measure 2
0000
0000
0000
0000
,  // measure 3
0000
0000
0000
0000
,  // measure 4
0000
0000
0000
0000
,  // measure 5
1000
0000
0001
0100
0001
0000
0100
0000
0020
0000
0000
0000
1030
0000
0000
0000
,  // measure 6
0001
0100
0010
0000
1000
0100
0001
0000
,  // measure 7
1000
0010
0100
0000
1000
0100
0010
0000
,  // measure 8
0001
1000
0000
0100
1000
0000
0001
0000
0100
0000
0000
0000
0110
0000
0000
0000
,  // measure 9
0010
0000
1000
0100
1000
0000
0010
0000
0100
0000
0001
0000
0010
0000
1000
0000
,  // measure 10
0010
0000
0001
0000
0000
0100
0000
0100
0010
0000
1000
0000
0100
0000
0000
0000
,  // measure 11
0010
0000
0001
1000
0001
0000
0100
0000
0010
0000
1000
0000
0100
0000
1000
0000
,  // measure 12
0010
0000
0100
0000
0000
0001
0000
0001
0010
0000
0100
0000
1000
0000
0000
0000
,  // measure 13
0001
0000
1000
0010
1000
0000
0010
0000
0100
0000
0001
0000
0010
0000
1000
0000
,  // measure 14
0010
0001
0100
0000
0010
1000
0100
0000
,  // measure 15
0010
0000
0001
1000
0001
0000
1000
0000
0010
0000
0100
0000
0001
0000
0010
0000
,  // measure 16
0100
1000
0000
0100
1000
0000
0010
0000
0100
0001
0000
0100
0001
0000
0100
0000
,  // measure 17
0010
0000
0000
0000
1001
0000
0000
0000
0000
0000
1000
0000
0010
0100
0010
0100
,  // measure 18
0010
0000
0100
0000
0001
0000
0010
0000
1000
0000
0010
0001
0000
0000
0100
0000
,  // measure 19
0010
0000
0010
0000
0010
0000
1000
0000
0100
0000
0010
0001
0000
0000
0000
0000
,  // measure 20
1000
0000
0100
0000
1000
0000
0010
0000
0100
0000
0001
1000
0000
0000
0001
0000
,  // measure 21
0010
0000
0010
0000
0010
0000
0001
0000
0100
0000
0010
1000
0000
0000
0001
0100
,  // measure 22
0000
0000
0001
0000
0010
0000
0100
0000
1000
0000
0010
0100
0000
0000
0001
0000
,  // measure 23
1000
0000
1000
0000
1000
0000
0001
0000
0010
0000
0100
1000
0000
0000
0000
0000
,  // measure 24
0010
0000
0100
0000
0001
0000
1000
0000
0100
0000
1000
0001
0000
0000
0010
0000
,  // measure 25
0011
0000
0000
0000
1100
0000
0000
0000
1010
0000
0010
0000
0100
0001
1000
0001
,  // measure 26
0100
0000
0010
0000
1000
0000
0100
0000
0010
0000
0001
1000
0000
0000
0100
0000
,  // measure 27
1000
0000
1000
0000
1000
0000
0010
0000
0100
0000
0001
0100
0000
0000
0000
0000
,  // measure 28
0010
0000
1000
0000
0001
0000
0010
0000
0100
0000
1000
0010
0000
0000
0100
0000
,  // measure 29
0001
0000
0001
0000
0001
0000
1000
0000
0100
0000
1000
0010
0000
0000
0100
0001
,  // measure 30
0000
0000
0010
0000
0001
0000
1000
0000
0100
0000
1000
0010
0000
0000
0100
0000
,  // measure 31
0001
0000
0001
0000
0001
0000
0100
0000
0010
0000
1000
0001
0000
0000
0000
0000
,  // measure 32
0010
0000
0100
0000
1000
0000
0001
0000
0100
0000
0010
1000
0000
0000
0001
0000
,  // measure 33
1000
0000
0010
0100
0000
0010
0100
0000
0010
0000
1000
0000
1000
0000
1000
0000
,  // measure 34
0100
0010
0001
0000
0100
0001
0001
0001
,  // measure 35
1000
0100
0010
0000
0001
1000
1000
1000
,  // measure 36
0001
0100
0010
0000
1000
0100
0100
0100
,  // measure 37
0010
0000
0001
0000
0100
0000
0001
0000
0010
0000
0000
0000
0001
1000
0001
1000
,  // measure 38
0001
0000
0100
0000
0010
0000
1000
0000
0100
0000
0010
0001
0000
0000
0000
0000
,  // measure 39
1000
0000
0100
0000
1000
0010
1000
0010
1000
0000
1000
0000
0001
0000
0001
0000
,  // measure 40
0100
0000
0001
0000
0010
0000
0100
0000
1000
0000
0001
0100
0000
0000
0000
0000
,  // measure 41
0001
0000
0001
0000
0001
0000
0001
0000
1001
0000
0100
0010
0000
0000
1000
0010
,  // measure 42
0000
0000
0100
0000
0001
0000
0010
0000
0100
0000
1000
0001
0000
0000
0000
0000
,  // measure 43
1000
0000
0010
0000
0100
0001
0100
0001
0100
0000
0100
0000
0010
0000
0010
0000
,  // measure 44
1000
0000
0100
0000
0010
0000
0001
0000
1000
0000
0100
1000
0000
0000
0000
0000
,  // measure 45
0011
0000
0000
0000
1100
0000
0000
0000
1010
0000
0010
0000
0100
0001
0010
0001
,  // measure 46
0100
0000
0010
0000
1000
0000
0100
0000
0010
0000
0001
1000
0000
0000
0000
0000
,  // measure 47
0001
0000
0100
0000
0010
0100
0001
0100
0010
0000
0010
0000
0100
0000
0100
0000
,  // measure 48
0001
0000
0010
0000
0100
0000
1000
0000
0010
0000
0100
0010
0000
0000
0000
0000
,  // measure 49
1000
0000
1000
0000
1000
0000
1000
0000
0110
0000
0001
1000
0000
0000
0001
1000
,  // measure 50
0000
0000
0010
0000
0100
0000
0001
0000
0100
0000
0010
1000
0000
0000
0000
0000
,  // measure 51
0100
0000
0010
0000
0001
1000
0100
1000
0010
0000
0010
0000
0100
0000
0100
0000
,  // measure 52
0001
0000
0010
0000
0100
0000
1000
0000
0001
0000
0100
0010
0000
0000
0000
0000
,  // measure 53
1000
0001
0100
0001
1001
0000
0110
0100
,  // measure 54
1000
0010
0100
0001
0100
0000
0010
1000
,  // measure 55
0100
0010
0001
0010
0100
0000
1000
0001
,  // measure 56
0100
0000
0001
0000
1000
0000
0100
0000
1000
0001
0000
1000
0001
0000
0100
0000
,  // measure 57
0010
1000
0000
0010
1000
0000
0010
0000
0100
0000
0000
0000
1001
0000
0000
0000
;

//---------------dance-single - ----------------
#NOTES:
     dance-single:
     :
     Easy:
     3:
     0.281,0.337,0.155,0.000,0.000:
0000
0000
0000
0000
,
0000
0000
0000
0000
,
0000
0000
0000
0000
,
0000
0000
0000
0000
,
1000
0100
0010
0000
,
0001
0100
0010
0000
,
1000
0001
0010
0000
,
0001
1000
0010
0110
,
0100
0001
0010
0001
,
0100
0000
0010
0010
,
1000
0100
0010
0001
,
1000
0000
0100
0100
,
0001
0010
0100
1000
,
0001
0000
0010
0000
,
0100
1000
0001
0010
,
0001
0001
1000
1000
,
0010
1001
0000
0100
,
1001
1000
0010
0100
,
0001
0010
0100
1000
,
0001
0010
0001
0100
,
0010
1000
0100
0010
,
0001
0010
0100
1000
,
0010
0100
0001
0010
,
1000
0010
0001
1000
,
1001
1001
1001
0000
,
1000
0010
0100
0001
,
1000
0100
0010
0001
,
1000
0010
0001
0010
,
1000
0100
0001
0100
,
1000
0010
0100
0001
,
1000
0100
0010
0001
,
1000
0010
0100
0001
,
1001
1001
1001
0000
,
1000
1000
1000
0000
,
0001
0001
0001
0000
,
0010
0010
0010
0000
,
0100
1000
0010
0000
,
0100
0001
0010
0001
,
0100
0010
1000
0010
,
0100
0001
1000
0001
,
0010
0100
0010
0001
,
0100
0010
1000
0100
,
1000
0001
0010
0001
,
0100
0010
1000
0100
,
0011
0011
0011
0100
,
0011
0001
0100
0010
,
1000
0100
0001
0100
,
1000
0010
0001
0010
,
1000
0100
0010
0001
,
0100
0010
1000
0001
,
0010
0001
0100
0010
,
1000
0100
0010
0001
,
1001
1001
1001
0100
,
1000
0010
0100
0001
,
1000
0010
0100
0001
,
1000
0100
0010
0010
,
0001
0001
1000
1001
;

//---------------dance-single - ----------------
#NOTES:
     dance-single:
     :
     Beginner:
     1:
     0.104,0.130,0.000,0.000,0.000:
0000
0000
0000
0000
,
0000
0000
0000
0000
,
0000
0000
0000
0000
,
0000
0000
0000
0000
,
1000
0000
0000
0000
,
0001
0000
0000
0000
,
0010
0000
0000
0000
,
0100
0000
0100
0000
,
0100
0000
0000
0000
,
1000
0000
0000
0000
,
0010
0000
0000
0000
,
0100
0000
0000
0000
,
0001
0000
0000
0000
,
1000
0000
0000
0000
,
0010
0000
0010
0000
,
0010
0000
0000
0000
,
0100
0100
0000
0000
,
0001
0000
0000
0000
,
1000
0000
1000
0000
,
1000
0000
0000
0000
,
0010
0000
0010
0000
,
0010
0000
0000
0000
,
0100
0000
0100
0000
,
0100
0000
0000
0000
,
0001
0000
0001
0000
,
0001
0000
0000
0000
,
1000
0000
1000
0000
,
1000
0000
0000
0000
,
0010
0000
0010
0000
,
0010
0000
0000
0000
,
0100
0000
0100
0000
,
0100
0000
0000
0000
,
0001
0000
0001
0000
,
0001
0000
0000
0000
,
0010
0000
0000
0000
,
0100
0000
0000
1000
,
1000
0000
1000
0000
,
0010
0000
0000
0000
,
0100
0000
0100
0000
,
0100
0000
0000
0000
,
0001
0000
0001
0000
,
0001
0000
0000
0000
,
0010
0000
0010
0000
,
0010
0000
0000
0000
,
0100
0000
0100
0100
,
0100
0000
0000
0000
,
1000
0000
1000
0000
,
1000
0000
0000
0000
,
0010
0000
0010
0000
,
0010
0000
0000
0000
,
0100
0000
0100
0000
,
0100
0000
0000
0000
,
0001
0000
0001
0000
,
0001
0000
0001
0000
,
0010
0000
0010
0000
,
0100
0000
0100
0000
,
1000
0000
1000
0001
;

//---------------dance-single - ----------------
#NOTES:
     dance-single:
     :
     Medium:
     6:
     0.439,0.389,0.228,0.000,0.000:
0000
0000
0000
0000
,
0000
0000
0000
0000
,
0000
0000
0000
0000
,
0000
0000
0000
0000
,
1000
0001
1000
0000
0010
0000
0101
0000
,
0010
1100
0010
0101
,
0010
1100
0010
0101
,
1000
0010
0100
0001
1000
0000
1001
0000
,
1000
0100
1000
0000
0001
0100
0001
0000
,
1000
0010
0000
0100
0001
0000
0101
0000
,
0001
0010
0001
0000
1000
0010
1000
0000
,
0001
0010
0000
0100
1000
0000
1100
0000
,
1000
0010
0100
0000
0001
0010
0100
0000
,
1000
0001
0010
0000
0001
0100
0010
0000
,
1000
0100
0010
0001
,
1000
0010
1000
0010
0100
0001
0100
0001
,
0100
0000
0110
0000
0000
0010
0010
0010
,
1000
0100
0010
0000
0001
0100
0010
0000
,
1000
0001
1000
0001
0010
0100
0010
0000
,
0001
0100
0010
0000
1000
0100
0010
0000
,
0001
1000
0010
0100
0001
0010
0100
0000
,
1000
0100
0010
0000
0001
0100
0010
0000
,
1000
0001
0010
0001
1000
0100
1000
0000
,
0001
0010
0100
0000
1000
0010
0100
0000
,
1001
0000
1001
0000
1001
0010
0100
0000
,
1000
0010
0100
0000
0010
1000
0100
0000
,
1000
0100
0010
0001
1000
0010
0100
0000
,
0001
0010
0100
0000
1000
0100
0010
0000
,
0001
0100
0010
1000
0001
0010
0001
0000
,
1000
0100
0010
0000
0001
0100
0010
0000
,
1000
0001
0010
0001
1000
0100
0010
0000
,
0001
0100
0010
0000
1000
0100
0010
0000
,
0001
0100
0010
0100
0001
0001
0001
0000
,
0010
0001
0010
0000
0100
0000
1100
0000
,
1000
0010
1000
0000
0010
0000
0101
0000
,
0001
0010
0001
0000
0010
0000
1100
0000
,
1000
0001
0010
0001
1000
0000
1001
0000
,
1000
0010
0100
0000
0010
0100
0001
0000
,
0010
0000
0100
0100
0100
0100
1000
1000
,
0010
1000
0001
0000
0100
0001
0010
0000
,
0100
0100
0100
0100
1000
0000
1001
0000
,
1000
0010
0100
0000
0001
0010
0100
0000
,
1000
0000
0001
0001
0001
0001
1000
1000
,
0010
1000
0100
0000
0010
0001
0100
0000
,
0101
0000
1010
0000
1100
0010
0001
0000
,
1000
0010
0100
0000
0010
0100
0001
0000
,
0010
0000
0100
0100
0100
0100
1000
1000
,
0001
0010
0100
0000
1000
0010
0100
0000
,
0001
0001
0001
0001
1000
0000
1010
0000
,
0010
0100
0001
0000
0010
0100
1000
0000
,
0001
0000
0010
0010
0010
0010
0100
0100
,
1000
0010
0100
0000
0001
0010
0100
0000
,
1100
0000
0011
0000
0101
0000
0100
0010
,
1000
0000
0010
0000
0100
0000
0001
0010
,
0100
0000
1000
0000
0100
0000
0010
0001
,
1000
0000
0010
0000
1000
0100
1000
0000
,
0001
0100
0001
0000
1000
0000
1001
0000
;
