#TITLE:Vampire Killer;
#SUBTITLE:;
#ARTIST:浅田靖;
#TITLETRANSLIT:;
#SUBTITLETRANSLIT:;
#ARTISTTRANSLIT:Yasushi Asada;
#CREDIT:;
#BANNER:Vampire Killer.png;
#BACKGROUND:Vampire Killer-bg.png;
#LYRICSPATH:;
#CDTITLE:;
#MUSIC:Vampire Killer.ogg;
#OFFSET:-0.460;
#SAMPLESTART:7.920;
#SAMPLELENGTH:14.440;
#SELECTABLE:YES;
#BPMS:0.000=128.000,16.000=256.001;
#STOPS:;
#BGCHANGES:;

//---------------dance-single - ----------------
#NOTES:
     dance-single:
     :
     Beginner:
     2:
     0.131,0.244,0.009,0.000,0.000:
0000
0000
0000
0000
,
0000
0000
0000
0000
,
1000
0000
0000
0000
,
0001
0000
0001
0000
,
1000
0000
0000
0000
,
1000
0000
0000
0000
,
0001
0000
0000
0000
,
0001
0000
0000
0000
,
0010
0000
0000
0000
,
0010
0000
0000
0000
,
0100
0000
0000
0000
,
0100
0000
0000
0000
,
1000
0000
0000
0000
,
0010
0000
0000
0000
,
0100
0000
0000
0000
,
0001
0000
0000
0000
,
0010
0000
0000
0000
,
0100
0000
0000
0000
,
1000
0000
0000
0000
,
0001
0000
0000
0000
,
1000
0000
0000
0000
,
0000
0000
0000
0000
,
0001
0000
0000
0000
,
0010
0000
0000
0000
,
0001
0000
0000
0000
,
0000
0000
0000
0000
,
0100
0000
0000
0000
,
0001
0000
0000
0000
,
0100
0000
0000
0000
,
0010
0000
0000
0000
,
1000
0000
0000
0000
,
0100
0000
0000
0000
,
0010
0000
0000
0000
,
0001
0000
0000
0000
,
1000
0000
0000
0000
,
0001
0000
0000
0000
,
1000
0000
0000
0000
,
0000
0000
0000
0000
,
0001
0000
0000
0000
,
0010
0000
0000
0000
,
0100
0000
0000
0000
,
0000
0000
0000
0000
,
1000
0000
0000
0000
,
0001
0000
0000
0000
,
1000
0000
0000
0000
,
0000
0000
0000
0000
,
0001
0000
0000
0000
,
0010
0000
0000
0000
,
0001
0000
0000
0000
,
0000
0000
0000
0000
,
0100
0000
0000
0000
,
0001
0000
0000
0000
,
0100
0000
0000
0000
,
0010
0000
0000
0000
,
1000
0000
0000
0000
,
0100
0000
0000
0000
,
0010
0000
0000
0000
,
0001
0000
0000
0000
,
1000
0000
0000
0000
,
0001
0000
0000
0000
,
1000
0000
0000
0000
,
0000
0000
0000
0000
,
0001
0000
0000
0000
,
0010
0000
0000
0000
,
0100
0000
0000
0000
,
0000
0000
0000
0000
,
1000
0000
0000
0000
,
0001
0000
0000
0000
,
1000
0000
0000
0000
,
1000
0000
0000
0000
,
0001
0000
0000
0000
,
0001
0000
0000
0000
,
0010
0000
0000
0000
,
0010
0000
0000
0000
,
0100
0000
0000
0000
,
0100
0000
0000
0000
,
1000
0000
0000
0000
,
1000
0000
0000
0000
,
0010
0000
0000
0000
,
0010
0000
0000
0000
,
0100
0000
0000
0000
,
0100
0000
0000
0000
,
0001
0000
0000
0000
,
0001
0000
0000
0000
,
1000
0000
0000
0000
,
0100
0000
0000
0000
,
0010
0000
0000
0000
,
0001
0000
0000
0000
,
0100
0000
0000
0000
,
0010
0000
0000
0000
,
1000
0000
0000
0000
,
0001
0000
0000
0000
,
1000
0000
0000
0000
,
0010
0000
0000
0000
,
0100
0000
0000
0000
,
0001
0000
0000
0000
,
1000
0000
0000
0000
,
0001
0000
0000
0000
,
0100
0000
0000
0000
,
0010
0000
0000
0000
,
1000
0000
0000
0000
,
0100
0000
0000
0000
,
0010
0000
0000
0000
,
0001
0000
0000
0000
,
1000
0000
1000
0000
,
1000
0000
1000
0000
,
0001
0000
0001
0000
,
0001
0000
0001
0000
,
0000
0000
0000
0000
,
0000
0000
0000
0000
,
0000
0000
0000
0000
,
0000
0000
1001
0000
;

//---------------dance-single - ----------------
#NOTES:
     dance-single:
     :
     Easy:
     5:
     0.355,0.439,0.009,0.026,0.000:
0000
0000
0000
0000
,
0000
0000
0000
0000
,
1000
0100
1000
0001
,
0100
0100
0001
1000
,
0001
0000
0010
0000
,
0100
0000
0000
0000
,
1000
0000
0001
0000
,
1000
0001
0000
0000
,
0010
0000
0100
0000
,
1000
0000
0000
0000
,
0010
0000
0100
0000
,
0001
0100
0000
0000
,
0010
0000
1000
0000
,
0100
0000
0000
0000
,
0010
0000
0001
0000
,
1000
0001
0000
0000
,
0010
0000
0100
0000
,
1000
0000
0000
0000
,
0010
0000
0100
0000
,
0001
0010
0000
0000
,
0100
0000
1000
0000
,
0001
1000
0001
0000
,
0010
0010
0010
0000
,
0100
0100
0100
0000
,
1000
0000
0010
0000
,
0100
0001
0100
0000
,
0001
0001
0001
0000
,
1000
1000
1000
0000
,
0010
0000
1000
0000
,
0100
0000
0010
0000
,
0001
0000
0100
0000
,
0010
0000
1000
0000
,
0001
0000
0010
0000
,
0001
0000
0100
0000
,
0010
0000
1000
0000
,
0100
0000
1000
0000
,
0010
0100
0001
0000
,
0010
0000
0100
0000
,
1000
0001
1000
0000
,
0010
0100
0010
0000
,
1000
0001
1000
0000
,
0001
0000
0010
0000
,
0100
1000
0100
0000
,
0001
0010
0001
0000
,
0100
0000
1000
0000
,
0001
1000
0001
0000
,
0010
0010
0010
0000
,
0100
0100
0100
0000
,
1000
0000
0010
0000
,
0100
0001
0100
0000
,
0001
0001
0001
0000
,
1000
1000
1000
0000
,
0010
0000
1000
0000
,
0100
0000
0010
0000
,
0001
0000
0100
0000
,
0010
0000
1000
0000
,
0001
0000
0010
0000
,
0001
0000
0100
0000
,
0010
0000
1000
0000
,
0100
0000
1000
0000
,
0010
0100
0001
0000
,
0010
0000
0100
0000
,
1000
0001
1000
0000
,
0010
0100
0010
0000
,
1000
0001
1000
0000
,
0001
0000
0010
0000
,
0100
1000
0100
0000
,
0001
0010
0001
0000
,
1000
0100
1000
0000
,
0001
0000
0010
0000
,
0010
0000
0100
1000
,
0001
0010
0001
1000
,
0100
0000
0100
0000
,
0100
0000
0010
0000
,
0001
0010
0001
0100
,
0001
0010
0001
0100
,
0010
0000
1000
0001
,
1000
0001
0010
0100
,
0010
0000
0010
0100
,
0010
1000
0000
0001
,
1000
0000
0001
0000
,
1000
0000
0001
1000
,
0100
1000
0010
0100
,
0001
0010
0001
0100
,
0010
0000
1000
0000
,
0100
1000
0010
0100
,
0001
0000
1000
0001
,
1000
0010
0100
0001
,
0020
0000
0030
0100
,
0000
1000
0010
1000
,
0001
0010
0001
0100
,
0010
0000
1000
0001
,
1000
0000
0001
0100
,
0001
0000
1000
0100
,
1000
0000
0001
0000
,
0010
0001
0010
0100
,
0000
0100
1000
0020
,
0000
0000
0000
0030
,
1000
0001
0010
0001
,
0100
0010
1000
0010
,
0200
0000
0000
0300
,
0001
0010
0100
1000
,
0001
0000
1000
0000
,
0010
0100
0001
0000
,
0010
0001
0100
0001
,
0010
0100
1000
0100
,
0010
0001
0100
0010
,
1000
0000
0000
0001
0000
0000
1000
0000
,
0000
0000
0000
0000
,
0000
0000
0000
0000
,
0000
0000
0000
0000
,
0000
0000
1001
0000
;

//---------------dance-single - ----------------
#NOTES:
     dance-single:
     :
     Medium:
     7:
     0.487,0.634,0.052,0.114,0.004:
0000
0000
0000
0000
,
0000
0000
0000
0000
,
1000
0000
0000
0001
0000
0000
1000
0000
0000
0000
0000
0000
0001
0000
0000
0000
,
1000
0100
1000
0001
0100
0001
1000
0001
,
1000
0000
0000
0010
0000
0000
0200
0000
,
0000
0000
0001
0000
0001
0000
0001
0300
,
0001
0000
0000
0010
0000
0000
0100
0000
,
1000
0001
1000
0010
,
0100
0000
0000
0001
0000
0000
0020
0000
,
0000
0000
0100
0000
0100
0000
0100
0030
,
0100
0000
0000
1000
0000
0000
0010
0000
,
0100
0001
0010
1000
,
0010
0000
0000
0001
0000
0000
2000
0000
,
0000
0000
0010
0000
0010
0000
0010
3000
,
0010
0000
0000
0100
0000
0000
0001
0000
,
1000
0010
0001
0010
,
1000
0000
0000
0100
0000
0000
0020
0000
,
0000
0000
0100
0000
0100
0000
0100
0030
,
0100
0000
0000
1000
0000
0000
0010
0000
,
0100
0001
0010
0001
,
0100
0000
0010
0000
0000
1000
0000
0000
,
0100
0000
0000
0010
0000
0000
0000
0000
,
0001
0000
0000
0001
0000
0000
0001
0000
,
1000
0000
0000
1000
0000
0000
1000
0000
,
0000
0000
0001
0000
0000
0010
0000
0000
,
0100
0000
0000
1000
0000
0000
0000
0000
,
0010
0000
0000
0010
0000
0000
0010
0000
,
0100
0000
0000
0100
0000
0000
0100
0000
,
0010
0000
0000
1000
0000
0000
0100
0000
,
0010
0000
0000
0001
0000
0000
0100
0000
,
0010
0000
0000
1000
0000
0000
0100
0000
,
1000
0000
0000
0001
0000
0000
0000
0000
,
1000
0000
0000
0010
0000
0000
0001
0000
,
1000
0000
0000
0100
0000
0000
0001
0000
,
1000
0000
0000
0010
0000
0000
0100
0000
,
0001
0000
0000
0010
0000
0000
0100
0000
,
1000
0100
0001
0100
,
1000
0010
0001
0010
,
1000
0000
0100
0000
1000
0100
0000
0000
,
0010
0000
0001
0000
0010
0001
0000
0000
,
1000
0010
0100
0001
,
0010
0100
1000
0001
,
1000
0000
0001
0000
1000
0001
0000
0000
,
0010
0000
0100
0000
0010
0100
0000
0000
,
1001
0000
0010
0000
0000
1000
0000
0000
,
0100
0000
0000
0010
0000
0000
0000
0000
,
0001
0000
0000
0001
0000
0000
0001
0000
,
1000
0000
0000
1000
0000
0000
1000
0000
,
0000
0000
0001
0000
0000
0010
0000
0000
,
0100
0000
0000
1000
0000
0000
0000
0000
,
0010
0000
0000
0010
0000
0000
0010
0000
,
0100
0000
0000
0100
0000
0000
0100
0000
,
0010
0000
0000
1000
0000
0000
0100
0000
,
0010
0000
0000
0001
0000
0000
0100
0000
,
0010
0000
0000
1000
0000
0000
0100
0000
,
1000
0000
0000
0001
0000
0000
0000
0000
,
1000
0000
0000
0010
0000
0000
0001
0000
,
1000
0000
0000
0100
0000
0000
0001
0000
,
1000
0000
0000
0010
0000
0000
0100
0000
,
0001
0000
0000
0010
0000
0000
0100
0000
,
1000
0100
0001
0100
,
1000
0010
0001
0010
,
1000
0000
0100
0000
1000
0100
0000
0000
,
0010
0000
0001
0000
0010
0001
0000
0000
,
1000
0010
0100
0001
,
0010
0100
1000
0001
,
1000
0000
0001
0000
1000
0001
0000
0000
,
0010
0000
0100
0000
0010
0100
0000
0000
,
1000
0100
0010
0001
,
0010
0100
1000
0010
,
0100
0001
0100
0010
,
1000
0001
1000
0001
,
1000
0000
0000
0001
0000
0000
1001
0000
,
0000
0001
0010
0001
,
1000
0100
1000
0010
,
0100
0001
0010
0100
,
1000
0000
0100
1000
,
0010
0100
0001
0010
,
0100
0000
0100
1000
,
0001
0010
0001
0100
,
0010
0000
0000
1000
0000
0000
1010
0000
,
0000
0000
1000
0001
,
0010
0001
0100
0010
,
2000
0001
0001
3001
,
1000
0010
0100
0001
,
0100
0010
1000
0010
,
0100
0001
0010
0100
,
1000
0100
0010
0001
,
1000
0001
1000
0010
,
1000
0100
0010
0001
,
0100
0010
1000
0001
,
0200
0000
0310
1000
,
0002
0000
1003
0100
,
0020
0000
0031
0100
,
0020
0000
2030
0000
,
3001
0010
0100
1000
,
0001
1000
0010
0200
,
0001
0000
1000
0300
,
0001
1000
0001
1000
,
0010
0100
0010
0100
,
0020
0000
1000
0000
,
1030
0100
0010
0001
,
0200
0000
0010
0000
,
0310
1000
0001
0000
,
1000
0100
0001
0100
,
1000
0010
0001
0010
,
1000
0010
0100
0001
,
0010
0000
0000
0100
0000
0000
0010
0000
,
1000
0100
1000
1100
,
0001
0100
0001
0101
,
1000
0010
0100
0001
,
0100
0010
1001
0000
;

//---------------dance-single - ----------------
#NOTES:
     dance-single:
     :
     Hard:
     9:
     0.736,0.964,0.122,0.184,0.004: // measure 1
0000
0000
0000
0000
,  // measure 2
0000
0000
0000
0000
,  // measure 3
2100
0000
0000
0001
0000
0000
0010
3000
0000
0000
0100
0000
1100
0000
0000
0000
,  // measure 4
1000
0010
0001
0010
1000
0001
1001
1001
,  // measure 5
1000
0100
0000
0010
0000
0001
0100
0000
,  // measure 6
0010
0000
1000
0000
0001
1000
0001
0000
,  // measure 7
2000
0000
0000
3020
0000
0000
0130
0000
,  // measure 8
0001
0010
0100
0000
1000
0000
1001
0000
,  // measure 9
0001
0010
0000
0100
0000
1000
0001
0000
,  // measure 10
0010
0000
0001
0000
0100
0001
0100
0000
,  // measure 11
0020
0000
0000
2030
0000
0000
3001
0000
,  // measure 12
0010
0001
0100
0000
0010
0000
1010
0000
,  // measure 13
1000
0100
0000
0001
0000
1000
0010
0000
,  // measure 14
0001
0000
1001
0000
0001
0010
1000
0000
,  // measure 15
0020
0000
0000
0032
0000
0000
0103
0000
,  // measure 16
0010
1000
0010
0000
1000
0000
1010
0000
,  // measure 17
0010
1000
0000
0100
0000
1000
0010
0000
,  // measure 18
1000
0000
1100
0000
1000
0010
1000
0000
,  // measure 19
0200
0000
0000
2300
0000
0000
3020
0000
,  // measure 20
1030
0001
0100
0010
1000
0100
0010
0001
,  // measure 21
0010
0100
1000
0001
,  // measure 22
0010
0100
1000
0001
,  // measure 23
1000
0000
1000
0010
0000
0010
0100
0000
,  // measure 24
0100
0000
0100
0001
0000
0001
1000
0000
,  // measure 25
0100
1000
0010
0001
,  // measure 26
0010
1000
0100
0001
,  // measure 27
0100
0000
0100
1000
0000
1000
0010
0000
,  // measure 28
1000
0001
0100
0001
0000
1000
0010
0000
,  // measure 29
1000
0000
0001
0000
0010
0001
0010
0000
,  // measure 30
0001
0000
0100
0000
0010
1000
0010
1000
,  // measure 31
0010
0000
0100
0000
0010
0100
0010
0000
,  // measure 32
1000
0000
0010
0000
0100
0001
0100
0001
,  // measure 33
0100
0000
0010
0000
1000
0010
1000
0000
,  // measure 34
0010
0000
0100
0000
0001
0010
0001
0010
,  // measure 35
0100
0000
1000
0000
0001
1000
0001
0000
,  // measure 36
0010
0100
0010
0100
1000
0001
1000
0001
,  // measure 37
1000
0000
0010
1000
0000
0000
0001
0000
,  // measure 38
0010
0001
0000
0000
1000
0000
0001
0000
,  // measure 39
1000
0000
0100
0000
1000
0010
0000
0000
,  // measure 40
0100
0000
0001
0000
0010
0001
0000
0000
,  // measure 41
1000
0000
0100
0001
0000
0000
1000
0000
,  // measure 42
0010
0001
0000
0000
1000
0000
0010
0000
,  // measure 43
0100
0000
0001
0000
0010
0100
0000
0000
,  // measure 44
1000
0001
0100
0010
1000
0001
1000
0000
,  // measure 45
0110
0100
1000
0001
,  // measure 46
0010
0100
1000
0001
,  // measure 47
1000
0000
1000
0010
0000
0010
0100
0000
,  // measure 48
0100
0000
0100
0001
0000
0001
1000
0000
,  // measure 49
0100
1000
0010
0001
,  // measure 50
0010
1000
0100
0001
,  // measure 51
0100
0000
0100
1000
0000
1000
0010
0000
,  // measure 52
0001
0010
0100
1000
0000
0010
0100
0000
,  // measure 53
0001
0000
1000
0000
0100
1000
0100
0000
,  // measure 54
1000
0000
0010
0000
0100
0001
0100
0001
,  // measure 55
0100
0000
0010
0000
0100
0010
0100
0000
,  // measure 56
0001
0000
0100
0000
0010
1000
0010
1000
,  // measure 57
0010
0000
0100
0000
0001
0100
0001
0000
,  // measure 58
0100
0000
0001
0000
1000
0001
1000
0100
,  // measure 59
0010
0000
0001
0000
0100
0010
1000
0000
,  // measure 60
0100
0010
0100
0010
0001
1000
0001
1000
,  // measure 61
0001
0000
0100
0001
0000
0000
1000
0000
,  // measure 62
0100
1000
0000
0000
0001
0000
1000
0000
,  // measure 63
0001
0000
0010
0000
0001
0100
0000
0000
,  // measure 64
0010
0000
1000
0000
0100
1000
0000
0000
,  // measure 65
0001
0000
0010
1000
0000
0000
0001
0000
,  // measure 66
0100
1000
0000
0000
0001
0000
0100
0000
,  // measure 67
0010
0000
1000
0000
0100
0010
0000
0000
,  // measure 68
0110
0000
0010
0001
0100
0010
1000
0000
,  // measure 69
0001
0100
0010
0100
0001
0000
1000
0100
,  // measure 70
0010
0100
1000
0000
0010
0100
0001
0100
,  // measure 71
1000
0000
0001
1000
0001
0000
1000
0000
,  // measure 72
0100
1000
0010
1000
0100
0000
0010
0000
,  // measure 73
0001
1000
0000
0001
0000
0100
0010
0000
,  // measure 74
1000
0100
1000
0001
,  // measure 75
1000
0100
1000
0000
0001
0100
0001
0000
,  // measure 76
1000
0010
1000
0000
0001
0010
0001
0000
,  // measure 77
2000
0000
0000
3000
0001
0100
0010
1000
,  // measure 78
0001
0100
0010
1000
,  // measure 79
0002
0000
1003
0200
,  // measure 80
0000
0000
0320
0000
0000
0000
0000
0030
,  // measure 81
0001
0100
0000
0010
0000
1000
0100
0000
,  // measure 82
1000
0000
0010
0000
0100
0001
0100
0001
,  // measure 83
0100
0010
1000
0100
,  // measure 84
0010
0001
0010
0001
1000
0010
1000
0010
,  // measure 85
0100
0000
0001
0100
0001
0000
1000
0010
,  // measure 86
1000
0000
0001
0010
0001
0000
1000
0000
,  // measure 87
0010
0000
0100
0001
0100
0000
0010
1000
,  // measure 88
0010
0000
1000
0100
1000
0000
0001
0000
,  // measure 89
0010
0000
0001
0100
0001
0000
0100
0010
,  // measure 90
0100
0000
0010
1000
0010
0000
1000
0000
,  // measure 91
0100
0000
0010
0000
0001
0100
0010
0100
,  // measure 92
0002
0000
0003
0000
1000
0010
0100
0010
,  // measure 93
2000
0000
3000
0000
0001
0010
0100
0010
,  // measure 94
0002
0000
0003
0000
1000
0010
0100
0010
,  // measure 95
2000
0000
0000
3000
0002
0000
0000
0003
,  // measure 96
1000
0010
0100
0000
0001
0000
1000
0000
,  // measure 97
1001
0001
0010
0100
,  // measure 98
1000
0010
1000
0100
,  // measure 99
0010
0001
0010
0001
0100
0001
0100
0001
,  // measure 100
0100
0010
0100
0010
1000
0010
1000
0010
,  // measure 101
1000
0001
1000
0100
,  // measure 102
1000
0010
1000
0010
1000
0000
0010
0000
,  // measure 103
0100
0001
0010
0001
,  // measure 104
0100
0001
0100
0001
0100
0000
0010
0000
,  // measure 105
1000
0100
1000
0000
0001
0100
0001
0000
,  // measure 106
1000
0010
1000
0000
0001
0010
0001
0000
,  // measure 107
1000
0010
0100
0001
0100
0010
1000
0001
,  // measure 108
1000
0000
0000
0001
0000
0000
1001
0000
,  // measure 109
1000
0100
1000
0100
0001
0100
0001
0000
,  // measure 110
1000
0010
1000
0010
0001
0010
0001
0000
,  // measure 111
1000
0010
0100
0001
,  // measure 112
0100
0010
2002
0000
,  // measure 113
0000
0000
0000
0000
,  // measure 114
0000
0000
0000
0000
,  // measure 115
0000
0000
0000
0000
,  // measure 116
0000
0000
0000
0000
,  // measure 117
3003
0000
0000
0000
;
