#TITLE:Sakura Reflection;
#SUBTITLE:;
#ARTIST:Ryu☆;
#TITLETRANSLIT:;
#SUBTITLETRANSLIT:;
#ARTISTTRANSLIT:Ryu*;
#CREDIT:;
#BANNER:Sakura Reflection.png;
#BACKGROUND:Sakura Reflection-bg.png;
#LYRICSPATH:;
#CDTITLE:;
#MUSIC:Sakura Reflection.mp3;
#OFFSET:-0.400;
#SAMPLESTART:12.280;
#SAMPLELENGTH:14.020;
#SELECTABLE:YES;
#BPMS:0.000=181.000,68.000=90.500,84.000=181.000;
#STOPS:;
#BGCHANGES:;

//---------------dance-single - ----------------
#NOTES:
     dance-single:
     :
     Hard:
     9:
     0.737,0.792,0.136,0.349,0.257:
0000
0000
0000
0000
,
1001
0000
1000
0200
0000
0302
0000
0103
,
0000
1000
0010
0100
0001
0000
0101
0000
,
0011
0000
0010
0200
0000
2300
0000
3010
,
1000
0001
0010
0100
1000
1000
0010
1000
,
1100
0000
0100
0020
0000
0032
0000
1003
,
0000
0010
0100
0001
0100
0000
0110
0000
,
1010
0000
0010
0200
0000
0302
0000
0013
,
0001
1000
0100
0001
0100
0100
1000
0010
,
0011
0000
0001
0020
0000
2030
0000
3100
,
0000
0010
0001
0100
0010
0000
0110
0000
,
1010
0000
0010
2000
0000
3200
0000
0301
,
0100
1000
0010
0100
0001
0001
0010
0001
,
0200
0001
0000
0010
0000
1300
0000
0010
,
2000
0010
0000
0001
0000
3100
0000
0001
,
1000
0010
0100
0001
1000
0100
0010
0001
,
1000
0010
0100
0001
0010
0010
0100
1000
,
0001
1000
0000
0001
0000
1000
0000
0001
0010
0100
0000
0010
0000
0100
0010
0100
,
0010
0001
0000
0100
0000
0001
0000
0010
0001
0100
0000
0010
0000
1000
0010
0100
,
0001
1000
0000
0100
0000
0010
0000
0001
1000
0010
0000
0100
0000
0001
0010
0100
,
1000
0010
0000
0100
0000
0010
0000
1000
0001
0100
0010
1000
0001
0010
0100
1000
,
0010
2000
0000
3002
0000
0013
0000
0001
,
0100
0020
0000
1030
0000
0001
0010
0001
,
0100
0020
0000
2030
0000
3100
0000
0001
,
0100
1000
0010
0100
0001
0001
0010
0100
,
1000
0020
0000
0230
0000
0301
0000
1000
,
0100
2000
0000
3010
0000
0100
0001
1000
,
0100
2000
0000
3020
0000
0130
0000
0001
,
0010
1000
0010
0001
0100
0100
1000
0001
,
0010
0100
1000
0200
0000
0310
0000
1000
,
0100
0010
0001
0010
0000
0100
1000
0010
,
1000
0001
0010
2000
0000
3010
0000
0001
,
0100
0010
1000
0100
0010
0010
0001
1000
,
0001
0100
0010
2000
0000
0001
0000
3010
,
0001
0100
0010
0100
0000
0001
0100
0010
,
1000
0100
0010
0001
0100
0010
1000
0001
,
0100
0001
0010
0100
1000
0010
0100
0001
,
2000
0000
0000
0000
,
3000
0000
0000
0000
0000
0000
0001
0100
,
0010
0000
0000
0000
1000
0000
0100
0000
0010
0000
0000
0010
0001
0000
0100
0000
,
0001
0010
0100
1000
0010
0000
0100
0001
,
0010
0000
0000
0000
0001
0000
1000
0000
0100
0000
0000
0100
1000
0000
0010
0000
,
0100
0000
0000
0000
0001
0010
0001
0000
1000
0000
0000
0000
0001
0000
0100
0000
,
0010
0000
0000
0000
1000
0000
0100
0000
0010
0001
0010
0000
0100
0000
1000
0000
,
0010
0100
0001
1000
0100
0000
1000
0010
,
0100
0000
0000
0000
0001
0000
0010
0000
1000
0000
0000
1000
0010
0000
0001
0000
,
0100
0010
1000
0001
0100
0000
0001
0010
,
0100
0000
0000
0000
1000
0000
0010
0000
0100
0000
0000
0100
0001
0000
1000
0000
,
0100
0001
0100
1000
0010
0000
0100
0001
,
0010
0000
0000
0000
0001
0000
0010
0000
0100
0000
0000
0100
1000
0000
0010
0000
,
0100
0000
0000
0000
0001
1000
0001
0000
1000
0000
0000
0000
0010
0000
0100
0000
,
0001
0000
0000
0000
0010
0000
0100
0000
1000
0010
1000
0000
0010
0000
0100
0000
,
0001
0010
1000
0010
0001
0000
0100
0010
,
1000
0000
0000
0000
0100
0000
0010
0000
0001
0000
0000
0001
0010
0000
0100
0000
,
1001
0000
0101
0000
0120
0000
0130
0001
,
1000
0000
0000
0000
0100
0000
0010
0000
0001
0000
0100
0001
0100
0000
0010
0000
,
1000
0100
0010
0001
2000
0000
3001
0100
,
0010
0000
0000
0000
1000
0000
0100
0000
0010
0000
0001
1000
0001
0000
0100
0000
,
0010
0000
0000
0000
1000
0001
1000
0001
2000
0000
0000
0000
3001
0000
0100
0000
,
0010
0000
0000
0000
1000
0000
0100
0000
0010
0001
0010
0001
0010
0000
0100
0000
,
1000
0010
0100
0001
2000
0000
3001
0010
,
0100
0000
0000
0000
1000
0000
0010
0000
0100
0000
0001
0100
0001
0000
0100
0000
,
0010
1000
0001
0010
0100
0000
1100
1000
,
0010
0000
0100
0000
0001
0000
0010
0000
1000
0000
0010
1000
0010
0000
0001
0000
,
0100
0010
1000
0100
0020
0000
0031
0010
,
0100
0000
1000
0000
0001
0000
0100
0000
0010
0000
1000
0010
1000
0000
0001
0000
,
0100
0000
0000
0000
0001
0010
0100
1000
0002
0000
0000
0000
1003
0000
0010
0000
,
0200
0001
0000
0010
0000
1000
0300
0010
,
2000
0100
0000
0010
0000
0001
3000
1000
,
0001
0100
0010
1000
0001
0010
0100
1000
,
0001
0100
1000
0100
0001
0010
1000
0010
,
1001
0000
0000
0000
;

//---------------dance-single - ----------------
#NOTES:
     dance-single:
     :
     Beginner:
     2:
     0.150,0.172,0.010,0.000,0.000: // measure 1
0000
0000
0000
0000
,  // measure 2
1000
0000
0000
0000
,  // measure 3
0001
0000
0001
0000
,  // measure 4
0001
0000
0000
0000
,  // measure 5
0010
0000
0010
0000
,  // measure 6
0010
0000
0000
0000
,  // measure 7
0100
0000
0100
0000
,  // measure 8
0100
0000
0000
0000
,  // measure 9
1000
0000
1000
0000
,  // measure 10
1000
0000
0000
0000
,  // measure 11
0001
0000
0001
0000
,  // measure 12
0001
0000
0000
0000
,  // measure 13
0010
0000
0010
0000
,  // measure 14
0010
0000
0000
0000
,  // measure 15
0001
0000
0001
0000
,  // measure 16
0001
0000
0000
0000
,  // measure 17
1000
0000
1000
0000
,  // measure 18
1000
0000
0001
0000
,  // measure 19
0010
0000
0100
0000
,  // measure 20
1000
0000
0010
0000
,  // measure 21
0100
0000
0001
0001
,  // measure 22
0001
0000
0000
0000
,  // measure 23
0010
0000
0010
0000
,  // measure 24
0010
0000
0000
0000
,  // measure 25
0100
0000
0100
0000
,  // measure 26
0100
0000
0000
0000
,  // measure 27
1000
0000
1000
0000
,  // measure 28
1000
0000
0000
0000
,  // measure 29
0001
0000
0001
0000
,  // measure 30
0001
0000
0000
0000
,  // measure 31
0010
0000
0010
0000
,  // measure 32
0010
0000
0000
0000
,  // measure 33
0001
0000
0001
0000
,  // measure 34
0001
0000
0000
0000
,  // measure 35
0100
0000
0100
0000
,  // measure 36
0100
0000
0000
0000
,  // measure 37
0010
0000
0010
0000
,  // measure 38
0010
0000
0000
0000
,  // measure 39
0000
0000
0000
0000
,  // measure 40
1000
0000
0000
0000
,  // measure 41
0001
0000
0001
0000
,  // measure 42
0001
0000
0000
0000
,  // measure 43
1000
0000
1000
0000
,  // measure 44
1000
0000
0000
0000
,  // measure 45
0100
0000
0100
0000
,  // measure 46
0100
0000
0000
0000
,  // measure 47
0010
0000
0010
0000
,  // measure 48
0010
0000
0000
0000
,  // measure 49
0001
0000
0001
0000
,  // measure 50
0001
0000
0000
0000
,  // measure 51
0100
0000
0100
0000
,  // measure 52
0100
0000
0000
0000
,  // measure 53
0010
0000
0010
0000
,  // measure 54
0010
0000
0000
0000
,  // measure 55
1000
0000
1000
0000
,  // measure 56
1000
0000
0000
0000
,  // measure 57
0001
0000
0001
0000
,  // measure 58
0001
0000
0000
0000
,  // measure 59
0010
0000
0010
0000
,  // measure 60
0010
0000
0000
0000
,  // measure 61
0100
0000
0100
0000
,  // measure 62
0100
0000
0000
0000
,  // measure 63
1000
0000
1000
0000
,  // measure 64
1000
0000
0000
0000
,  // measure 65
0001
0000
0001
0000
,  // measure 66
0001
0000
0000
0000
,  // measure 67
0010
0000
0010
0000
,  // measure 68
0010
0000
0000
0000
,  // measure 69
0100
0000
0100
0000
,  // measure 70
0100
0000
0000
0000
,  // measure 71
1000
0000
1000
0000
,  // measure 72
1001
0000
0000
0000
;

//---------------dance-single - ----------------
#NOTES:
     dance-single:
     :
     Easy:
     4:
     0.384,0.379,0.126,0.000,0.000: // measure 1
0000
0000
0000
0000
,  // measure 2
1000
0100
0010
0001
,  // measure 3
0100
0010
1000
1010
,  // measure 4
0010
1000
0100
0010
,  // measure 5
0001
1000
0010
0100
,  // measure 6
0001
0010
1000
0010
,  // measure 7
0001
0100
0010
0110
,  // measure 8
0010
1000
0100
0010
,  // measure 9
0001
0001
1000
1000
,  // measure 10
0010
1000
0100
0010
,  // measure 11
0001
0100
0010
0110
,  // measure 12
0010
1000
0100
0010
,  // measure 13
0001
1000
0010
1000
,  // measure 14
0100
0010
0001
0010
,  // measure 15
0100
1000
0100
0110
,  // measure 16
0010
0010
0001
0001
,  // measure 17
1000
0010
0100
0001
,  // measure 18
1000
0010
1000
0001
,  // measure 19
0010
0001
0100
0010
,  // measure 20
1000
0100
0010
0001
,  // measure 21
1000
0000
0010
0000
0100
0100
0001
0001
,  // measure 22
1000
0010
1000
0001
,  // measure 23
0010
0001
0100
0110
,  // measure 24
0010
1000
0100
0010
,  // measure 25
0001
1000
0010
1010
,  // measure 26
0010
1000
0100
0010
,  // measure 27
0001
0100
0010
0110
,  // measure 28
0010
1000
0100
0010
,  // measure 29
0001
0001
1000
1000
,  // measure 30
0010
1000
0100
1000
,  // measure 31
0010
0100
0001
0101
,  // measure 32
0001
0010
0100
1000
,  // measure 33
0001
0010
0001
0101
,  // measure 34
0001
0100
0010
1000
,  // measure 35
0100
0010
0001
1001
,  // measure 36
1000
1000
0010
0010
,  // measure 37
0100
0001
0010
0100
,  // measure 38
1001
0000
0000
0000
,  // measure 39
0000
0000
0000
0000
,  // measure 40
1000
0010
0100
0010
,  // measure 41
1000
0100
0010
0000
,  // measure 42
0001
0010
0100
1000
,  // measure 43
0010
0100
0001
0000
,  // measure 44
0010
1000
0010
0001
,  // measure 45
0100
0010
1000
0000
,  // measure 46
0100
1000
0001
0010
,  // measure 47
1000
0010
0001
0000
,  // measure 48
0100
0010
1000
0010
,  // measure 49
0100
0001
0010
0000
,  // measure 50
0100
1000
0001
0010
,  // measure 51
1000
0010
0001
0000
,  // measure 52
0100
0010
1000
0100
,  // measure 53
0010
0001
0100
0000
,  // measure 54
0010
1000
0100
0010
,  // measure 55
0001
1000
0001
1001
,  // measure 56
1000
0010
0100
0001
,  // measure 57
0010
0100
1000
0000
,  // measure 58
0010
1000
0100
0001
,  // measure 59
0100
1000
0010
0000
,  // measure 60
0001
0010
1000
0100
,  // measure 61
0010
0001
0100
0000
,  // measure 62
0010
1000
0100
1000
,  // measure 63
0001
0010
1000
0000
,  // measure 64
0010
0001
0100
0010
,  // measure 65
1000
0100
1000
0001
,  // measure 66
0010
1000
0010
0001
,  // measure 67
0100
0010
1000
0000
,  // measure 68
0100
1000
0001
0010
,  // measure 69
1000
0010
0001
0100
,  // measure 70
0010
1000
0100
0010
,  // measure 71
0001
0100
0010
1000
,  // measure 72
1001
0000
0000
0000
;

//---------------dance-single - ----------------
#NOTES:
     dance-single:
     :
     Medium:
     7:
     0.539,0.585,0.262,0.000,0.010: // measure 1
0000
0000
0000
0000
,  // measure 2
1000
0000
0100
0010
0000
0001
0000
0010
,  // measure 3
0000
0100
1000
0000
0010
0000
1010
0000
,  // measure 4
0010
0000
0100
0001
0000
0010
0000
0100
,  // measure 5
0000
1000
0001
0000
0010
0001
0010
0000
,  // measure 6
0001
0000
0100
0010
0000
1000
0000
0010
,  // measure 7
0000
0100
0001
0000
1000
0000
1100
0000
,  // measure 8
1000
0000
0100
0010
0000
0001
0000
0100
,  // measure 9
0010
0000
0010
0000
1000
0001
1000
0001
,  // measure 10
1000
0000
0001
0100
0000
0010
0000
1000
,  // measure 11
0000
0100
0010
0000
0001
0000
0011
0000
,  // measure 12
0001
0000
0010
0100
0000
1000
0000
0010
,  // measure 13
0000
0100
0001
0000
1000
0100
1000
0000
,  // measure 14
0010
0000
0100
0001
0000
0010
0000
0100
,  // measure 15
0000
1000
0001
0000
0010
0000
0011
0000
,  // measure 16
0001
0100
0001
0000
1000
0100
1000
0000
,  // measure 17
0001
0010
0001
0010
1000
0010
1000
0010
,  // measure 18
0001
0100
0010
1000
0010
0100
0001
0010
,  // measure 19
0100
1000
0100
0010
0001
1000
0010
0100
,  // measure 20
0001
1000
0010
1000
0100
0010
0001
0100
,  // measure 21
0010
0000
1000
0000
0001
0000
0100
0000
0010
0000
1000
0000
0001
1000
0001
1000
,  // measure 22
0001
1000
0000
0010
0000
1000
0000
0100
,  // measure 23
0010
0001
0000
0100
0000
0010
1000
0000
,  // measure 24
0001
0100
0000
0010
0000
1000
0000
0100
,  // measure 25
1000
0001
0000
0010
0000
0001
0100
0000
,  // measure 26
0010
1000
0000
0100
0000
1000
0000
0001
,  // measure 27
0010
1000
0000
0010
0000
0001
0100
0000
,  // measure 28
0010
1000
0000
0100
0000
1000
0000
0001
,  // measure 29
0010
0000
0011
0000
0001
0010
0100
1000
,  // measure 30
0100
0010
0000
0001
0000
0100
0000
0010
,  // measure 31
1000
0100
0000
1000
0000
0001
0010
0000
,  // measure 32
0001
0100
0000
0010
0000
1000
0000
0100
,  // measure 33
0001
0100
0000
1000
0000
0010
0100
0000
,  // measure 34
0001
0010
0000
0100
0000
1000
0000
0100
,  // measure 35
0010
0001
0000
0100
0000
0010
1000
0000
,  // measure 36
0010
0100
0001
0000
0010
0100
1000
0000
,  // measure 37
1001
0000
0110
0000
1000
0010
0100
0001
,  // measure 38
1000
0000
0000
0000
,  // measure 39
0000
0000
0000
0000
0000
0000
0001
0100
,  // measure 40
0001
0000
1000
0000
0100
1000
0100
0000
,  // measure 41
0010
0000
0001
0010
0001
0000
0101
0000
,  // measure 42
0100
0000
0010
0000
1000
0100
1000
0000
,  // measure 43
0001
0000
0100
0001
0100
0000
0110
0000
,  // measure 44
0010
0000
1000
0000
0100
0010
0100
0000
,  // measure 45
0010
0000
0001
0100
0001
0000
0101
0000
,  // measure 46
0100
0000
0010
0000
1000
0100
1000
0000
,  // measure 47
0001
0000
0100
0001
0100
0000
0110
0000
,  // measure 48
0010
0000
1000
0000
0100
0010
0001
0000
,  // measure 49
0100
0000
0010
1000
0001
0000
1001
0000
,  // measure 50
1000
0000
0010
0000
0100
0001
0010
0000
,  // measure 51
0100
0000
1000
0010
0100
0000
0101
0000
,  // measure 52
0001
0000
0010
0000
0100
1000
0001
0000
,  // measure 53
0010
0000
0001
0100
0010
0000
0110
0000
,  // measure 54
0010
0000
1000
0000
0100
0010
0001
0000
,  // measure 55
1001
0000
0110
0000
1001
0000
1000
0010
,  // measure 56
1000
0000
0001
0000
0010
0001
0010
0000
,  // measure 57
0100
0000
1000
0100
1000
0000
1010
0000
,  // measure 58
0010
0000
0100
0000
0001
0010
0001
0000
,  // measure 59
1000
0000
0010
1000
0010
0000
0110
0000
,  // measure 60
0100
0000
0001
0000
0010
0100
0010
0000
,  // measure 61
0100
0000
1000
0010
1000
0000
1010
0000
,  // measure 62
0010
0000
0100
0000
0001
0010
0001
0000
,  // measure 63
1000
0000
0010
1000
0010
0000
0110
0000
,  // measure 64
0100
0000
0001
0000
0010
0100
1000
0000
,  // measure 65
0010
0000
0100
0001
1000
0000
1001
0000
,  // measure 66
0001
0000
0100
0000
0010
1000
0100
0000
,  // measure 67
0010
0000
0001
0100
0010
0000
1010
0000
,  // measure 68
1000
0000
0100
0000
0010
0001
1000
0000
,  // measure 69
0100
0000
1000
0010
0100
0000
0110
0000
,  // measure 70
0100
0000
0001
0000
0010
0100
1000
0000
,  // measure 71
1001
0000
0110
0000
1001
0000
0001
0100
,  // measure 72
0010
0000
0000
0000
;
