#TITLE:衰色小町メランコリア;
#SUBTITLE:;
#ARTIST:iNO;
#TITLETRANSLIT:SUISHOKU KOMACHI MELANCHOLIA;
#SUBTITLETRANSLIT:;
#ARTISTTRANSLIT:;
#CREDIT:;
#BANNER:SUISHOKU KOMACHI MELANCHOLIA.png;
#BACKGROUND:SUISHOKU KOMACHI MELANCHOLIA-bg.png;
#LYRICSPATH:;
#CDTITLE:;
#MUSIC:SUISHOKU KOMACHI MELANCHOLIA.mp3;
#OFFSET:-0.137;
#SAMPLESTART:63.765;
#SAMPLELENGTH:15.620;
#SELECTABLE:YES;
#BPMS:0.000=139.000;
#STOPS:;
#BGCHANGES:;

//---------------dance-single - ----------------
#NOTES:
     dance-single:
     :
     Hard:
     8:
     0.621,0.652,0.560,0.126,0.176:
0000
0000
0000
0000
,
0000
0000
0000
0000
,
0000
0000
0000
0000
,
0000
0000
0000
0000
,
1000
0000
0000
1100
0000
0000
0100
0000
0000
0110
0000
0000
0010
0000
0001
0000
,
1000
0000
0000
1010
0000
0000
0010
0000
0000
0010
0100
0000
0001
0000
0010
0000
,
0100
0000
0000
1100
0000
0000
1000
0000
0000
1001
0000
0000
0001
0000
0010
0000
,
0100
0000
0000
1100
0000
0000
1000
0000
0010
0000
0010
0000
0100
0000
0100
0000
,
0001
0100
0010
1000
0001
0010
0100
1000
,
0001
0000
0100
0000
1000
0000
0100
0000
0001
1000
0001
1000
0001
0000
0100
0000
,
0110
0010
1000
0100
1000
0000
0001
0010
,
0100
0000
1000
0010
0100
0010
1000
0000
,
0100
0010
0001
0100
0010
0000
1000
0100
,
0011
0101
0110
1010
,
1001
0001
0100
0010
1000
0000
0100
1000
,
0001
0000
0010
0001
0100
0010
1000
0000
,
1100
0011
0101
1010
,
1000
0000
1000
0000
0100
0000
0100
0000
0010
0001
0010
0001
1000
0000
0001
0000
,
0101
0000
0000
0000
0100
0010
0100
0000
0010
0000
1000
0000
0001
0000
0100
0000
,
0000
0000
0101
0000
0101
0000
0101
0000
2001
0000
0000
0000
3010
0100
0010
0100
,
0001
0000
0100
0010
1000
0000
0100
0010
,
0002
0000
0000
0000
1003
0000
0010
0100
0020
0000
0000
0000
0130
0000
0000
0000
,
0110
0000
0100
0001
1000
0000
0100
1000
,
0020
0000
0000
0000
0130
0000
0001
1000
0002
0000
0000
0000
0103
0000
0000
0000
,
0110
0000
0010
1000
0100
0000
0010
0001
,
0200
0000
0000
0000
0310
0000
1000
0001
2000
0000
0000
0000
3100
0000
0000
0000
,
1100
0000
1000
0010
0100
0000
0001
0010
,
0200
0000
0000
0000
1300
0000
0001
0010
0001
0000
0001
0000
0100
0000
0100
0000
,
0110
0000
0010
1000
0002
0000
0103
0000
,
0101
0000
0001
0100
0020
0000
1030
0000
,
1010
0000
0010
1000
0100
0010
0001
1000
,
1001
0000
1000
0020
0100
0130
0010
0000
,
0110
0000
0100
0001
0020
0000
0130
0000
,
0110
0000
0100
1000
0002
0000
1003
0000
,
1001
0000
1000
0010
0100
0010
1000
0100
,
0010
0000
0010
0000
0001
0000
0001
0000
1000
0100
1000
0100
1000
0000
0001
0000
,
0101
0000
0000
0110
0000
0000
1010
0000
0000
0000
1000
0001
1000
0000
0000
0000
,
1001
0001
0100
0010
1000
0000
0100
1000
,
0001
0000
0010
0001
0100
0010
1000
0000
,
0010
0100
0001
1000
0100
0000
0010
0001
,
0101
1010
1100
0011
,
1001
1000
0010
0100
0010
0000
1000
0100
,
0010
0000
0001
0100
0010
1000
0010
0000
,
0110
0000
0100
0001
0011
0000
0010
0100
,
1000
0000
1000
0000
0001
0000
0001
0000
0010
0100
0010
0100
0010
0000
0001
0000
,
1001
1000
0010
0100
0010
0000
1000
0100
,
0010
0000
0001
0100
1000
0100
0001
0000
,
0010
0100
1000
0001
0010
0000
0001
0100
,
1010
1100
0110
0011
,
1001
1000
0010
0100
0010
0000
1000
0100
,
0010
0000
0001
0100
0001
0010
0100
0000
,
1100
0011
0101
1010
,
1000
0000
1000
0000
0001
0000
0001
0000
0100
0010
0100
0010
0100
0000
0001
0000
,
0100
0100
0010
0010
1000
1000
0100
0100
,
0010
0000
0010
0000
0001
0000
0001
0000
1000
0100
1000
0100
1000
0000
0000
0000
,
0100
0000
0010
0000
0001
0010
0001
0000
0100
0000
0010
0000
1000
0010
1000
0000
,
1010
0101
0011
1100
,
1001
0000
1000
0010
1000
0000
0010
0000
0100
0000
0001
0100
0001
0000
0010
0000
,
0100
0010
0100
0000
1000
0100
1000
0000
0001
1000
0001
0000
0010
0001
0010
0000
,
0100
0100
1000
1000
0001
0001
0010
0010
,
0001
0000
0100
0000
0010
0000
1000
0000
0001
1000
0001
1000
0001
0000
0100
0000
,
0110
0000
0000
0000
0010
1000
0010
0000
0100
0000
0001
0000
1000
0000
0100
0000
,
0000
0110
0110
0110
0012
0000
1003
0000
;

//---------------dance-single - ----------------
#NOTES:
     dance-single:
     :
     Beginner:
     2:
     0.165,0.198,0.009,0.000,0.000: // measure 1
0000
0000
0000
0000
,  // measure 2
0000
0000
0000
0000
,  // measure 3
0000
0000
0000
0000
,  // measure 4
0000
0000
0000
0000
,  // measure 5
1000
0000
1000
0000
,  // measure 6
0001
0000
0001
0000
,  // measure 7
0100
0000
0100
0000
,  // measure 8
0010
0000
0010
0000
,  // measure 9
1000
0000
0000
0000
,  // measure 10
0001
0000
0000
0000
,  // measure 11
0100
0000
0100
0000
,  // measure 12
0010
0000
0010
0000
,  // measure 13
1000
0000
1000
0000
,  // measure 14
0001
0001
0001
0000
,  // measure 15
0010
0000
0010
0000
,  // measure 16
0100
0000
0100
0000
,  // measure 17
1000
0000
1000
0000
,  // measure 18
0001
0001
0001
0000
,  // measure 19
1000
0000
0010
0010
,  // measure 20
0000
0100
0100
0000
,  // measure 21
0001
0000
0001
0000
,  // measure 22
0100
0000
0100
0000
,  // measure 23
0010
0000
0010
0000
,  // measure 24
1000
0000
1000
0000
,  // measure 25
0001
0000
0001
0000
,  // measure 26
1000
0000
1000
0000
,  // measure 27
0100
0000
0100
0000
,  // measure 28
0010
0000
0010
0000
,  // measure 29
0001
0000
0100
0000
,  // measure 30
0010
0000
1000
0000
,  // measure 31
0001
0000
0010
0000
,  // measure 32
0100
0000
0100
0000
,  // measure 33
1000
0000
0010
0000
,  // measure 34
0100
0000
0001
0000
,  // measure 35
1000
0000
0100
0000
,  // measure 36
0010
0000
0001
0000
,  // measure 37
1000
0000
0000
1000
0000
0000
0000
0000
,  // measure 38
0001
0000
0001
0000
,  // measure 39
0100
0000
0100
0000
,  // measure 40
0010
0000
0010
0000
,  // measure 41
1000
1000
1000
0000
,  // measure 42
0100
0000
0100
0000
,  // measure 43
1000
0000
1000
0000
,  // measure 44
0001
0000
0001
0000
,  // measure 45
0010
0010
0010
0010
,  // measure 46
0010
0000
0010
0000
,  // measure 47
0001
0000
0001
0000
,  // measure 48
0100
0000
0100
0000
,  // measure 49
0010
0010
0010
0000
,  // measure 50
1000
0000
1000
0000
,  // measure 51
0001
0000
0001
0000
,  // measure 52
1000
0000
0100
0000
,  // measure 53
0010
0010
0010
0000
,  // measure 54
0001
0000
0001
0000
,  // measure 55
1000
0000
1000
0000
,  // measure 56
0010
0000
0010
0000
,  // measure 57
0100
0100
0100
0000
,  // measure 58
0001
0000
0001
0000
,  // measure 59
1000
0000
1000
0000
,  // measure 60
0100
0000
0100
0000
,  // measure 61
0010
0010
0010
0000
,  // measure 62
0001
0000
1000
1000
,  // measure 63
0000
0001
1001
0000
;

//---------------dance-single - ----------------
#NOTES:
     dance-single:
     :
     Easy:
     4:
     0.301,0.340,0.063,0.099,0.005: // measure 1
0000
0000
0000
0000
,  // measure 2
0000
0000
0000
0000
,  // measure 3
0000
0000
0000
0000
,  // measure 4
0000
0000
0000
0000
,  // measure 5
1000
0100
0010
0001
,  // measure 6
1000
0010
0100
0001
,  // measure 7
1000
0010
0001
0010
,  // measure 8
1000
0100
0001
0100
,  // measure 9
2000
3000
0002
0003
,  // measure 10
0200
0300
0020
0030
,  // measure 11
1000
0100
0010
0001
,  // measure 12
1000
0010
0100
0100
,  // measure 13
0001
0010
0100
1000
,  // measure 14
0001
0100
0101
0000
,  // measure 15
0001
0100
0010
1000
,  // measure 16
0001
0010
0100
1000
,  // measure 17
0001
0001
1000
1000
,  // measure 18
0010
0100
0001
1000
,  // measure 19
1001
1000
0010
0200
,  // measure 20
0000
0001
0302
1003
,  // measure 21
1001
0001
0100
0001
,  // measure 22
2000
0000
3001
0000
,  // measure 23
1000
0100
0010
0001
,  // measure 24
0200
0000
0310
0000
,  // measure 25
1000
0010
0100
0001
,  // measure 26
2000
0000
3100
0000
,  // measure 27
1000
0100
0010
0001
,  // measure 28
0200
0000
0301
0000
,  // measure 29
0100
0010
1000
0010
,  // measure 30
0100
0001
1000
0000
,  // measure 31
0100
1000
0001
0010
,  // measure 32
0002
0000
1003
0000
,  // measure 33
0001
0100
0010
1000
,  // measure 34
0010
0100
0001
0000
,  // measure 35
1000
0100
0010
0001
,  // measure 36
1000
1000
0001
0001
,  // measure 37
0100
0000
0000
0100
0000
0000
0100
0000
0000
0000
0010
0000
0010
0000
0000
0000
,  // measure 38
1000
0001
0010
0001
,  // measure 39
1000
0010
1000
1000
,  // measure 40
0010
0100
0001
1000
,  // measure 41
0100
0010
0011
0000
,  // measure 42
0001
0010
0100
1000
,  // measure 43
0001
0100
0010
1000
,  // measure 44
0001
0001
1000
1000
,  // measure 45
0100
0010
1001
0000
,  // measure 46
1000
0100
0001
0100
,  // measure 47
1000
0010
0001
0010
,  // measure 48
1000
0100
0010
0001
,  // measure 49
0100
0010
1001
0000
,  // measure 50
1000
0100
0010
0001
,  // measure 51
1000
0010
0100
0001
,  // measure 52
1000
1000
0001
0001
,  // measure 53
0100
0100
0010
0010
,  // measure 54
1000
0100
0001
0100
,  // measure 55
1000
0010
0001
0010
,  // measure 56
1000
0100
0001
0010
,  // measure 57
1000
1000
0001
0001
,  // measure 58
1000
0010
0001
0010
,  // measure 59
1000
0100
0001
0100
,  // measure 60
1000
0010
0001
0100
,  // measure 61
1000
1000
0001
0001
,  // measure 62
1000
0010
0100
0001
,  // measure 63
0000
1000
0001
1001
;

//---------------dance-single - ----------------
#NOTES:
     dance-single:
     :
     Medium:
     6:
     0.433,0.425,0.370,0.018,0.005: // measure 1
0000
0000
0000
0000
,  // measure 2
0000
0000
0000
0000
,  // measure 3
0000
0000
0000
0000
,  // measure 4
0000
0000
0000
0000
,  // measure 5
1000
0000
0100
0000
0010
0000
0001
0010
,  // measure 6
0001
0000
0100
0000
0010
0100
0010
0100
,  // measure 7
0010
0000
1000
0000
0100
0000
0001
0100
,  // measure 8
0001
0000
0100
0000
1000
0010
1000
0000
,  // measure 9
2001
0001
0010
3100
,  // measure 10
1000
0001
1000
0001
0100
0010
0100
0000
,  // measure 11
1001
1000
0010
0100
,  // measure 12
0001
0000
1000
0000
0100
0010
0100
0000
,  // measure 13
1000
0001
0010
0001
,  // measure 14
0101
1010
1001
0101
,  // measure 15
0110
0010
1000
0100
,  // measure 16
0010
0000
0001
0000
1000
0100
1000
0000
,  // measure 17
0011
0100
1100
0010
,  // measure 18
1001
0000
0101
0000
0100
0010
0100
0000
,  // measure 19
0110
0000
0010
0000
1000
0000
0001
0100
,  // measure 20
0000
0001
1000
0000
0020
0000
0130
0000
,  // measure 21
0110
0000
0010
0000
0100
0000
0001
0100
,  // measure 22
0001
0000
1000
0100
1000
0000
0001
0000
,  // measure 23
1000
0000
0010
0000
0100
0000
0001
0010
,  // measure 24
0001
0000
1000
0010
1000
0000
0001
0000
,  // measure 25
0101
0000
0100
0000
0010
0000
1000
0100
,  // measure 26
1000
0000
0001
0100
0001
0000
1000
0000
,  // measure 27
0010
0000
0100
0000
0001
0000
0010
0001
,  // measure 28
0010
0000
0001
0100
0001
0000
0100
0000
,  // measure 29
0110
0000
0010
1000
0100
0000
1000
0000
,  // measure 30
0010
0000
0100
0001
0010
0000
0001
0000
,  // measure 31
0100
0000
0010
1000
0100
0000
0010
0001
,  // measure 32
0100
0100
0010
0010
,  // measure 33
1001
0000
1000
0001
0010
0000
0001
0000
,  // measure 34
0100
0000
0010
1000
0100
0000
0010
0000
,  // measure 35
0011
0000
0001
0100
0010
0000
0010
1000
,  // measure 36
0001
0000
0001
0000
1000
0100
1000
0000
,  // measure 37
0001
0000
0000
0001
0000
0000
0001
0000
0000
0000
1000
0000
0100
0000
0000
0000
,  // measure 38
1001
1000
0010
0100
,  // measure 39
0010
0000
1000
0000
0100
0010
0100
0000
,  // measure 40
1000
0001
0010
0001
,  // measure 41
0101
1010
1100
0011
,  // measure 42
1001
0001
0100
0010
,  // measure 43
1000
0000
0100
0000
0010
0001
0010
0000
,  // measure 44
0011
0001
0101
0100
,  // measure 45
0010
1000
0100
0000
0010
0001
0100
0000
,  // measure 46
1001
1000
0010
0100
,  // measure 47
0001
0000
1000
0000
0100
0010
0100
0000
,  // measure 48
1000
0010
0100
0001
,  // measure 49
0101
1010
1100
0011
,  // measure 50
1001
0001
0100
0010
,  // measure 51
1000
0000
0100
0000
0010
0001
0010
0000
,  // measure 52
0011
1100
0101
1010
,  // measure 53
1000
0001
1000
0001
0100
0010
0100
0000
,  // measure 54
0010
1000
0010
0000
1000
0100
1000
0000
,  // measure 55
0100
0001
0100
0000
0001
0010
0001
0000
,  // measure 56
0010
1000
0010
0000
1000
0100
1000
0000
,  // measure 57
0011
1100
0101
1010
,  // measure 58
0001
0100
0001
0000
0100
1000
0100
0000
,  // measure 59
1000
0010
1000
0000
0010
0001
0010
0000
,  // measure 60
0001
0100
0010
1000
0001
0010
0100
1000
,  // measure 61
0001
0001
1000
1000
0010
0010
0100
0000
,  // measure 62
1001
0000
1000
0000
0010
0000
0100
0010
,  // measure 63
0000
1000
0001
0000
0100
0000
0110
0000
;
