#TITLE:Raison d'etre ~交差する宿命~;
#SUBTITLE:;
#ARTIST:Zektbach;
#TITLETRANSLIT:Raison d'etre ~Kousa suru shukumei~;
#SUBTITLETRANSLIT:;
#ARTISTTRANSLIT:;
#CREDIT:;
#BANNER:Raison d'etre ~Kousa suru shukumei~.png;
#BACKGROUND:Raison d'etre ~Kousa suru shukumei~-bg.png;
#LYRICSPATH:;
#CDTITLE:;
#MUSIC:Raison d'etre ~Kousa suru shukumei~.mp3;
#OFFSET:-0.408;
#SAMPLESTART:99.905;
#SAMPLELENGTH:16.420;
#SELECTABLE:YES;
#BPMS:0.000=155.000,80.000=87.500,84.000=175.000,116.000=87.500,132.000=175.000;
#STOPS:165.750=1.029
,167.750=0.343
,169.750=1.029
,171.750=0.343
,173.750=1.029
,175.750=0.343
,177.750=1.029
,179.750=0.343
;
#BGCHANGES:;

//---------------dance-single - ----------------
#NOTES:
     dance-single:
     :
     Hard:
     8:
     0.604,0.584,0.623,0.457,0.063: // measure 1
0000
0000
0000
0000
,  // measure 2
0000
0000
0000
0000
,  // measure 3
0000
0000
0000
0000
,  // measure 4
0000
0000
0000
0000
,  // measure 5
1001
0000
0000
0001
0100
0000
0100
0000
0010
0000
0010
0000
0000
0000
0000
0000
,  // measure 6
1010
0000
0000
1000
0100
0000
0100
0000
0010
0000
0010
0000
0000
0000
0000
0000
,  // measure 7
0011
0000
0000
0001
0100
0000
0100
0000
0010
0000
0010
0000
0000
0000
0000
0000
,  // measure 8
1010
0000
0000
1000
0001
0000
0001
0000
0100
0000
0100
0000
0000
0000
0000
0000
,  // measure 9
0110
0000
0010
0000
1000
0000
0001
0000
0010
0000
1000
0000
0000
0000
0010
0001
,  // measure 10
0010
0000
0001
0000
0000
0000
0100
0001
0100
0000
0010
0000
1000
0000
0001
0000
,  // measure 11
1001
0000
1000
0000
0100
0000
0010
0000
0001
0000
0100
0000
0000
0000
0010
1000
,  // measure 12
0010
0000
0100
0000
0000
0000
0001
0010
0001
0000
0010
0000
0100
0000
1000
0000
,  // measure 13
2001
0000
0010
0000
0100
0100
3001
0000
,  // measure 14
1002
0000
0010
0000
0100
0100
1003
0000
,  // measure 15
2010
0000
0010
0000
0001
0001
3100
0000
,  // measure 16
0012
0000
0010
0000
1000
1000
0103
0000
,  // measure 17
1001
0000
1000
0000
0010
0000
0100
0000
0010
0000
1000
0000
0000
0000
0010
0100
,  // measure 18
0010
0000
1000
0000
0000
0000
0100
0010
0100
0000
1000
0000
0001
0000
0010
0000
,  // measure 19
0011
0000
0001
0000
0100
0000
0010
0000
0100
0000
0001
0000
0000
0000
1000
0100
,  // measure 20
1000
0000
0001
0000
0000
0000
0010
0001
0010
0000
0001
0000
0100
0000
0010
0000
,  // measure 21
2002
0000
0000
3003
,  // measure 22
1100
0000
0000
0011
0000
0000
0001
0000
0100
0000
0010
0000
,  // measure 23
2000
0000
3001
0000
0100
0010
1000
0000
,  // measure 24
0001
0000
1001
0000
1000
0010
0001
0010
,  // measure 25
1000
0000
1001
0000
1000
0100
0001
0100
,  // measure 26
1100
0000
0000
0011
0000
0000
0001
0000
0100
0000
0010
0000
,  // measure 27
2000
0000
3001
0000
0100
0001
0010
0000
,  // measure 28
0100
0000
1100
0000
0100
1000
0010
1000
,  // measure 29
0100
0000
0110
0000
0010
0001
0100
0001
,  // measure 30
0020
0000
0230
0000
1300
2000
0000
3010
,  // measure 31
0200
0000
0302
0000
0013
0020
0000
0130
,  // measure 32
2000
0000
3002
0000
0103
0200
0000
0310
,  // measure 33
2000
0000
3002
0000
0013
0020
0000
0031
,  // measure 34
0102
0100
1003
1001
,  // measure 35
2010
0010
3001
1001
,  // measure 36
1000
0010
0100
0000
0001
0010
0000
0100
,  // measure 37
1000
0001
0101
1010
,  // measure 38
2100
0100
3001
0101
,  // measure 39
0012
0010
1003
1001
,  // measure 40
1000
0010
0100
0000
0001
0010
0100
0000
,  // measure 41
1000
0010
0001
0010
1000
0001
0100
0000
,  // measure 42
0202
0000
0000
0303
2020
0000
0000
3030
,  // measure 43
2002
0000
0000
3003
0202
0000
0000
0303
,  // measure 44
2020
0000
0000
3030
2002
0000
0000
3003
,  // measure 45
0202
0000
0000
0303
2020
0000
0000
3030
,  // measure 46
1001
0000
1000
0000
0010
0200
0000
0301
,  // measure 47
0100
0010
0000
1000
0200
0000
0310
0000
,  // measure 48
0110
0000
0010
0000
0001
1000
0000
0010
,  // measure 49
0100
0001
0000
0010
0100
1000
0001
0000
,  // measure 50
1001
0000
0001
0000
0100
0020
0000
1030
,  // measure 51
0100
0010
0000
0001
1000
0001
0000
0100
,  // measure 52
0110
0010
1000
0000
0001
0010
0000
1000
,  // measure 53
0010
0001
0100
1000
0100
0001
0010
0100
,  // measure 54
1000
0102
1003
2100
,  // measure 55
3001
0012
1003
2010
,  // measure 56
3001
0102
0013
2100
,  // measure 57
3010
0102
1003
1100
,  // measure 58
0210
0010
0301
0100
,  // measure 59
0120
1000
0130
0001
,  // measure 60
0010
0001
0100
0000
0010
1000
0100
0000
,  // measure 61
0010
0001
1000
0100
1000
0010
0100
0001
,  // measure 62
1001
1010
0210
0301
,  // measure 63
1001
0000
1100
0000
1000
0010
0100
0001
,  // measure 64
0011
0000
1100
0000
2010
0000
3001
0100
,  // measure 65
0110
0000
0101
0000
0001
0010
1000
0000
,  // measure 66
1010
0000
0011
0000
0001
0100
0010
0000
,  // measure 67
1000
0100
0010
0000
0012
0000
1003
0000
,  // measure 68
0011
1100
1010
0101
,  // measure 69
0001
0100
0010
1000
0001
0010
0100
1000
,  // measure 70
0002
2003
3020
0130
,  // measure 71
0101
0000
0100
0001
0010
0010
0001
0000
,  // measure 72
0101
0000
0100
0010
1000
1000
0010
0000
,  // measure 73
0110
0000
0100
0001
1000
1000
0001
0000
,  // measure 74
0101
0000
0001
1000
0100
0100
1000
0000
,  // measure 75
1010
0000
1000
0010
0100
0100
0010
0000
,  // measure 76
1010
0000
1000
0100
0010
0010
0100
0000
,  // measure 77
1100
0000
1000
0010
0100
0100
0010
0000
,  // measure 78
0110
0000
0100
0001
1000
1000
0001
0000
,  // measure 79
1001
0000
0000
0000
;

//---------------dance-single - ----------------
#NOTES:
     dance-single:
     :
     Beginner:
     2:
     0.127,0.184,0.008,0.000,0.000:
0000
0000
0000
0000
,
0000
0000
0000
0000
,
0000
0000
0000
0000
,
0000
0000
0000
0000
,
1000
0000
0000
0000
,
0001
0000
0000
0000
,
0010
0000
0000
0000
,
0100
0000
0000
0000
,
1000
0000
0000
0000
,
0001
0000
0001
0000
,
0001
0000
0000
0000
,
1000
0000
1000
0000
,
1000
0000
0000
0000
,
0010
0000
0000
0000
,
0100
0000
0000
0000
,
0001
0000
0000
0000
,
0010
0000
0000
0000
,
0100
0000
0100
0000
,
0100
0000
0000
0000
,
1000
0000
1000
0000
,
1000
0000
0000
0000
,
0001
0000
0000
0000
,
0010
0000
0000
0000
,
0100
0000
0000
0000
,
1000
0000
1000
0000
,
1000
0000
0000
0000
,
0001
0000
0000
0000
,
0100
0000
0000
0000
,
0010
0000
0010
0000
,
0010
0000
1000
0000
,
0100
0000
0010
0000
,
0001
0000
0100
0000
,
0010
0000
1000
0000
,
0001
0000
0000
1000
,
1000
0000
0000
0010
,
0010
0000
0010
0000
,
0100
0000
0100
0000
,
0001
0000
0000
1000
,
1000
0000
0000
0010
,
0010
0000
0000
0000
,
0100
0000
0100
0000
,
0100
0000
0001
0000
,
0010
0000
0100
0000
,
1000
0000
0010
0000
,
0100
0000
0001
0000
,
1000
0000
0000
0000
,
0010
0000
0010
0000
,
0010
0000
0000
0000
,
0100
0000
0100
0000
,
0100
0000
0000
0000
,
0001
0000
0001
0000
,
0001
0000
0000
0000
,
0010
0000
0010
0000
,
0010
0000
0000
0000
,
0100
0000
0000
0000
,
1000
0000
0000
0000
,
0001
0000
0000
0000
,
1000
0000
0000
0000
,
0010
0000
0000
0000
,
0100
0000
0100
0000
,
0001
0000
0001
0000
,
1000
0000
0000
0000
,
0001
0000
0000
0000
,
0010
0000
0000
0000
,
0100
0000
0100
0000
,
0100
0000
0000
0000
,
1000
0000
0000
0000
,
0010
0000
0000
0000
,
0100
0000
0100
0000
,
0100
0000
0000
0000
,
0001
0000
0001
0000
,
0010
0000
0010
0000
,
0100
0000
0100
0000
,
1000
0000
1000
0000
,
0010
0000
0010
0000
,
0100
0000
0100
0000
,
0001
0000
0001
0000
,
1000
0000
1000
0000
,
1001
0000
0000
0000
;

//---------------dance-single - ----------------
#NOTES:
     dance-single:
     :
     Easy:
     4:
     0.314,0.307,0.032,0.055,0.000:
0000
0000
0000
0000
,
0000
0000
0000
0000
,
0000
0000
0000
0000
,
0000
0000
0000
0000
,
1000
0001
1000
0000
,
0010
0100
0010
0000
,
1000
0100
1000
0000
,
0001
0100
0001
0000
,
1000
0010
0100
0000
,
0010
1000
0100
1000
,
0001
0010
0001
0000
,
0100
0010
1000
0010
,
0100
0001
0010
0001
,
0100
0010
1000
0010
,
0100
0001
0010
0100
,
1000
0100
0010
0001
,
1000
0010
0100
0000
,
0001
0010
0100
1000
,
0001
0010
0001
0000
,
1000
0100
1000
0001
,
2002
0000
0000
3003
,
1000
0100
0010
0001
,
1000
0010
0100
0001
,
1000
0100
0001
0100
,
1000
0010
0001
0010
,
1000
0010
0100
0001
,
1000
0100
0010
0001
,
1000
0010
0001
0010
,
1000
0100
0001
0100
,
1000
0010
0100
0010
,
1000
0100
0010
0100
,
1000
0001
0010
0001
,
0100
0010
1000
0100
,
2000
0100
0100
3100
,
2000
0001
0001
3001
,
1000
0010
0100
0001
,
0010
0100
1000
0001
,
0020
0001
0001
0031
,
0200
0010
0010
0310
,
0100
0010
1000
0100
,
0010
0001
1000
0001
,
1000
0000
0001
0000
,
0010
0000
0100
0000
,
1000
0000
0010
0000
,
0100
0000
0001
0000
,
1000
0001
0010
0001
,
1000
0010
1000
0100
,
0010
0001
0100
0010
,
1000
0001
0010
0001
,
0100
0010
1000
0100
,
1000
0001
0010
0001
,
0100
0010
1000
0100
,
0010
0010
0001
0001
,
0000
1000
0000
0010
,
0000
0100
0000
0001
,
0000
0010
0000
0100
,
0000
1000
0000
0001
,
0010
0001
0100
0000
,
0010
1000
0100
0000
,
1000
1000
0001
0001
,
1000
0010
0100
0001
,
1001
1000
0010
1000
,
0100
1000
0001
0010
,
0001
0100
0010
1000
,
0100
0010
0001
1000
,
0001
0001
1000
1000
,
0010
0100
0010
0110
,
0010
1000
0100
1000
,
0001
0001
1000
1000
,
0020
0100
0100
0130
,
0010
1000
0100
1000
,
0001
0010
0001
0100
,
0010
1000
0100
1000
,
0001
0010
0001
0100
,
0010
1000
0100
0010
,
0001
0100
0010
1000
,
0100
1000
0001
0010
,
0001
0100
0010
1000
,
1100
0000
0000
0000
;

//---------------dance-single - ----------------
#NOTES:
     dance-single:
     :
     Medium:
     6:
     0.446,0.461,0.371,0.173,0.000:
0000
0000
0000
0000
,
0000
0000
0000
0000
,
0000
0000
0000
0000
,
0000
0000
0000
0000
,
1000
0000
0010
0100
0010
0100
0000
0000
,
0010
0000
1000
0001
1000
0001
0000
0000
,
0010
0000
0100
1000
0100
1000
0000
0000
,
0100
0000
0010
0001
0010
0001
0000
0000
,
0011
0000
0001
0000
0100
0010
0000
0000
,
1000
0100
0000
0000
0010
0000
0001
0000
,
1001
0000
1000
0000
0010
0100
0000
0000
,
0010
1000
0000
0000
0100
0000
0010
0000
,
0012
0010
0100
1003
,
2100
0100
0010
3001
,
0102
0100
0010
1003
,
2010
0010
0100
3001
,
1001
0000
1000
0000
0010
0100
0000
0000
,
0010
1000
0000
0000
0100
0010
0100
0000
,
0110
0000
0100
0000
1000
0001
0000
0000
,
0010
0001
0000
0000
0100
0010
0100
0000
,
2002
0000
0000
3003
,
1100
0000
0100
0000
0010
0000
0001
0100
,
0001
0010
0100
1000
,
0001
0100
0001
0000
1000
0000
0100
0000
,
1000
0100
1000
0000
0100
0000
0010
0000
,
0011
0000
0001
0000
0100
0000
0010
1000
,
0010
0100
0001
0010
,
0100
1000
0100
0000
0010
0000
0001
0000
,
1000
0001
1000
0000
0010
0000
0100
0000
,
0101
0000
0001
0000
0010
0010
0000
0100
,
0100
0000
1000
0000
0010
0010
0000
1000
,
1000
0000
0100
0000
0010
0010
0000
0001
,
0001
0000
0100
0000
0010
0010
0000
1000
,
2000
0010
0100
3001
,
0002
0010
0100
1003
,
0001
0000
0100
0000
0010
1000
0000
0010
,
0100
0001
0101
0011
,
0020
0100
1000
0130
,
0002
0010
0100
0013
,
0001
0100
0010
1000
,
0100
1000
0100
0000
0010
0001
0010
0000
,
0011
0000
0110
0000
,
1100
0000
1010
0000
,
0110
0000
0101
0000
,
0011
0000
0110
0000
,
1100
0000
0100
0000
0010
0001
0000
0010
,
0000
0100
0000
1000
0010
0000
0100
0000
,
0101
0000
0001
0000
0010
0100
0000
0010
,
0000
0001
0000
0100
0010
0000
1000
0000
,
1001
0000
1000
0000
0100
0010
0000
0001
,
0000
0100
0000
0010
1000
0000
0001
0000
,
1001
0000
0001
0000
0100
0010
0000
1000
,
0100
0000
1000
0010
1000
0000
0001
1000
,
0001
0200
0310
2000
,
3100
2000
3001
0020
,
0031
0200
0310
2000
,
3001
0020
0031
0100
,
0020
1000
1030
0010
,
0200
0001
0301
0100
,
0010
1000
0010
0000
1000
0100
1000
0000
,
0001
1000
0001
0000
0010
0001
0010
0000
,
0001
0101
1000
1100
,
0001
0000
0011
0000
1000
0000
0010
1000
,
0010
0110
0100
0101
,
0001
0011
0020
0130
,
0110
0000
1100
0000
1000
0010
1000
0000
,
0001
0010
0001
0000
2000
0000
3001
0000
,
1100
0011
0101
1010
,
1000
0000
0100
0000
0010
0001
0100
0000
,
0020
0100
0100
0130
,
0110
0000
0010
0000
1000
0100
1000
0000
,
1100
0000
0100
0000
0010
0001
0010
0000
,
0011
0000
0001
0000
0100
0010
0100
0000
,
0110
0000
0010
0000
1000
0001
1000
0000
,
1100
0000
0100
0000
0010
0001
0010
0000
,
0011
0000
0001
0000
0100
0010
0100
0000
,
0110
0000
0010
0000
1000
0001
1000
0000
,
1100
0000
1000
0000
0100
0010
0100
0000
,
1001
0000
0000
0000
;
