#TITLE:PONPONPON;
#SUBTITLE:;
#ARTIST:きゃりーぱみゅぱみゅ;
#TITLETRANSLIT:;
#SUBTITLETRANSLIT:;
#ARTISTTRANSLIT:Kyary Pamyu Pamyu;
#CREDIT:;
#BANNER:PONPONPON.png;
#BACKGROUND:PONPONPON-bg.png;
#LYRICSPATH:;
#CDTITLE:;
#MUSIC:PONPONPON.mp3;
#OFFSET:-1.120;
#SAMPLESTART:61.060;
#SAMPLELENGTH:14.820;
#SELECTABLE:YES;
#BPMS:0.000=128.000;
#STOPS:;
#BGCHANGES:;

//---------------dance-single - ----------------
#NOTES:
     dance-single:
     :
     Hard:
     7:
     0.483,0.524,0.384,0.122,0.013:
0000
0000
0000
0000
,
0000
0000
0000
0000
,
0000
0000
0000
0000
,
0000
0000
0000
0000
1000
0001
1000
0000
,
0002
0010
0000
0013
,
0200
1000
0000
1300
,
0020
0100
0000
0130
,
0001
0000
1000
0000
0001
0010
0100
1000
,
0010
0100
0001
0100
0010
1000
0000
0001
,
0010
0100
1000
0000
0010
0100
0001
0010
,
0001
0100
0010
1000
0100
0001
0000
0100
,
1000
0010
0100
0000
0001
0010
1000
0010
,
0001
0100
0010
1000
0001
0010
0000
0001
,
0100
0010
1000
0000
0100
1000
0001
0010
,
0001
0100
0010
1000
0001
0010
0000
0210
,
0000
0000
0010
0000
0010
0000
0301
0000
0001
0000
0100
1000
0100
0000
1000
0000
,
1001
0000
1001
0000
0001
0010
0100
0000
,
1000
0010
0100
0001
0010
0001
1000
0000
,
1010
0000
0110
0000
0100
0001
0010
0000
,
1000
0010
0001
0100
0010
1000
0100
0000
,
0101
0000
1100
0000
1000
0010
0100
0000
,
0001
0010
0100
1000
0010
1000
0100
0000
,
0101
0000
1100
0000
1000
0010
0100
0000
,
0001
0000
0010
0000
0100
0000
1000
0010
1000
0000
0000
1000
0010
0000
0100
0000
,
0001
0010
0100
0010
0002
0000
0013
0000
,
0100
1000
0010
1000
0200
0000
1300
0000
,
0010
1000
0001
0010
0001
0000
0100
0000
,
0010
1000
0100
0001
0100
1000
0010
0000
,
0100
0001
0010
0100
2000
0000
3001
0000
,
0010
0001
0100
0010
2000
0000
3100
0000
,
0020
0030
0002
0003
,
0101
0000
0110
0000
0010
1000
0001
1000
,
1001
0000
1001
0000
0001
0010
0100
0000
,
1000
0010
0001
0010
1000
0100
0001
0000
,
0101
0000
1100
0000
0100
1000
0010
0000
,
0100
0001
1000
0001
0010
0100
1000
0000
,
1100
0000
1010
0000
0010
0100
0001
0000
,
0010
0001
0100
1000
0100
0001
0010
0000
,
1010
0000
0011
0000
0001
0100
0010
0000
,
1000
0100
0010
0001
0100
0010
1000
0000
,
1001
0000
1100
0000
0001
0001
0001
0000
,
1001
1010
0010
0110
0100
0101
0011
0000
,
0010
0000
0100
0000
1001
0110
1001
0000
,
1000
0010
1010
0010
0110
0100
0001
0000
,
0011
0000
1100
0000
0010
0010
0010
0000
,
0011
0101
0100
0110
0010
1010
1001
0000
,
0001
0000
1000
0000
1010
0101
1010
0000
,
1000
0100
0110
0010
0011
0001
0100
0010
,
1000
0100
0001
0100
1000
0010
0001
0010
,
1000
0010
0100
0001
0020
0000
0130
1000
,
0001
0010
0001
0100
0010
1000
0100
0001
,
0100
1000
0010
0100
0001
0010
0011
0000
,
0001
0100
0010
1000
0100
0010
0001
1000
,
0010
1000
0001
0010
0002
0000
0103
0010
,
1000
0100
0010
0001
1000
0010
0100
0001
,
1000
0100
0001
0100
1000
0010
0001
0010
,
2000
0000
0000
0000
,
0000
0000
0000
0000
,
0002
0000
0000
0000
,
0000
0000
0000
0000
,
0000
3003
0000
0000
0000
0000
0000
0000
;

//---------------dance-single - ----------------
#NOTES:
     dance-single:
     :
     Beginner:
     1:
     0.111,0.157,0.000,0.017,0.000:
0000
0000
0000
0000
,
0000
0000
0000
0000
,
0000
0000
0000
0000
,
0000
0000
0000
0000
,
0000
0001
0000
0001
,
0000
1000
0000
1000
,
0000
0010
0000
0010
,
0000
0100
0000
0100
,
0100
0000
0100
0000
,
0100
0000
0000
0000
,
0001
0000
0001
0000
,
0001
0000
0000
0000
,
0010
0000
0010
0000
,
0010
0000
0000
0000
,
0100
0000
0100
0000
,
0100
0000
0000
0000
,
1000
0000
0000
0000
,
0001
0000
0000
0000
,
0010
0000
0000
0000
,
0001
0000
0000
0000
,
1000
0000
0000
0000
,
0100
0000
0000
0000
,
0001
0000
0000
0000
,
0100
0000
0000
0000
,
0010
0000
0010
0000
,
0010
0000
0000
0000
,
1000
0000
1000
0000
,
1000
0000
0000
0000
,
0001
0000
0001
0000
,
0001
0000
0000
0000
,
0100
0000
0100
0000
,
0100
0000
0100
0000
,
0010
0000
0000
0000
,
1000
0000
0000
0000
,
0001
0000
0000
0000
,
0010
0000
0000
0000
,
0001
0000
0000
0000
,
1000
0000
0000
0000
,
0100
0000
0000
0000
,
0010
0000
0000
0000
,
0001
0001
0000
1000
,
0000
0001
0000
1000
,
0001
0001
0000
1000
,
0000
0001
0000
1000
,
0001
0001
0000
1000
,
0000
0001
0000
1000
,
1000
0001
0000
1000
,
0000
0001
0000
1000
,
1000
0000
1000
0000
,
0010
0000
0010
0000
,
0100
0000
0100
0000
,
0001
0000
0001
0000
,
0010
0000
0010
0000
,
0100
0000
0100
0000
,
1000
0000
1000
0000
,
0001
0000
0001
0000
,
0020
0000
0000
0000
,
0000
0000
0000
0000
,
0200
0000
0000
0000
,
0000
0000
0000
0000
,
0000
0330
0000
0000
0000
0000
0000
0000
;

//---------------dance-single - ----------------
#NOTES:
     dance-single:
     :
     Easy:
     3:
     0.273,0.367,0.166,0.052,0.000:
0000
0000
0000
0000
,
0000
0000
0000
0000
,
0000
0000
0000
0000
,
0000
0000
0000
0000
,
1000
0001
0000
0001
,
0010
0100
0000
0100
,
1000
0010
0000
0010
,
0100
0001
0010
0001
,
0100
0010
1000
0100
,
0001
0000
0100
0000
,
1000
0010
0001
0010
,
2000
3000
0010
0000
,
0100
0001
0010
0001
,
1000
0000
0100
0000
,
1000
0001
0010
0001
,
1000
0010
0100
0110
,
0010
0010
1000
0001
,
0010
0001
1000
0100
,
0001
0001
0100
1000
,
0010
0100
0001
0010
,
0100
0100
1000
0010
,
1000
0001
0010
0001
,
1000
1000
0010
0100
,
0001
0010
0100
1000
,
0010
0100
0001
0000
,
0010
0100
1000
0000
,
0001
0010
0100
1000
,
0001
0010
0001
0101
,
0100
0010
1000
0000
,
0001
0010
1000
0000
,
0010
0001
0100
0010
,
1000
0001
0010
0011
,
0001
0001
0100
0010
,
1000
0100
0010
0001
,
0100
0100
0010
1000
,
0100
1000
0010
0100
,
0001
0001
0010
0100
,
1000
0010
1000
0100
,
0001
0001
0100
1000
,
0010
0100
0001
1000
,
1001
1001
0001
0010
,
0110
0100
1000
1010
,
0010
0100
0101
0101
,
0001
0011
0110
0100
,
1100
1010
0010
0100
,
0101
0001
0010
0110
,
0100
1000
1010
1010
,
0010
0110
0101
0001
,
0010
1000
0010
0001
,
0100
0010
2000
3000
,
0001
0010
0001
1000
,
0100
1000
0002
0003
,
0010
0001
0100
0010
,
1000
0100
0002
0003
,
0100
1000
0010
0100
,
0001
0010
0001
1000
,
0020
0000
0000
0000
,
0000
0000
0000
0000
,
0200
0000
0000
0000
,
0000
0000
0000
0000
,
0000
0330
0000
0000
0000
0000
0000
0000
;

//---------------dance-single - ----------------
#NOTES:
     dance-single:
     :
     Medium:
     5:
     0.351,0.393,0.262,0.061,0.000: // measure 1
0000
0000
0000
0000
,  // measure 2
0000
0000
0000
0000
,  // measure 3
0000
0000
0000
0000
,  // measure 4
0000
0000
0000
0000
,  // measure 5
2000
0001
0000
3001
,  // measure 6
0020
0100
0000
0130
,  // measure 7
2000
0010
0000
3010
,  // measure 8
1000
0000
0010
0000
0100
0001
0100
0000
,  // measure 9
0001
0000
0010
0000
0001
1000
0000
0001
,  // measure 10
1000
0000
0010
0100
,  // measure 11
0001
0000
0010
0000
0001
0100
0000
0001
,  // measure 12
0100
0000
0010
1000
,  // measure 13
0100
0000
0001
0000
0100
1000
0000
0100
,  // measure 14
1000
0000
0100
0010
,  // measure 15
0001
0000
1000
0000
0010
0100
0000
0001
,  // measure 16
0000
0100
0010
0000
1000
0000
0001
0000
,  // measure 17
1001
0000
1001
0000
1000
0010
1000
0000
,  // measure 18
0001
0010
0001
0100
,  // measure 19
0110
0000
0110
0000
0010
1000
0010
0000
,  // measure 20
1000
0100
0001
0100
,  // measure 21
1100
0000
1100
0000
1000
0010
1000
0000
,  // measure 22
0010
0100
0001
0010
,  // measure 23
0011
0000
0011
0000
0001
0100
0001
0000
,  // measure 24
0100
0010
1000
0001
,  // measure 25
0010
0000
0001
0100
0001
0000
0100
0000
,  // measure 26
0010
0000
1000
0100
1000
0000
0100
0000
,  // measure 27
1000
0000
0001
1000
0001
0000
0010
0000
,  // measure 28
0001
0100
0001
0000
0100
0000
0110
0000
,  // measure 29
0010
0000
1000
0100
1000
0000
0010
0000
,  // measure 30
0100
0000
0001
0010
0001
0000
0100
0000
,  // measure 31
0110
0000
1010
0000
,  // measure 32
0101
0000
0011
0000
0100
1000
0100
0000
,  // measure 33
0011
0000
0101
0000
0100
0010
0100
0000
,  // measure 34
0010
1000
0100
0001
,  // measure 35
0101
0000
1100
0000
0100
1000
0010
0000
,  // measure 36
0100
0001
0010
0001
,  // measure 37
1001
0000
1010
0000
1000
0010
0100
0000
,  // measure 38
0001
0010
0100
1000
,  // measure 39
1001
0000
0011
0000
0001
0100
0010
0000
,  // measure 40
1000
0100
0001
0100
,  // measure 41
1100
0000
1100
0000
0010
0001
0010
0000
,  // measure 42
0001
0001
0100
0000
0010
0010
1000
0000
,  // measure 43
1001
0000
0101
0000
0001
0001
0001
0000
,  // measure 44
0010
0100
1000
0000
0010
0100
0001
0000
,  // measure 45
1001
0000
1010
0000
0100
0100
0100
0000
,  // measure 46
0001
0001
0010
0000
1000
1000
0010
0000
,  // measure 47
0011
0000
0101
0000
0100
0100
0100
0000
,  // measure 48
0010
1000
0100
1000
0010
0100
0001
0000
,  // measure 49
0010
0100
1000
0001
,  // measure 50
0010
1000
0010
0001
0200
0000
0310
0000
,  // measure 51
1000
0001
0010
0001
,  // measure 52
1000
0100
0001
0100
1000
0000
1001
0000
,  // measure 53
1000
0010
0100
0001
,  // measure 54
0010
0100
1000
0100
0020
0000
0031
0000
,  // measure 55
0100
0010
1000
0001
,  // measure 56
0010
0001
0100
0010
1000
0100
0010
0001
,  // measure 57
2000
0000
0000
0000
,  // measure 58
0000
0000
0000
0000
,  // measure 59
0002
0000
0000
0000
,  // measure 60
0000
0000
0000
0000
,  // measure 61
0000
3003
0000
0000
0000
0000
0000
0000
;
