#TITLE:Follow Tomorrow;
#SUBTITLE:;
#ARTIST:HHHxMMxST;
#TITLETRANSLIT:;
#SUBTITLETRANSLIT:;
#ARTISTTRANSLIT:;
#CREDIT:;
#BANNER:Follow Tomorrow.png;
#BACKGROUND:Follow Tomorrow-bg.png;
#LYRICSPATH:;
#CDTITLE:;
#MUSIC:Follow Tomorrow.mp3;
#OFFSET:-0.229;
#SAMPLESTART:15.585;
#SAMPLELENGTH:14.020;
#SELECTABLE:YES;
#BPMS:0.000=140.000;
#STOPS:223.750=0.857
;
#BGCHANGES:;

//---------------dance-single - ----------------
#NOTES:
     dance-single:
     :
     Hard:
     8:
     0.551,0.541,0.185,0.168,0.386:
0000
0000
0000
0000
,
0000
0000
0000
0000
,
0000
0000
0000
0000
,
0000
0000
0000
0000
,
1000
0000
0000
1000
0001
0000
0100
0000
0010
0000
0010
0000
1000
0000
0000
0000
,
0001
0000
0000
0001
0010
0000
0100
0000
1000
0000
1000
0000
0010
0000
0010
0000
,
0100
0000
0000
0100
0001
0000
0010
0000
0100
0000
0100
0000
1000
0000
0000
0000
,
0001
0000
0000
0001
0010
0000
0100
0000
1000
0000
1000
0000
0001
0000
0001
0000
,
2001
0000
0000
0000
0001
0000
0000
0000
3001
0000
1000
0000
0010
0100
0010
0100
,
0010
0000
0000
1000
0000
0000
0001
0000
0010
0000
0100
0000
1000
0000
0000
0000
,
0010
0000
0000
0100
0000
0000
0001
0000
0010
0000
0100
0000
1000
0000
0000
0000
,
0001
0000
0000
0010
0000
0000
0100
0000
1000
0000
0000
0010
0000
0000
0100
0000
,
0001
0000
0000
0010
0000
0000
0100
0000
1000
0000
1000
0000
0001
0000
0001
0000
,
0010
0000
0000
0001
0000
0000
0100
0000
0010
0000
1000
0000
0100
0000
0000
0000
,
0010
0000
0000
0001
0000
0000
1000
0000
0100
0000
1000
0000
0001
0000
0000
0000
,
0010
0000
0000
0001
0000
0000
0100
0000
0010
0000
0000
1000
0000
0000
0001
0000
,
0011
0000
0000
1100
0000
0000
0101
0000
0100
0000
0010
0000
1000
0000
0001
0000
,
0200
0000
0000
0010
0000
0310
0000
0000
2000
0000
0000
0001
0000
3001
0000
0000
,
0020
0000
0000
0001
0000
0031
0000
0000
0010
0000
0100
1000
0000
1000
0001
0000
,
0200
0000
0000
0010
0000
0310
0000
0000
2000
0000
0000
0100
0000
3100
0000
0000
,
1000
0000
0001
0100
0000
0100
0001
0000
1000
0000
0100
1000
0000
1000
0100
0000
,
0020
0000
0000
0001
0000
0031
0000
0000
0200
0000
0000
0010
0000
0310
0000
0000
,
2000
0000
0000
0100
0000
3100
0000
0000
0010
0000
0001
0100
0000
0100
0001
0000
,
0020
0000
0000
0100
0000
0130
0000
0000
2000
0000
0000
0010
0000
3010
0000
0000
,
1010
0000
0000
0101
0000
0000
0011
0000
0010
0000
0100
1000
0000
0001
0010
0000
,
0100
0000
1000
0000
0010
0000
1000
0000
0100
0000
0000
0010
0000
0000
0001
0000
,
0100
0000
0000
0000
0101
0000
0000
0000
0010
0000
0000
1000
0000
0000
0100
0000
,
0010
0000
0001
0000
1000
0000
0010
0000
0100
0000
0000
0001
0000
0000
0010
0000
,
0100
0000
0000
0000
1100
0000
0000
0000
0010
0001
0000
0001
0000
0000
0100
0000
,
0010
0000
1000
0000
0001
0000
0010
0000
0001
0000
0000
0100
0000
0000
0010
0000
,
1000
0000
0000
0000
1100
0000
0000
0000
0010
0000
0000
0001
0000
0000
1000
0000
,
0010
0100
0001
0010
0100
1000
0001
0010
,
0001
0001
0100
0100
0010
0010
1000
1000
,
0001
0000
0000
0010
0000
0000
0100
0000
1000
0000
0000
0000
0001
0000
1000
0000
,
0010
0000
0100
0000
0001
0000
0010
0000
0100
0000
1000
0001
0000
0000
1000
0000
,
0020
0230
0302
0023
,
0130
0000
1000
0000
0010
0000
1000
0000
0100
0000
0010
0001
0010
0000
0100
0000
,
1000
0000
0000
0001
0000
0000
0010
0000
0210
0000
0000
0000
0301
0000
0000
0000
,
0100
0000
0000
0001
0000
0000
1000
0000
0100
0000
0010
0000
0001
0000
0000
0000
,
0100
0000
0000
0010
0000
0000
1000
0000
0100
0000
0010
0000
0001
0000
0000
0000
,
1000
0000
0000
0100
0000
0000
0010
0000
0001
0000
0000
0100
0000
0000
0010
0000
,
1000
0000
0000
0100
0000
0000
0010
0000
0001
0000
0001
0000
1000
0000
1000
0000
,
0100
0000
0000
1000
0000
0000
0010
0000
0100
0000
0001
0000
0010
0000
0000
0000
,
0100
0000
0000
1000
0000
0000
0001
0000
0010
0000
0001
0000
1000
0000
0000
0000
,
0100
0000
0000
1000
0000
0000
0010
0000
0100
0000
0000
0001
0000
0000
1000
0000
,
1100
0000
0000
0011
0000
0000
1010
0000
0010
0000
0100
0000
0001
0000
1000
0000
,
0010
0000
0000
0010
0100
0000
0001
0000
1000
0000
1000
0000
0010
0000
0000
0000
,
1000
0000
0000
1000
0100
0000
0010
0000
0001
0000
0001
0000
1000
0000
1000
0000
,
0001
0000
0000
0001
0100
0000
0010
0000
1000
0000
1000
0000
0001
0000
0000
0000
,
0010
0000
0000
0010
0100
0000
1000
0000
0010
0000
0010
0000
0100
0000
0100
0000
,
0001
0000
0010
0000
0100
0000
0010
0000
0001
0000
0000
0100
0000
0000
0010
0000
,
1000
0000
0000
0000
1001
0000
0000
0000
1000
0000
0000
0100
0000
0000
0010
0000
,
0001
1000
0010
1000
0001
0010
0001
1000
,
0100
1000
0001
0010
0001
0100
0010
1000
,
0001
0000
0000
1001
0000
0000
0010
0000
0000
1001
0000
0000
1000
0000
0100
0000
,
0012
0000
1000
0000
0203
0000
0000
0300
,
0010
0000
0000
1000
0000
0000
0001
0000
0010
0000
0100
0000
1000
0000
0000
0000
,
0010
0000
0000
0100
0000
0000
0001
0000
0010
0000
0100
0000
1000
0000
0000
0000
,
0001
0000
0000
0010
0000
0000
0100
0000
1000
0000
0000
0010
0000
0000
0100
0000
,
0001
0000
0000
0010
0000
0000
0100
0000
1000
0000
1000
0000
0001
0000
0001
0000
,
0010
0000
0000
0001
0000
0000
0100
0000
0010
0000
1000
0000
0100
0000
0000
0000
,
0010
0000
0000
0001
0000
0000
1000
0000
0100
0000
1000
0000
0001
0000
0000
0000
,
0010
0000
0000
0001
0000
0000
0100
0000
0010
0000
0000
1000
0000
0000
0001
0000
,
0011
0000
0000
1100
0000
0000
0101
0000
0100
0000
0010
0000
1000
0000
0001
0000
,
0100
0000
0000
0001
0000
0000
0010
0000
0200
0000
0000
0000
0300
0000
0000
0000
,
1000
0000
0000
0010
0000
0000
0100
0000
0001
0000
0000
0010
0000
0000
0001
0000
,
0100
0000
0000
0010
0000
0000
1000
0000
0200
0000
0000
0000
0300
0000
0000
0000
,
1000
0000
0000
0100
0000
0000
0010
0000
0001
0000
0000
1000
0000
0000
1001
0000
;

//---------------dance-single - ----------------
#NOTES:
     dance-single:
     :
     Beginner:
     1:
     0.097,0.114,0.000,0.000,0.000:
0000
0000
0000
0000
,
0000
0000
0000
0000
,
0000
0000
0000
0000
,
0000
0000
0000
0000
,
1000
0000
0000
0000
,
0001
0000
0000
0000
,
0010
0000
0000
0000
,
0100
0000
0100
0000
,
0100
0000
0000
0000
,
1000
0000
0000
0000
,
0010
0000
0000
0000
,
0100
0000
0000
0000
,
0001
0000
0001
0000
,
0001
0000
0000
0000
,
0010
0000
0000
0000
,
0100
0000
0000
0000
,
1000
0000
1000
0000
,
1000
0000
0000
0000
,
0001
0000
0000
0000
,
0010
0000
0000
0000
,
0001
0000
0001
0000
,
0001
0000
0000
0000
,
0100
0000
0000
0000
,
0010
0000
0000
0000
,
1000
0000
1000
0000
,
1000
0000
0000
0000
,
0001
0000
0000
0000
,
0010
0000
0000
0000
,
0100
0000
0100
0000
,
0100
0000
0000
0000
,
1000
0000
0000
0000
,
0010
0000
0000
0000
,
0100
0000
0100
0000
,
0100
0000
0000
0000
,
0001
0000
0000
0000
,
0010
0000
0000
0000
,
0100
0000
0100
0000
,
0100
0000
0000
0000
,
1000
0000
0000
0000
,
0010
0000
0000
0000
,
1000
0000
0000
0000
,
0100
0000
0100
0000
,
0100
0000
0000
0000
,
0001
0000
0000
0000
,
0010
0000
0000
0000
,
0100
0000
0100
0000
,
0100
0000
0000
0000
,
0001
0000
0000
0000
,
1000
0000
0000
0000
,
0010
0000
0010
0000
,
0010
0000
0000
0000
,
1000
0000
0000
0000
,
0100
0000
0000
0000
,
0010
0000
0010
0000
,
0010
0000
0010
0000
,
0010
0000
0000
0000
,
1000
0000
0000
0000
,
0001
0000
0000
0000
,
0010
0000
0000
0000
,
0100
0000
0100
0000
,
0100
0000
0000
0000
,
1000
0000
0000
0000
,
0010
0000
0000
0000
,
0100
0000
0100
0000
,
0100
0000
0000
0000
,
0001
0000
0000
0000
,
1000
0000
0000
0000
,
0010
0000
0010
0010
;

//---------------dance-single - ----------------
#NOTES:
     dance-single:
     :
     Easy:
     3:
     0.262,0.284,0.017,0.008,0.000:
0000
0000
0000
0000
,
0000
0000
0000
0000
,
0000
0000
0000
0000
,
0000
0000
0000
0000
,
1000
0100
1000
1000
,
0001
0100
0001
0001
,
1000
0010
0100
0001
,
1000
0100
0010
0001
,
1001
0000
1000
1000
,
0001
0010
0100
1000
,
0010
0100
0001
0010
,
0001
0100
0010
1000
,
0100
0010
0001
0000
,
0100
0010
1000
0010
,
0100
0001
0010
0100
,
1000
0100
0010
0001
,
1000
0010
0100
0000
,
0001
0001
0010
0010
,
0100
0100
1000
0010
,
0100
0100
0001
0001
,
1000
1000
0010
1000
,
0100
0100
0010
0010
,
0001
0001
0100
0010
,
1000
1000
0001
0001
,
0010
0010
0001
0100
,
0010
0000
1000
0000
,
0100
0000
1000
0001
,
0010
0000
0001
0000
,
0100
0000
0010
1000
,
0100
0000
0010
0000
,
0001
0000
0100
0010
,
1000
0000
0010
0000
,
0100
0000
0001
0010
,
0100
0100
1000
0000
,
0010
0010
0100
0000
,
0001
0001
1000
1000
,
0010
0000
1000
0000
,
0100
0100
0110
0000
,
0010
0001
0100
0010
,
1000
0100
0010
0001
,
1000
0010
1000
0001
,
0010
0001
0100
0000
,
0001
0010
0100
1000
,
0010
1000
0001
0100
,
0001
0010
0100
1000
,
0001
0010
0001
0000
,
0100
0000
0001
0000
,
0010
0000
0001
1000
,
0100
0000
1000
0000
,
0010
0000
0100
0001
,
0010
0000
0100
0000
,
1000
0000
0010
0100
,
0001
0000
0100
0000
,
0010
0000
1000
0100
,
0010
0010
0001
0001
,
2000
0000
3001
0000
,
1000
0010
0100
0001
,
1000
0100
0010
0001
,
1000
0010
0001
0010
,
1000
0100
0001
0000
,
1000
0100
0010
0001
,
1000
0010
0100
0001
,
1000
0100
0001
0100
,
1000
0010
0001
0000
,
0010
1000
0100
0000
,
0010
0100
0001
0010
,
0100
1000
0010
0000
,
0100
0001
1000
0010
;

//---------------dance-single - ----------------
#NOTES:
     dance-single:
     :
     Medium:
     5:
     0.410,0.399,0.168,0.067,0.008:
0000
0000
0000
0000
,
0000
0000
0000
0000
,
0000
0000
0000
0000
,
0000
0000
0000
0000
,
1000
0000
0001
0000
0100
0010
0100
0000
,
0001
0000
0010
0000
0100
1000
0100
0000
,
0010
0000
0001
0000
0100
0010
0100
0000
,
0010
0000
1000
0001
1000
0000
0010
0000
,
2002
0000
0000
3003
,
1000
0000
0100
0000
0010
0001
0010
0000
,
0001
0000
0100
0000
0010
1000
0010
0000
,
0100
0000
0001
0000
1000
0100
1000
0000
,
0001
0000
0100
0001
0100
0000
0101
0000
,
0100
0000
0010
0000
1000
0010
1000
0000
,
0100
0000
1000
0000
0001
1000
0001
0000
,
0100
0000
0010
0000
1000
0100
1000
0000
,
0001
0000
0010
0001
0010
0000
0011
0000
,
0001
0000
0100
0100
0100
0000
0010
0010
,
0010
0000
1000
1000
1000
0000
1001
0000
,
1000
0000
0100
0100
0100
0000
0010
0010
,
0010
0000
0001
0001
0001
0000
0101
0000
,
0100
0000
0010
0010
0010
0000
1000
1000
,
1000
0000
0100
0100
0100
0000
0110
0000
,
0010
0000
0001
0001
0001
0000
1000
1000
,
1000
0000
0010
0010
0010
0000
0110
0000
,
0100
0000
0001
0000
0010
0000
0001
0100
,
0001
0100
0010
0110
,
0010
0000
1000
0000
0100
0000
1000
0001
,
1000
0010
0100
0101
,
0001
0000
0010
0000
0100
0000
0010
0001
,
0010
0001
0100
0110
,
0010
0000
1000
0000
0100
0000
0010
0001
,
0100
0001
0100
0000
0010
1000
0010
0000
,
1000
0000
0100
0010
0100
0000
1001
0000
,
1000
0000
0010
0000
0100
0001
0100
0000
,
0020
2030
3200
0320
,
0032
0010
1000
0103
,
0001
1000
0010
0100
0001
0000
1001
0000
,
1000
0000
0010
0000
0100
0001
0100
0000
,
0001
0000
0010
0000
0100
1000
0100
0000
,
0010
0000
0001
0000
0100
0010
0100
0000
,
0010
0000
1000
0001
1000
0000
1100
0000
,
1000
0000
0100
0000
0010
0001
0010
0000
,
0001
0000
0100
0000
0010
1000
0010
0000
,
0100
0000
0001
0000
1000
0100
1000
0000
,
0001
0000
0100
0001
0100
0000
0101
0000
,
0100
0000
0001
0000
0010
0000
0001
0100
,
0001
0100
0010
0110
,
0010
0000
1000
0000
0100
0000
1000
0001
,
1000
0010
0100
0101
,
0001
0000
0010
0000
0100
0000
0010
0001
,
0010
0001
0100
0110
,
0010
0000
1000
0000
0100
0000
0010
0001
,
0100
0001
0100
0000
0010
1000
0010
1000
,
0001
0000
0000
0010
0000
0000
0100
0000
0000
1000
0000
0000
0010
0000
0100
0000
,
0002
0010
1003
0000
,
1000
0000
0100
0000
0010
0001
0010
0000
,
0001
0000
0100
0000
0010
1000
0010
0000
,
0100
0000
0001
0000
1000
0100
1000
0000
,
0001
0000
0100
0001
0100
0000
0101
0000
,
0100
0000
0010
0000
1000
0010
1000
0000
,
0100
0000
1000
0000
0001
1000
0001
0000
,
0100
0000
0010
0000
1000
0100
1000
0000
,
0001
0000
0010
0001
0010
0000
0011
0000
,
1000
0000
0001
0100
0001
0000
0000
0000
,
0010
0000
0100
1000
0100
0000
0011
0000
,
0001
0000
0100
0010
0100
0000
0000
0000
,
0010
0000
1000
0001
1000
0000
0010
0100
;
